osu file format v13

[General]
AudioFilename: dennou coil - prism.mp3
AudioLeadIn: 0
PreviewTime: 54685
Countdown: 0
SampleSet: Soft
StackLeniency: 0.7
Mode: 0
LetterboxInBreaks: 0
WidescreenStoryboard: 0

[Editor]
Bookmarks: 957,44323,46096,72005
DistanceSpacing: 0.8
BeatDivisor: 4
GridSize: 4
TimelineZoom: 1

[Metadata]
Title:Prism TV EDIT
TitleUnicode:プリズム TV EDIT
Artist:Ikeda Ayako
ArtistUnicode:池田綾子
Creator:Pho
Version:Hard
Source:電脳コイル
Tags:dennou coil a circle of children opening yasako isako fumie daichi densuke kyouko oyaji satchi augmented reality
BeatmapID:469051
BeatmapSetID:159168

[Difficulty]
HPDrainRate:6
CircleSize:4
OverallDifficulty:6
ApproachRate:7.5
SliderMultiplier:2.3
SliderTickRate:2

[Events]
//Background and Video events
Video,-978,"pris.avi"
0,0,"coil1.jpg",0,0
//Break Periods
//Storyboard Layer 0 (Background)
//Storyboard Layer 1 (Fail)
//Storyboard Layer 2 (Pass)
//Storyboard Layer 3 (Foreground)
//Storyboard Sound Samples
//Background Colour Transformations
3,100,0,0,0

[TimingPoints]
9958,545.454545454546,4,2,1,20,1,0
10503,-133.333333333333,4,2,1,20,0,0
18139,-111.111111111111,4,2,1,25,0,0
18685,-111.111111111111,4,2,1,30,0,0
35321,-111.111111111111,4,2,0,40,0,0
36139,-111.111111111111,4,2,1,50,0,0
51412,-111.111111111111,4,2,1,60,0,0
53594,-100,4,3,0,25,0,0
53867,-100,4,3,0,35,0,0
54139,-100,4,3,0,45,0,0
54412,-100,4,3,0,55,0,0
54685,545.454545454546,4,2,0,75,1,1
62321,-100,4,3,0,45,0,1
62594,-100,4,3,0,55,0,1
62866,-100,4,3,0,55,0,1
63139,-100,4,3,0,60,0,1
63275,-100,4,3,0,65,0,0
63412,-100,4,2,0,75,0,1
71321,-100,4,3,0,45,0,1
71594,-100,4,3,0,55,0,1
71866,-100,4,3,0,65,0,1
72139,-100,4,2,0,75,0,1
72957,-100,4,2,1,55,0,1
73775,-100,4,2,0,65,0,1
74321,-100,4,2,1,55,0,1
75412,-100,4,1,0,70,0,1
75685,-100,4,3,0,60,0,1
75957,-100,4,3,0,50,0,1
76230,-100,4,3,0,40,0,0
76503,-100,4,2,0,30,0,0
78139,-100,4,2,0,20,0,0

[Colours]
Combo1 : 27,71,126
Combo2 : 12,67,58
Combo3 : 128,0,0
Combo4 : 15,41,74
Combo5 : 223,223,0
Combo6 : 71,67,58
Combo7 : 24,139,119
Combo8 : 191,0,0

[HitObjects]
256,184,9958,5,0,0:0:0:0:
256,69,10230,1,0,0:0:0:0:
148,160,10503,2,0,P|152:232|252:300,1,172.500006580353,2|0,0:0|0:0,0:0:0:0:
308,280,11321,1,0,0:0:0:0:
439,222,11594,2,0,L|460:138,1,86.2500032901765,2|0,0:0|0:0,0:0:0:0:
382,100,12139,5,0,0:0:0:0:
244,132,12412,1,0,0:0:0:0:
244,132,12548,1,0,0:0:0:0:
244,132,12685,1,2,0:0:0:0:
320,204,12958,2,0,P|240:236|160:192,1,172.500006580353
120,108,13776,1,2,0:0:0:0:
120,108,14321,5,0,0:0:0:0:
212,84,14593,1,0,0:0:0:0:
304,112,14867,1,2,0:0:0:0:
336,200,15139,2,0,P|300:240|188:236,1,172.500006580353
106,240,15958,1,2,0:0:0:0:
106,240,16503,6,0,P|136:176|188:320,1,345.000013160706
188,240,18139,1,2,0:0:0:0:
208,44,18685,5,0,0:0:0:0:
132,152,18958,1,0,0:0:0:0:
248,212,19230,1,2,0:0:0:0:
328,108,19503,1,0,0:0:0:0:
200,116,19776,1,0,0:0:0:0:
200,116,19912,1,0,0:0:0:0:
200,116,20049,1,0,0:0:0:0:
120,220,20321,1,2,0:0:0:0:
209,315,20594,1,0,0:0:0:0:
340,300,20867,53,0,0:0:0:0:
340,300,21003,1,0,0:0:0:0:
340,300,21139,1,0,0:0:0:0:
408,196,21412,2,0,P|394:134|348:92,1,103.499996841431,2|0,0:0|0:0,0:0:0:0:
264,36,21958,1,0,0:0:0:0:
144,64,22230,1,0,0:0:0:0:
104,188,22503,2,0,P|118:250|164:292,1,103.499996841431,2|0,0:0|0:0,0:0:0:0:
229,189,23048,5,0,0:0:0:0:
350,216,23321,1,0,0:0:0:0:
404,104,23594,2,0,P|376:48|320:24,1,103.499996841431,2|0,0:0|0:0,0:0:0:0:
220,56,24139,1,0,0:0:0:0:
329,115,24412,1,0,0:0:0:0:
229,190,24685,2,0,P|245:238|309:270,1,103.499996841431,2|0,0:0|0:0,0:0:0:0:
375,179,25230,6,0,P|399:147|395:75,1,103.499996841431
379,55,25639,1,0,0:0:0:0:
347,39,25776,1,2,0:0:0:0:
311,39,25912,1,0,0:0:0:0:
279,55,26048,1,0,0:0:0:0:
145,111,26321,2,0,L|89:129,2,51.7499984207154,0|0|0,0:0|0:0|0:0,0:0:0:0:
256,204,26867,2,0,P|276:276|264:308,1,103.499996841431,2|0,0:0|0:0,0:0:0:0:
152,340,27412,6,0,L|100:288,2,51.7499984207154,0|0|0,0:0|0:0|0:0,0:0:0:0:
268,300,27958,2,0,P|244:224|192:188,1,103.499996841431,2|0,0:0|0:0,0:0:0:0:
292,100,28503,2,0,L|352:100,1,51.7499984207154
396,100,28776,1,0,0:0:0:0:
456,208,29048,2,0,P|425:249|416:299,1,103.499996841431,2|0,0:0|0:0,0:0:0:0:
268,300,29594,70,0,L|208:288,1,51.7499984207154,0|0,0:0|0:0,0:0:0:0:
168,280,29867,1,0,0:0:0:0:
112,168,30139,2,0,P|144:104|192:72,1,103.499996841431,2|0,0:0|0:0,0:0:0:0:
312,60,30685,1,0,0:0:0:0:
312,60,30821,1,0,0:0:0:0:
312,60,30958,1,0,0:0:0:0:
424,152,31230,2,0,P|440:224|424:272,1,103.499996841431,2|0,0:0|0:0,0:0:0:0:
316,336,31776,5,0,0:0:0:0:
316,336,31912,1,0,0:0:0:0:
316,336,32048,1,0,0:0:0:0:
256,208,32321,2,0,P|268:144|244:84,1,103.499996841431,2|0,0:0|0:0,0:0:0:0:
60,160,32867,2,0,P|48:224|72:284,1,103.499996841431,0|0,0:0|0:0,0:0:0:0:
156,220,33412,2,0,P|176:272|240:308,1,103.499996841431,2|0,0:0|0:0,0:0:0:0:
392,252,33958,5,0,0:0:0:0:
324,124,34230,1,0,0:0:0:0:
324,124,34366,1,0,0:0:0:0:
324,124,34503,1,2,0:0:0:0:
188,124,34776,1,0,0:0:0:0:
188,124,34912,1,0,0:0:0:0:
188,124,35049,1,0,0:0:0:0:
256,236,35321,2,0,L|256:287,1,51.7499984207154,2|0,0:0|0:0,0:0:0:0:
256,287,35594,1,2,2:0:0:0:
104,219,36139,6,0,P|91:159|119:90,1,103.499996841431,4|0,0:0|0:0,0:0:0:0:
200,44,36685,1,0,0:0:0:0:
353,72,36958,2,0,B|445:88|445:88|457:168|417:200,1,206.999993682861,2|0,0:0|0:0,0:0:0:0:
326,274,37776,1,0,0:0:0:0:
217,216,38048,1,0,0:0:0:0:
220,88,38321,6,0,P|275:101|321:145,1,103.499996841431,2|0,0:0|0:0,0:0:0:0:
312,254,38867,1,0,0:0:0:0:
160,284,39139,1,2,0:0:0:0:
160,284,39685,1,2,0:0:0:0:
288,180,39958,1,0,1:0:0:0:
176,176,40230,1,0,0:0:0:0:
268,280,40503,101,2,0:0:0:0:
368,184,40776,1,0,0:0:0:0:
292,68,41048,1,0,0:0:0:0:
164,120,41321,1,2,0:0:0:0:
183,258,41594,2,0,P|239:282|295:270,1,103.499996841431,2|0,0:0|0:0,0:0:0:0:
352,160,42139,2,0,P|284:136|240:147,1,103.499996841431,0|0,0:0|0:0,0:0:0:0:
280,276,42685,6,0,B|336:304|384:284|384:284|430:317|487:295,1,206.999993682861,2|0,0:0|0:0,0:0:0:0:
476,148,43503,1,2,0:0:0:0:
332,192,43776,1,0,0:0:0:0:
180,192,44048,1,2,0:0:0:0:
56,124,44321,2,0,P|80:80|127:41,1,103.499996841431,0|0,1:0|0:0,0:0:0:0:
256,188,44867,101,2,0:0:0:0:
256,188,45412,1,0,0:0:0:0:
164,88,45685,2,0,P|256:52|356:96,1,206.999993682861,2|0,0:0|0:0,0:0:0:0:
304,288,46503,2,0,P|256:304|208:288,1,103.499996841431,0|0,1:0|0:0,0:0:0:0:
100,188,47048,5,2,0:0:0:0:
256,32,47594,1,0,0:0:0:0:
256,32,47867,2,0,P|340:28|428:112,1,206.999993682861,2|0,0:0|0:0,0:0:0:0:
312,172,48685,1,0,1:0:0:0:
208,172,48958,1,0,0:0:0:0:
160,324,49230,2,0,P|256:356|356:324,1,206.999993682861,2|0,0:0|0:0,0:0:0:0:
360,192,50048,53,2,0:0:0:0:
152,191,50321,1,0,0:0:0:0:
316,100,50594,1,2,0:0:0:0:
196,104,50867,1,0,1:0:0:0:
256,4,51139,1,0,0:0:0:0:
256,172,51412,1,2,0:0:0:0:
128,224,51685,5,0,1:0:0:0:
108,252,51821,1,2,0:0:0:0:
385,224,52094,5,0,1:0:0:0:
405,252,52230,1,2,0:0:0:0:
399,86,53594,5,8,0:0:0:0:
358,106,53730,1,0,0:0:0:0:
312,108,53867,1,8,0:0:0:0:
268,95,54003,1,0,0:0:0:0:
229,72,54139,1,4,0:0:0:0:
188,52,54276,1,0,0:0:0:0:
142,49,54412,1,4,0:0:0:0:
101,68,54548,1,0,0:0:0:0:
80,109,54685,22,0,L|60:225,1,115,4|0,0:0|3:0,0:0:0:0:
112,228,55094,1,0,3:0:0:0:
164,232,55230,2,0,P|204:320|232:332,1,115,2|0,0:0|0:0,0:0:0:0:
336,176,55775,1,0,2:0:0:0:
299,204,55912,1,0,3:0:0:0:
263,232,56048,1,0,0:0:0:0:
144,76,56321,2,0,P|184:40|264:48,1,115,2|0,0:0|0:0,0:0:0:0:
400,128,56866,5,0,0:0:0:0:
394,173,57003,1,0,3:0:0:0:
387,218,57139,1,0,0:0:0:0:
188,228,57412,2,0,P|208:288|280:304,1,115,2|0,0:0|0:0,0:0:0:0:
428,268,57957,2,0,L|488:240,2,57.5,0|0|0,0:0|3:0|0:0,0:0:0:0:
364,96,58503,2,0,P|336:52|260:28,1,115,2|0,0:0|0:0,0:0:0:0:
120,120,59048,5,0,0:0:0:0:
165,129,59185,1,0,3:0:0:0:
209,138,59321,1,0,0:0:0:0:
254,148,59458,1,0,0:0:0:0:
298,159,59594,1,2,0:0:0:0:
396,284,59867,1,0,0:0:0:0:
236,344,60139,2,0,L|236:272,2,57.5,0|0|0,0:0|3:0|0:0,0:0:0:0:
88,216,60685,2,0,P|55:180|56:76,1,115,2|0,0:0|0:0,0:0:0:0:
200,28,61230,53,0,0:0:0:0:
246,23,61367,1,0,3:0:0:0:
291,30,61503,1,0,0:0:0:0:
330,53,61639,1,0,0:0:0:0:
361,87,61776,1,2,0:0:0:0:
340,280,62048,1,0,0:0:0:0:
148,296,62321,21,0,0:0:0:0:
137,257,62457,1,0,0:0:0:0:
136,217,62593,1,0,0:0:0:0:
144,177,62730,1,0,0:0:0:0:
160,141,62866,1,2,2:0:0:0:
185,109,63002,1,0,0:0:0:0:
216,84,63139,1,0,0:0:0:0:
252,66,63275,1,0,0:0:0:0:
291,57,63412,6,0,L|391:133,1,115,4|0,0:0|0:0,0:0:0:0:
328,316,63957,1,2,0:0:0:0:
148,348,64230,1,0,0:0:0:0:
212,208,64503,2,0,L|260:252,2,57.5,0|0|0,0:0|3:0|0:0,0:0:0:0:
88,112,65048,1,2,0:0:0:0:
232,56,65321,1,0,0:0:0:0:
312,252,65594,5,0,0:0:0:0:
296,295,65730,1,0,3:0:0:0:
279,337,65866,1,0,0:0:0:0:
144,176,66139,2,0,P|192:136|256:148,1,115,2|0,0:0|0:0,0:0:0:0:
400,264,66685,2,0,L|456:312,2,57.5,0|0|0,0:0|3:0|0:0,0:0:0:0:
212,320,67230,2,0,L|96:356,1,115,2|0,0:0|0:0,0:0:0:0:
144,176,67775,53,0,0:0:0:0:
188,164,67912,1,0,3:0:0:0:
232,152,68048,1,0,0:0:0:0:
356,292,68321,1,2,0:0:0:0:
488,148,68594,22,0,P|440:80|300:8,1,230,4|0,0:0|0:0,0:0:0:0:
256,224,69412,1,2,0:0:0:0:
156,128,69685,2,0,P|256:88|364:132,1,230,0|0,0:0|3:0,0:0:0:0:
332,288,70503,2,0,B|216:308,1,115,4|0,0:0|0:0,0:0:0:0:
104,304,71048,1,0,0:0:0:0:
104,151,71321,5,0,0:0:0:0:
149,159,71457,1,0,0:0:0:0:
194,157,71593,1,2,2:0:0:0:
238,143,71730,1,0,0:0:0:0:
277,119,71866,1,0,0:0:0:0:
309,86,72002,1,0,0:0:0:0:
341,52,72139,2,0,B|433:12|433:12|497:72|465:164,1,230,4|2,0:0|0:3,0:0:0:0:
377,228,72957,1,2,2:0:0:0:
256,32,73503,5,0,0:0:0:0:
317,155,73775,2,0,L|197:155,1,115,2|0,0:3|0:0,0:0:0:0:
172,290,74321,2,0,B|280:290|280:290|316:350|380:358,1,230,2|2,0:0|3:0,0:0:0:0:
416,192,75139,53,2,0:0:0:0:
256,32,75412,1,0,0:0:0:0:
96,192,75685,1,8,3:0:0:0:
256,352,75957,1,4,0:0:0:0:
256,192,76230,1,4,0:1:0:0:
256,192,76503,12,2,78685,0:0:0:0:
