osu file format v7

[General]
AudioFilename: dennou coil - prism.mp3
AudioLeadIn: 0
PreviewTime: 53590
Countdown: 0
SampleSet: Soft
StackLeniency: 0.7
Mode: 0
LetterboxInBreaks: 1

[Editor]
Bookmarks: 0,5454,9272,9954,11318,16499,22772,27409,30954,31499,35863,40227,44318,47863,51409,53590,58227,62318,70772,72954,75136,78681
DistanceSpacing: 0.800000011920929
BeatDivisor: 4
GridSize: 8

[Metadata]
Title:Prism (TV Size)
Artist:Ikeda Ayako
Creator:KoromoAmae
Version:Kyoko
Source:Dennou Coil
Tags:MADHOUSE

[Difficulty]
HPDrainRate:2
CircleSize:4
OverallDifficulty:2
SliderMultiplier:1.4
SliderTickRate:1

[Events]
//Background and Video events
0,0,"dennou-coil.jpg"
Video,0,"Dennou Coil no sound.avi"
//Break Periods
//Storyboard Layer 0 (Background)
//Storyboard Layer 1 (Fail)
//Storyboard Layer 2 (Pass)
//Storyboard Layer 3 (Foreground)
//Storyboard Sound Samples
//Background Colour Transformations
3,100,163,162,255

[TimingPoints]
9954,545.454545454545,4,2,0,30,1,0
35590,-100,4,2,0,50,0,0
54681,-100,4,2,0,60,0,1
75135,-100,4,2,0,60,0,0
76090,-100,4,2,0,0,0,0

[Colours]
Combo1 : 125,125,0
Combo2 : 255,128,0
Combo3 : 128,128,128
Combo4 : 118,58,58
Combo5 : 18,1,169

[HitObjects]
32,320,9953,1,0
144,320,10499,1,8
312,320,11317,1,0
424,320,11863,1,0
424,264,12135,1,0
416,128,13772,5,8
304,128,14317,2,0,B|16:128|48:224|16:320|320:320,1,560,0|4
320,96,17590,1,8
320,296,18681,5,4
216,168,19499,1,0
48,168,20317,1,0
48,224,20590,1,8
128,288,22772,5,8
184,288,23044,1,0
352,288,23863,1,0
352,120,24681,1,0
296,120,24953,1,8
160,32,27408,5,0
328,32,28226,1,0
328,200,29044,1,8
272,200,29317,1,0
288,256,31499,5,8
232,256,31772,2,0,B|72:264|120:96|120:96,1,210,0|0
280,128,33408,1,0
336,128,33681,1,4
224,64,35863,5,8
280,64,36135,2,0,B|440:64|472:160,2,210
280,120,38044,1,8
280,232,38590,1,4
280,344,39135,1,4
112,320,40226,5,8
112,264,40499,2,0,B|112:40,2,210
168,264,42408,1,8
280,264,42953,2,0,B|352:264,2,70
448,96,44317,5,4
336,96,44863,2,0,B|112:96,1,210
216,160,46226,2,0,B|296:160,2,70,0|0|8
200,344,47863,5,0
264,256,48408,1,8
152,256,48954,2,0,B|152:64|248:32|376:32|504:128,1,490,12|0
440,216,51408,6,0,B|416:256|368:256|336:192,2,105
64,128,53590,5,0
176,128,54135,1,4
288,128,54681,5,4
400,128,55226,1,8
400,184,55499,1,8
288,184,56044,1,4
176,184,56590,1,4
64,184,57135,1,8
64,296,57681,1,4
176,296,58226,5,8
232,296,58499,1,12
344,296,59044,1,0
344,184,59590,1,8
288,184,59863,1,4
176,184,60408,1,8
176,296,60953,2,0,B|96:312|64:312|48:224|40:192|72:152,1,210
64,56,62317,5,8
120,56,62590,1,0
176,56,62863,1,8
232,56,63135,1,0
288,56,63408,5,4
400,56,63954,1,8
400,112,64226,1,12
400,224,64772,2,0,B|328:224,2,70
288,224,65863,5,8
288,280,66135,1,4
288,336,66408,1,12
176,352,66954,1,8
176,296,67226,2,0,B|240:136,1,140,8|0
336,200,68317,5,8
336,144,68590,1,4
224,144,69135,1,4
112,144,69681,1,4
112,256,70226,1,8
72,360,70772,5,0
184,360,71317,1,8
296,360,71863,2,0,B|296:280|192:280,1,140
296,216,72954,1,0
408,216,73499,1,8
408,104,74044,2,0,B|344:104|264:104,1,140
120,40,75135,5,2
120,96,75408,1,2
120,152,75681,1,0
120,208,75954,1,2
256,192,76226,12,0,78681
