osu file format v7

[General]
AudioFilename: dennou coil - prism.mp3
AudioLeadIn: 0
PreviewTime: 53590
Countdown: 0
SampleSet: Soft
StackLeniency: 0.7
Mode: 0
LetterboxInBreaks: 1

[Editor]
Bookmarks: 0,5454,9272,11318,16499,22772,30954,39954,41863,44318,47863,51409,53590,58227,62318,70772,75136,78681
DistanceSpacing: 0.800000011920929
BeatDivisor: 8
GridSize: 8

[Metadata]
Title:Prism (TV Size)
Artist:Ikeda Ayako
Creator:KoromoAmae
Version:Isako
Source:Dennou Coil
Tags:MADHOUSE

[Difficulty]
HPDrainRate:8
CircleSize:5
OverallDifficulty:7
SliderMultiplier:1.4
SliderTickRate:1

[Events]
//Background and Video events
0,0,"dennou-coil.jpg"
Video,0,"Dennou Coil no sound.avi"
//Break Periods
2,25153,25963
//Storyboard Layer 0 (Background)
//Storyboard Layer 1 (Fail)
//Storyboard Layer 2 (Pass)
//Storyboard Layer 3 (Foreground)
//Storyboard Sound Samples
//Background Colour Transformations
3,100,163,162,255

[TimingPoints]
9954,545.454545454545,4,2,0,30,1,0
35863,-100,4,2,0,50,0,0
54681,-100,4,2,0,60,0,1
75135,-100,4,2,0,60,0,0
76226,-100,4,2,0,0,0,0

[Colours]
Combo1 : 255,128,0
Combo2 : 111,111,0
Combo3 : 128,0,0
Combo4 : 0,0,128
Combo5 : 128,128,128

[HitObjects]
448,64,9953,5,0
448,120,10226,1,0
424,120,10363,1,0
400,120,10499,1,0
400,176,10772,1,0
312,240,11317,5,0
224,312,11863,1,0
168,312,12135,1,0
136,264,12408,1,0
104,216,12681,1,0
104,160,12953,1,0
104,104,13226,1,0
192,32,13772,1,4
304,32,14317,5,0
304,88,14590,1,0
328,88,14726,1,0
352,88,14863,1,0
352,144,15135,1,0
288,352,15953,5,0
232,352,16226,1,0
176,352,16499,1,0
176,296,16772,1,0
232,296,17044,1,0
288,296,17317,1,0
344,296,17590,2,0,B|440:296,1,70
472,296,18135,1,4
64,32,18681,6,0,B|224:32,1,140,8|0
232,32,19363,1,0
256,32,19499,2,0,B|480:32,1,210,8|0
440,80,20590,2,0,B|216:80,1,210,0|8
248,136,21681,2,0,B|400:136,1,140,0|8
368,88,22499,1,0
352,32,22772,5,8
296,32,23044,1,0
240,32,23317,1,0
216,32,23453,1,0
192,32,23590,1,8
136,32,23863,1,0
56,112,24408,1,0
112,112,24681,1,8
56,112,24953,1,4
32,320,26863,5,0
56,320,26999,1,0
80,320,27135,1,0
104,320,27272,1,0
128,320,27408,2,0,B|288:256|128:160,1,210,0|8
256,96,29044,5,8
256,120,29181,1,0
256,144,29317,2,0,B|352:144|352:80|352:48,1,140,0|8
248,40,30408,2,0,B|152:48|160:128,1,140,0|8
112,96,31226,1,0
64,64,31499,5,8
64,120,31772,1,0
64,176,32044,1,0
88,192,32181,1,0
112,176,32317,1,8
168,176,32590,1,0
352,64,33135,5,0
352,128,33408,1,8
352,192,33681,1,4
480,32,33953,5,0
464,56,34090,1,0
480,80,34226,1,0
464,104,34363,1,0
480,128,34499,1,0
464,152,34635,1,0
480,176,34772,1,0
464,200,34908,1,0
440,216,35044,5,0
416,232,35181,1,0
392,248,35317,1,8
368,264,35454,1,0
344,280,35590,1,8
320,296,35726,1,8
296,296,35863,5,4
248,272,36135,1,8
280,232,36408,1,0
280,208,36544,1,0
280,184,36681,1,8
336,184,36954,2,0,B|432:184,1,70
408,240,37499,5,0
408,184,37772,1,8
408,128,38044,1,0
296,128,38590,1,4
184,128,39135,1,4
32,96,39954,5,8
32,120,40090,1,8
32,144,40226,1,8
88,144,40499,5,0
144,144,40772,1,0
144,200,41044,1,8
144,256,41317,1,0
384,224,41863,5,0
408,208,41999,1,0
384,192,42135,1,8
328,192,42408,1,0
232,136,42954,1,4
232,80,43226,1,0
288,80,43499,1,4
160,64,44044,5,0
104,64,44317,1,8
48,64,44590,1,0
48,120,44863,2,0,B|48:280,1,140,4|0
104,264,45681,1,4
32,352,46226,1,8
88,352,46499,1,0
144,352,46772,1,8
200,352,47044,1,0
216,192,47863,6,4,B|256:368|312:232|320:176,1,210
376,192,48954,1,0
432,192,49226,1,8
432,136,49499,1,0
376,136,49772,1,0
376,80,50044,1,8
376,24,50317,1,0
328,56,50590,1,0
272,56,50863,1,8
160,128,51408,5,4
224,192,51681,1,8
192,216,51817,1,4
288,256,52090,1,8
256,280,52226,1,4
64,40,53590,5,0
104,40,53726,1,8
104,64,53795,1,4
104,88,53863,1,8
64,88,53999,1,0
64,128,54135,1,4
64,168,54272,1,8
64,208,54408,1,0
64,248,54544,1,0
104,248,54681,2,0,B|240:184,1,140,4|0
200,136,55499,6,0,B|200:8|296:40,1,140,4|0
288,88,56317,1,8
344,88,56590,1,0
440,32,57135,1,0
384,32,57408,1,8
328,32,57681,1,0
416,160,58226,5,0
392,160,58363,1,0
368,160,58499,1,8
344,160,58635,1,0
320,160,58772,1,8
320,216,59044,2,0,B|320:312|224:248,1,140,4|0
224,192,59863,2,4,B|224:32,1,140
256,192,60954,12,0,62044
96,192,62317,5,0
120,208,62454,1,8
144,192,62590,1,0
160,168,62726,1,0
176,144,62863,1,8
192,120,62999,1,0
208,96,63135,1,0
232,96,63272,1,8
256,96,63408,6,0,B|256:256,1,140,4|0
312,232,64226,2,0,B|312:72,1,140,4|0
256,80,65044,1,8
216,120,65317,2,0,B|272:120|320:112|320:48,1,140
344,56,65999,1,0
368,56,66135,1,8
368,112,66408,1,0
32,160,66954,5,0
32,184,67090,1,0
56,200,67226,1,8
80,184,67363,1,0
80,160,67499,1,8
80,104,67772,2,0,B|240:104,1,140,4|0
32,32,68590,5,4
480,32,69135,1,4
480,352,69681,1,4
32,352,70226,1,4
32,296,70499,5,8
64,248,70772,2,0,B|0:152|64:120,2,140,0|0|8
120,248,72135,1,0
160,208,72408,1,0
160,184,72544,1,0
160,160,72681,1,8
216,176,72954,6,4,B|216:16,2,140
272,176,74317,1,0
304,176,74454,1,8
328,160,74590,1,0
352,144,74726,1,0
376,128,74863,1,12
480,32,75135,5,2
424,32,75408,1,2
424,88,75681,1,0
368,88,75954,1,2
256,192,76226,12,0,78135
256,192,78681,5,0
