osu file format v7

[General]
AudioFilename: dennou coil - prism.mp3
AudioLeadIn: 0
PreviewTime: 53590
Countdown: 0
SampleSet: Soft
StackLeniency: 0.7
Mode: 0
LetterboxInBreaks: 1

[Editor]
Bookmarks: 0,5454,9272,11318,16499,22772,30954,39954,44318,47863,51409,53590,58227,62318,70772,75136,78681
DistanceSpacing: 0.800000011920929
BeatDivisor: 4
GridSize: 8

[Metadata]
Title:Prism (TV Size)
Artist:Ikeda Ayako
Creator:KoromoAmae
Version:Fumie
Source:Dennou Coil
Tags:MADHOUSE

[Difficulty]
HPDrainRate:5
CircleSize:4
OverallDifficulty:6
SliderMultiplier:1.4
SliderTickRate:1

[Events]
//Background and Video events
0,0,"dennou-coil.jpg"
Video,0,"Dennou Coil no sound.avi"
//Break Periods
//Storyboard Layer 0 (Background)
//Storyboard Layer 1 (Fail)
//Storyboard Layer 2 (Pass)
//Storyboard Layer 3 (Foreground)
//Storyboard Sound Samples
//Background Colour Transformations
3,100,163,162,255

[TimingPoints]
9954,545.454545454545,4,2,0,30,1,0
35590,-100,4,2,0,50,0,0
54681,-100,4,2,0,60,0,1
74317,-100,4,2,0,60,0,0
76090,-100,4,2,0,0,0,0

[Colours]
Combo1 : 0,0,155
Combo2 : 183,91,0
Combo3 : 111,111,0
Combo4 : 128,128,128
Combo5 : 128,0,0

[HitObjects]
448,64,9953,5,0
400,96,10226,1,0
448,128,10499,1,0
400,160,10772,1,0
312,232,11317,5,0
224,288,11863,1,0
168,288,12135,2,0,B|40:0,1,280,0|4
168,32,13772,1,0
280,32,14317,2,0,B|408:288,1,280,0|4
296,304,15953,5,0
240,304,16226,1,0
184,304,16499,2,0,B|272:304|344:224|352:168|328:80|264:56|216:32|152:40,1,420
64,32,18681,6,0,B|64:192,1,140
64,232,19499,2,0,B|288:232,1,210
280,288,20590,2,0,B|440:288,1,140
424,176,21681,2,0,B|264:176,1,140
312,40,22772,5,8
256,40,23044,2,0,B|96:40,1,140
56,40,23863,1,0
32,200,24681,1,8
80,200,24953,2,0,B|272:360|496:264,1,420
472,328,26863,1,8
480,32,27408,6,0,B|480:192|384:224,1,210
312,72,29044,1,8
312,128,29317,2,0,B|208:112|240:224,3,140
168,112,31499,5,8
112,112,31772,2,0,B|80:304|176:272|208:272,1,210
296,272,33135,1,0
336,232,33408,1,8
376,192,33681,1,4
32,80,35863,5,8
32,136,36135,2,0,B|0:232|64:264,1,140
112,264,36954,1,0
224,264,37499,5,0
280,264,37772,1,8
280,208,38044,1,0
208,120,38590,1,4
128,40,39135,1,4
96,320,40226,5,8
152,320,40499,1,0
264,320,41044,1,8
320,320,41317,2,0,B|416:192,1,140
408,152,42135,1,8
352,152,42408,1,0
240,152,42954,1,8
240,96,43226,1,0
296,96,43499,1,4
384,352,44317,6,0,B|384:256|288:288|288:288,1,140,8|0
136,352,45681,1,8
136,240,46226,1,0
176,280,46499,1,8
216,320,46772,2,0,B|288:384|368:304,1,140
280,192,47863,6,0,B|320:128|432:184|400:200,1,140,8|0
408,240,48681,1,0
464,240,48954,2,0,B|464:48|432:48|368:48|304:48|240:48|112:48,1,490,4|4
32,128,51408,5,4
72,168,51681,2,0,B|104:136,1,35,0|4
112,200,52090,2,0,B|144:168,1,35,0|4
448,320,53590,5,0
472,272,53863,1,8
448,224,54135,1,0
472,272,54408,1,8
416,272,54681,2,0,B|256:272,1,140,4|0
216,272,55499,6,0,B|256:216|312:128,1,140,4|0
352,152,56317,1,0
408,152,56590,1,0
456,248,57135,1,8
408,272,57408,1,0
360,248,57681,1,8
96,64,58226,5,8
64,104,58499,1,0
96,64,58772,1,8
128,104,59044,2,0,B|128:200|32:232,1,140,4|8
64,272,59863,2,0,B|224:272,2,140,4|4|4
416,320,62317,5,0
416,264,62590,1,8
416,208,62863,1,0
416,264,63135,1,8
368,232,63408,6,0,B|368:72,1,140,4|8
408,136,64226,2,0,B|360:136|360:136|312:136|312:136|256:136,1,140
264,192,65044,1,0
264,248,65317,1,8
280,40,65863,5,8
224,40,66135,1,0
168,40,66408,1,8
32,160,66954,5,8
56,208,67226,1,0
88,160,67499,1,8
112,208,67772,2,0,B|112:368,1,140,4|8
168,352,68590,1,4
216,256,69135,5,0
328,256,69681,1,0
392,352,70226,1,0
64,224,70772,6,8,B|48:320|144:312,2,140
120,224,72135,1,4
256,224,72954,6,8,B|256:64,2,140
32,32,75135,5,2
88,32,75408,1,2
88,88,75681,1,0
32,88,75954,1,2
256,192,76226,12,0,78681
