osu file format v9

[General]
AudioFilename: dennou coil - prism.mp3
AudioLeadIn: 0
PreviewTime: 54687
Countdown: 0
SampleSet: Soft
StackLeniency: 0.7
Mode: 0
LetterboxInBreaks: 1

[Editor]
DistanceSpacing: 0.8
BeatDivisor: 4
GridSize: 8

[Metadata]
Title:Prism ( TV Size )
Artist:Ikeda Ayako
Creator:FifiHyuga
Version:Normal
Source:Dennou Coil
Tags:Dennou Coil, Coil a Circle of Children, Anime.

[Difficulty]
HPDrainRate:5
CircleSize:3
OverallDifficulty:4
ApproachRate:5
SliderMultiplier:1.3
SliderTickRate:2

[Events]
//Background and Video events
Video,0,"Dennou Coil no sound.avi"
0,0,"coil1.jpg"
//Break Periods
2,18887,26214
//Storyboard Layer 0 (Background)
//Storyboard Layer 1 (Fail)
//Storyboard Layer 2 (Pass)
//Storyboard Layer 3 (Foreground)
//Storyboard Sound Samples
//Background Colour Transformations
3,100,0,0,0

[TimingPoints]
9960,545.454545454546,4,2,0,30,1,0
54687,545.454545454546,4,2,0,30,1,1
61777,-100,4,2,0,30,0,0

[Colours]
Combo1 : 71,67,58
Combo2 : 128,0,0
Combo3 : 15,41,74
Combo4 : 12,67,58

[HitObjects]
136,72,9960,2,0,B|64:96|64:96|64:152,1,130
64,256,11050,1,8
168,256,11596,2,0,B|240:232|240:232|240:176,1,130
240,72,12687,1,8
344,72,13232,2,0,B|344:216,1,130
200,264,14323,5,8
128,192,14869,2,0,B|40:192,2,65
200,120,15960,1,8
304,120,16505,2,0,B|304:200,2,65
408,120,17596,1,8
408,224,18141,1,0
408,224,18687,1,4
400,232,27414,5,0
328,304,27960,1,8
264,224,28505,2,0,B|216:280|136:272,1,130
80,192,29596,1,8
152,112,30141,1,0
256,112,30687,1,8
200,200,31232,6,0,B|256:240|328:224,1,130
368,128,32323,1,8
323,224,32869,1,8
264,144,33414,2,0,B|200:120|128:144,1,130
256,192,34232,12,4,35596
104,88,36141,5,8
48,176,36687,1,8
152,176,37232,2,0,B|216:208|280:192,1,130
280,192,38323,1,0
336,112,38869,1,8
400,192,39414,1,0
344,280,39960,6,0,B|200:280,1,130
120,240,41050,1,8
48,320,41596,1,0
120,240,42141,1,8
120,136,42687,1,0
224,136,43232,1,8
328,136,43778,1,0
272,224,44323,6,0,B|232:272|152:256,1,130
96,168,45414,1,8
152,80,45960,1,0
192,176,46505,2,0,B|248:232|328:176,1,130
368,104,47596,1,8
440,176,48141,1,0
376,256,48687,1,8
304,184,49232,1,8
304,184,49778,2,0,B|144:184,1,130
256,192,50869,12,0,53050
128,40,53596,5,8
56,112,54141,1,8
160,136,54687,2,2,B|208:192|280:176,1,130
296,72,55777,1,0
376,136,56323,1,8
280,168,56868,2,2,B|216:208|152:168,1,130
72,304,57959,5,8
72,304,58505,2,0,B|200:304,1,130
256,216,59596,1,8
320,296,60141,1,0
384,216,60687,1,8
328,128,61232,2,0,B|200:128,1,130
64,208,62323,5,8
64,208,62868,2,0,B|192:208,1,130
184,312,63959,1,8
184,312,64505,2,0,B|312:312,1,130
312,208,65596,1,8
312,104,66141,1,0
224,160,66687,1,8
176,64,67232,6,0,B|48:64,1,130
46,64,68323,1,8
48,168,68868,1,0
48,64,69414,1,8
136,112,69959,2,0,B|280:112,1,130
288,216,71050,5,8
216,288,71596,1,0
152,216,72141,1,8
152,112,72687,5,8
248,112,73232,2,0,B|376:112,1,130
384,216,74323,1,8
384,320,74868,1,0
280,320,75414,2,0,B|152:320|152:320|152:160,1,260
256,192,76777,12,4,78687
