osu file format v9

[General]
AudioFilename: dennou coil - prism.mp3
AudioLeadIn: 0
PreviewTime: 54687
Countdown: 0
SampleSet: Soft
StackLeniency: 0.7
Mode: 0
LetterboxInBreaks: 1

[Editor]
DistanceSpacing: 0.8
BeatDivisor: 4
GridSize: 8

[Metadata]
Title:Prism ( TV Size )
Artist:Ikeda Ayako
Creator:FifiHyuga
Version:Easy
Source:Dennou Coil
Tags:Dennou Coil, Coil a Circle of Children, Anime.

[Difficulty]
HPDrainRate:2
CircleSize:3
OverallDifficulty:2
ApproachRate:1
SliderMultiplier:1.3
SliderTickRate:2

[Events]
//Background and Video events
Video,0,"Dennou Coil no sound.avi"
0,0,"coil1.jpg"
//Break Periods
2,18887,25734
2,49432,51916
//Storyboard Layer 0 (Background)
//Storyboard Layer 1 (Fail)
//Storyboard Layer 2 (Pass)
//Storyboard Layer 3 (Foreground)
//Storyboard Sound Samples
//Background Colour Transformations
3,100,0,0,0

[TimingPoints]
9960,545.454545454546,4,2,0,30,1,0
54687,545.454545454546,4,2,0,30,1,0
79232,-100,4,2,0,5,0,0

[Colours]
Combo1 : 71,67,58
Combo2 : 128,0,0
Combo3 : 15,41,74
Combo4 : 12,67,58

[HitObjects]
104,96,9960,2,0,B|248:96,1,130
232,224,11050,2,0,B|360:224,1,130
360,104,12141,1,8
248,40,12687,2,0,B|208:112|112:64|96:168,1,195
256,272,14323,6,0,B|392:272,1,130
384,160,15414,1,8
384,56,15960,2,0,B|248:56,1,130
152,56,17050,1,8
152,168,17596,2,0,B|152:240,2,65
152,56,18687,1,4
160,64,27414,6,0,B|8:64,2,130
160,176,29050,1,0
160,288,29596,1,8
288,336,31232,6,0,B|432:288,1,130
416,192,32323,1,4
256,192,32869,12,2,34505
448,88,35596,6,0,B|304:88,1,130
320,208,36687,2,2,B|448:208,1,130
456,320,37778,2,0,B|320:320,1,130
256,224,38869,1,8
256,224,39414,1,10
184,320,39960,6,0,B|56:320,1,130
56,208,41050,2,2,B|192:208,1,130
184,88,42141,2,0,B|40:88,2,130
256,192,43778,5,0
352,256,44323,1,8
448,192,44869,1,0
448,96,45414,2,2,B|440:16|344:16|288:24|288:136,1,260
288,128,47050,1,0
184,128,47596,2,0,B|176:8|80:8|24:16|24:104,1,260
24,88,49232,1,2
312,312,53596,6,0,B|440:312,1,130
440,202,54687,1,4
440,96,55232,2,0,B|280:96,1,130
224,192,56323,6,0,B|176:264|96:240,2,130
224,96,57959,2,0,B|272:24|352:48,2,130,0|0|0
224,96,59596,1,8
224,96,60141,1,4
352,192,61232,6,0,B|480:192,1,130
480,295,62323,1,8
376,296,62868,2,0,B|216:296,1,130
248,168,63959,1,8
360,128,64505,1,0
368,256,65050,6,0,B|464:344,2,130
264,256,66687,1,8
160,256,67232,2,0,B|72:352,2,130
256,176,68868,1,8
192,64,69414,6,0,B|88:64|40:80|40:224,1,260
40,312,71050,1,8
136,312,71596,2,2,B|240:312|288:296|288:152,1,260
288,48,73232,1,0
400,48,73777,1,8
392,160,74323,6,0,B|184:160|168:272|296:320|392:304,1,390
256,192,76505,12,4,79283
