osu file format v12

[General]
AudioFilename: beatmaniaIIDX 17 SIRIUS - G59.mp3
AudioLeadIn: 0
PreviewTime: 56539
Countdown: 0
SampleSet: None
StackLeniency: 0.7
Mode: 0
LetterboxInBreaks: 0
WidescreenStoryboard: 0

[Editor]
DistanceSpacing: 0.3
BeatDivisor: 4
GridSize: 8

[Metadata]
Title:G59
TitleUnicode:
Artist:Ikareru Kin no Shishi
ArtistUnicode:
Creator:TKiller
Version:Hyper
Source:beatmania IIDX 17 SIRIUS
Tags:dj taka la cataline lepidopodus
BeatmapID:345270
BeatmapSetID:32817

[Difficulty]
HPDrainRate:7
CircleSize:4
OverallDifficulty:7
ApproachRate:8
SliderMultiplier:1.8
SliderTickRate:1

[Events]
//Background and Video events
0,0,"konachan.com-23953enma_aijigoku_shoujo.jpg",0,0
//Break Periods
//Storyboard Layer 0 (Background)
//Storyboard Layer 1 (Fail)
//Storyboard Layer 2 (Pass)
//Storyboard Layer 3 (Foreground)
//Storyboard Sound Samples
//Background Colour Transformations
3,100,163,162,255

[TimingPoints]
11363,352.941176470588,4,2,0,60,1,0
13480,-100,4,2,0,80,0,0
13657,-100,4,1,0,80,0,0
14451,-100,4,2,0,60,0,0
16304,-100,4,2,0,80,0,0
16480,-100,4,1,0,80,0,0
17098,-100,4,2,0,60,0,0
17627,-100,4,2,0,65,0,0
17892,-100,4,1,0,65,0,0
18333,-100,4,2,0,70,0,0
18598,-100,4,1,0,70,0,0
19039,-100,4,2,0,75,0,0
19215,-100,4,1,0,75,0,0
19745,-100,4,2,0,70,0,0
21245,-100,4,1,0,70,0,0
22480,-100,4,1,1,70,0,0
22833,-100,4,2,1,65,0,0
22921,-100,4,1,1,65,0,0
23451,-100,4,2,1,65,0,0
23627,-100,4,1,1,65,0,0
23892,-100,4,2,1,65,0,0
23980,-100,4,1,1,65,0,0
24245,-100,4,2,1,65,0,0
24333,-100,4,1,1,65,0,0
24598,-100,4,2,1,65,0,0
24686,-100,4,1,1,65,0,0
25215,-100,4,2,1,65,0,0
25392,-100,4,1,1,65,0,0
25657,-100,4,2,1,65,0,0
25745,-100,4,1,1,65,0,0
26010,-100,4,2,1,65,0,0
26098,-100,4,1,1,65,0,0
26362,-100,4,2,1,65,0,0
26451,-100,4,1,1,65,0,0
26715,-100,4,2,1,65,0,0
27421,-100,4,2,1,65,0,0
27510,-100,4,1,1,65,0,0
28480,-100,4,2,1,65,0,0
28568,-100,4,1,1,65,0,0
29098,-100,4,2,1,65,0,0
29274,-100,4,1,1,65,0,0
29539,-100,4,2,1,65,0,0
29627,-100,4,1,1,65,0,0
29892,-100,4,2,1,65,0,0
29980,-100,4,1,1,65,0,0
30245,-100,4,2,1,65,0,0
30333,-100,4,1,1,65,0,0
30862,-100,4,2,1,65,0,0
31039,-100,4,2,1,65,0,0
31745,-100,4,2,1,70,0,0
32451,-100,4,2,1,75,0,0
32804,-100,4,2,1,78,0,0
33157,-100,4,1,1,65,0,0
33862,-100,4,1,0,80,0,0
34127,-100,4,2,0,80,0,0
34392,-100,4,1,1,80,0,0
34833,-100,4,2,1,80,0,0
34921,-100,4,1,1,80,0,0
35186,-100,4,2,1,80,0,0
35451,-100,4,1,1,80,0,0
35892,-100,4,2,1,80,0,0
35980,-100,4,1,0,80,0,0
36951,-100,4,2,1,80,0,0
37215,-100,4,1,1,80,0,0
37657,-100,4,2,1,80,0,0
37745,-100,4,1,1,80,0,0
38010,-100,4,2,1,80,0,0
38274,-100,4,1,1,80,0,0
38715,-100,4,2,1,80,0,0
38804,-100,4,1,1,80,0,0
39157,-100,4,1,0,85,0,0
39774,-100,4,2,1,80,0,0
40039,-100,4,1,1,80,0,0
40304,-100,4,2,1,80,0,0
40568,-100,4,1,1,80,0,0
41010,-100,4,2,1,80,0,0
41098,-100,4,1,1,80,0,0
41539,-100,4,2,1,80,0,0
41627,-100,4,1,0,80,0,0
42598,-100,4,2,0,80,0,0
42686,-100,4,2,1,80,0,0
42862,-100,4,1,1,80,0,0
43304,-100,4,2,1,80,0,0
43392,-100,4,1,1,80,0,0
43657,-100,4,2,1,80,0,0
43921,-100,4,1,1,80,0,0
44362,-100,4,2,1,80,0,0
44451,-100,4,1,1,80,0,0
45245,-100,4,1,0,65,0,0
45510,-100,4,1,1,65,0,0
45774,-100,4,2,1,65,0,0
45862,-100,4,1,1,65,0,0
46127,-100,4,2,1,65,0,0
46215,-100,4,1,1,65,0,0
46392,-100,4,2,1,65,0,0
46568,-100,4,1,1,65,0,0
47274,-100,4,2,1,75,0,0
48333,-100,4,1,1,65,0,0
48598,-100,4,2,1,65,0,0
48686,-100,4,1,1,65,0,0
48951,-100,4,2,1,65,0,0
49039,-100,4,1,1,65,0,0
49833,-100,4,1,1,65,0,0
50010,-100,4,1,1,75,0,0
51421,-100,4,2,1,65,0,0
51510,-100,4,1,1,65,0,0
51774,-100,4,2,1,65,0,0
51862,-100,4,1,1,65,0,0
52127,-100,4,2,1,65,0,0
52215,-100,4,1,1,65,0,0
52921,-100,4,2,1,65,0,0
53627,-90.9090909090909,4,2,1,70,0,0
54333,-83.3333333333333,4,2,1,75,0,0
55039,-76.9230769230769,4,2,1,80,0,0
55833,-100,4,1,1,65,0,0
56451,-100,4,1,0,85,0,0
56804,-100,4,2,1,85,0,0
56980,-100,4,1,0,85,0,0
57421,-100,4,2,1,85,0,0
57510,-100,4,1,0,85,0,0
57951,-100,4,2,1,85,0,0
58039,-100,4,1,0,85,0,0
58304,-100,4,2,1,85,0,0
58568,-100,4,1,0,85,0,0
59627,-100,4,2,1,85,0,0
59804,-100,4,1,0,85,0,0
60245,-100,4,2,1,85,0,0
60333,-100,4,1,0,85,0,0
60774,-100,4,2,1,85,0,0
60862,-100,4,1,0,85,0,0
61127,-100,4,2,0,85,0,0
61392,-100,4,1,0,85,0,0
62362,-100,4,2,0,85,0,0
62627,-100,4,1,0,85,0,0
63068,-100,4,2,0,85,0,0
63157,-100,4,1,0,85,0,0
63421,-100,4,2,0,85,0,0
63686,-100,4,1,0,85,0,0
63951,-100,4,2,0,85,0,0
64215,-100,4,1,0,85,0,0
65362,-100,4,2,0,85,0,0
65451,-100,4,1,0,85,0,0
65715,-100,4,2,0,85,0,0
65980,-100,4,1,0,85,0,0
66421,-100,4,2,0,85,0,0
66510,-100,4,1,0,85,0,0
66774,-100,4,2,0,85,0,0
67039,-100,4,1,1,85,0,0
67833,-100,4,2,0,70,0,0
69201,-100,4,1,0,70,0,0
70480,-76.9230769230769,4,1,0,70,0,0
70657,-76.9230769230769,4,1,1,65,0,1
75598,-76.9230769230769,4,2,1,80,0,1
76215,-76.9230769230769,4,1,1,65,0,1
77186,-76.9230769230769,4,2,1,80,0,1
77627,-76.9230769230769,4,1,1,65,0,1
78421,-100,4,2,0,100,0,0
79127,-81.9672131147541,4,1,1,65,0,1
82657,-81.9672131147541,4,2,0,100,0,0
83362,-69.4444444444444,4,1,1,65,0,1
88304,-69.4444444444444,4,1,1,65,0,0
89010,-69.4444444444444,4,1,1,65,0,1
91127,-100,4,2,0,70,0,0
91304,-100,4,1,0,70,0,0
91745,-100,4,2,0,80,0,0
92010,-100,4,1,0,80,0,0
92451,-100,4,2,1,90,0,0
92715,-100,4,1,0,90,0,0
93157,-100,4,2,0,70,0,0
94657,-100,4,1,0,70,0,0
96598,-100,4,2,1,65,0,0
96774,-100,4,1,1,65,0,0
97304,-100,4,2,1,65,0,0
97392,-100,4,1,1,65,0,0
97657,-100,4,2,1,65,0,0
97745,-100,4,1,1,65,0,0
98010,-100,4,2,1,65,0,0
98098,-100,4,2,1,70,0,0
98892,-100,4,1,1,65,0,0
100127,-100,4,2,1,65,0,0
100304,-100,4,1,1,65,0,0
100480,-100,4,2,1,65,0,0
100568,-100,4,1,1,65,0,0
100833,-100,4,2,1,65,0,0
100921,-100,4,1,0,70,0,0
101627,-100,4,1,1,65,0,0
102862,-100,4,2,1,65,0,0
103127,-100,4,1,1,65,0,0
103568,-100,4,2,1,65,0,0
103745,-100,4,2,1,65,0,0
104451,-90.9090909090909,4,2,1,75,0,0
105157,-83.3333333333333,4,2,1,80,0,0
105862,-100,4,1,1,80,0,0
107362,-100,4,1,0,80,0,0
107539,-100,4,2,0,80,0,0
107804,-100,4,1,0,80,0,0
108245,-100,4,2,0,80,0,0
108333,-100,4,1,0,80,0,0
108598,-100,4,2,0,80,0,0
108862,-100,4,1,0,80,0,0
109215,-100,4,2,0,80,0,0
109392,-100,4,1,0,80,0,0
110362,-100,4,2,0,80,0,0
110627,-100,4,1,0,80,0,0
111068,-100,4,2,0,80,0,0
111157,-100,4,1,0,80,0,0
111421,-100,4,2,0,80,0,0
111686,-100,4,1,0,80,0,0
112657,-100,4,1,0,80,0,0
112745,-100,4,1,0,90,0,0
113362,-100,4,2,0,80,0,0
113451,-100,4,1,0,80,0,0
113892,-100,4,2,0,80,0,0
113980,-100,4,1,0,80,0,0
114421,-100,4,2,0,80,0,0
114510,-100,4,1,0,80,0,0
114951,-100,4,2,0,80,0,0
115039,-100,4,1,0,80,0,0
116010,-100,4,2,0,80,0,0
116274,-100,4,1,0,80,0,0
116715,-100,4,2,0,80,0,0
116804,-100,4,1,0,80,0,0
117068,-100,4,2,0,80,0,0
117333,-100,4,1,0,80,0,0
118657,-100,4,2,0,70,0,0
119715,-100,4,1,1,65,0,0
120068,-100,4,1,0,65,0,0
122186,-100,4,1,1,35,0,0
124127,-100,4,2,1,5,0,0

[Colours]
Combo1 : 218,3,3
Combo2 : 174,0,87
Combo3 : 0,0,164

[HitObjects]
32,152,11363,2,0,B|24:200,3,45,2|0|0|0,0:0|0:0|0:0|0:0,0:0:0:0:
112,216,11715,2,0,B|120:264,3,45,0|0|0|0,0:0|0:0|0:0|0:0,0:0:0:0:
200,136,12068,2,0,B|192:184,3,45,2|0|0|0,0:0|0:0|0:0|0:0,0:0:0:0:
280,200,12421,2,0,B|288:248,3,45
368,120,12774,2,0,B|360:168,3,45,2|0|0|0,0:0|0:0|0:0|0:0,0:0:0:0:
448,184,13126,2,0,B|456:232,3,45,0|0|0|0,0:0|0:0|0:0|0:0,0:0:0:0:
400,288,13480,5,4,0:0:0:0:
280,112,13745,1,0,0:0:0:0:
192,296,14010,1,0,0:0:0:0:
136,344,14186,6,0,B|64:376|0:336,1,135,4|0,0:0|0:0,0:0:0:0:
64,280,14539,2,0,B|136:256|144:176,1,135,0|0,0:0|0:0,0:0:0:0:
72,168,14892,2,0,B|40:104|88:32,1,135,2|0,0:0|0:0,0:0:0:0:
144,96,15245,2,0,B|216:64|280:104,1,135,0|0,0:0|0:0,0:0:0:0:
208,160,15598,2,0,B|232:232|312:240,1,135,2|0,0:0|0:0,0:0:0:0:
376,184,15951,2,0,B|408:248|360:320,1,135,0|2,0:0|0:0,0:0:0:0:
432,344,16304,5,4,0:0:0:0:
344,120,16568,1,0,0:0:0:0:
192,296,16833,1,0,0:0:0:0:
128,240,17010,6,0,B|104:232|96:192,3,45,4|0|0|2,0:0|0:0|0:0|0:0,0:0:0:0:
32,248,17363,2,0,B|16:200|40:152,1,90,0|2,0:0|0:0,0:0:0:0:
104,128,17715,5,4,0:0:0:0:
192,296,17980,1,0,0:0:0:0:
296,136,18245,1,0,0:0:0:0:
240,200,18421,5,4,0:0:0:0:
384,152,18686,1,0,0:0:0:0:
272,48,18951,1,0,0:0:0:0:
448,48,19127,5,4,0:0:0:0:
432,256,19392,1,0,0:0:0:0:
256,144,19657,1,0,0:0:0:0:
256,144,19833,6,2,B|232:128|184:136,2,60,2|0|2,0:0|0:0|0:0,0:0:0:0:
216,216,20186,2,0,B|200:240|208:288,2,60,0|2|0,0:0|0:0|0:0,0:0:0:0:
144,192,20539,2,0,B|138:163|98:135,2,60,2|0|2,0:0|0:0|0:0,0:0:0:0:
72,216,20892,2,0,B|56:230|40:224,4,30,0|0|2|0|0,0:0|0:0|0:0|0:0|0:0,0:0:0:0:
128,272,21245,5,4,0:0:0:0:
312,302,22657,6,0,B|288:272|296:216,1,90,0|2,0:0|0:0,0:0:0:0:
200,168,23010,2,0,B|264:96|376:136,1,180,0|0,0:0|0:0,0:0:0:0:
392,48,23539,1,2,0:0:0:0:
455,198,23715,2,0,B|480:168|472:112,1,90,0|2,0:0|0:0,0:0:0:0:
408,303,24068,2,0,B|464:296|494:320,1,90,0|2,0:0|0:0,0:0:0:0:
328,352,24421,2,0,B|303:321|311:265,1,90,0|2,0:0|0:0,0:0:0:0:
216,256,24774,2,0,B|152:328|40:288,1,180
50,291,25304,1,2,0:0:0:0:
32,200,25480,6,0,B|15:154|32:104,1,90,0|2,0:0|0:0,0:0:0:0:
168,72,25833,2,0,B|255:50,1,90,0|2,0:0|0:0,0:0:0:0:
255,50,26186,2,0,B|351:74,1,90,0|2,0:0|0:0,0:0:0:0:
482,111,26539,2,0,B|496:154|480:200,1,90,0|2,0:0|0:0,0:0:0:0:
304,238,26892,2,4,B|312:328,1,90,4|0,0:0|0:0,0:0:0:0:
200,328,27245,2,0,B|207:238,1,90,4|0,0:0|0:0,0:0:0:0:
248,160,27598,1,4,0:0:0:0:
160,136,27774,1,4,0:0:0:0:
224,72,27951,1,2,0:0:0:0:
248,160,28127,1,4,0:0:0:0:
160,136,28304,6,0,B|120:160|128:224,1,90,4|2,0:0|0:0,0:0:0:0:
16,368,28657,2,0,B|80:296|40:184,1,180,0|0,0:0|0:0,0:0:0:0:
0,104,29186,1,2,0:0:0:0:
160,136,29362,2,0,B|200:168|272:136,1,90,0|2,0:0|0:0,0:0:0:0:
504,192,29715,2,0,B|464:160|392:192,1,90,0|2,0:0|0:0,0:0:0:0:
248,288,30068,2,0,B|298:282|327:208,1,90,0|2,0:0|0:0,0:0:0:0:
472,48,30421,2,0,B|375:53|324:161,1,180
331,147,30951,1,2,0:0:0:0:
400,248,31127,6,0,B|408:288|400:344,1,90,4|0,0:0|0:0,0:0:0:0:
111,337,31480,2,0,B|104:288|112:248,1,90,2|0,0:0|0:0,0:0:0:0:
304,240,31833,2,0,B|312:280|304:336,1,90,4|2,0:0|0:0,0:0:0:0:
208,224,32186,2,0,B|200:174|208:134,1,90,2|0,0:0|0:0,0:0:0:0:
216,48,32539,2,0,B|111:33,1,90,4|0,0:0|0:0,0:0:0:0:
288,96,32892,2,0,B|392:81,1,90,4|0,0:0|0:0,0:0:0:0:
48,96,33245,1,4,0:0:0:0:
176,128,33421,1,4,0:0:0:0:
288,96,33598,1,2,0:0:0:0:
408,112,33774,1,4,0:0:0:0:
424,216,33951,6,0,B|393:178|321:186,1,90,0|0,0:0|0:0,0:0:0:0:
176,128,34304,1,2,0:0:0:0:
88,176,34480,2,0,B|163:243|264:192,1,180,0|2,0:0|0:0,0:0:0:0:
432,296,35010,2,0,B|424:352|349:375,2,90,0|0|2,0:0|0:0|0:0,0:0:0:0:
208,384,35539,2,0,B|240:288|340:279,1,180,0|2,0:0|0:0,0:0:0:0:
424,216,36068,1,0,0:0:0:0:
448,112,36245,1,0,0:0:0:0:
352,144,36421,1,0,0:0:0:0:
368,48,36598,1,0,0:0:0:0:
352,144,36774,6,0,B|321:182|249:174,1,90,4|0,0:0|0:0,0:0:0:0:
24,200,37127,1,2,0:0:0:0:
24,200,37215,1,0,0:0:0:0:
24,200,37303,2,0,B|117:154|192:221,1,180,0|2,0:0|0:0,0:0:0:0:
104,280,37833,2,0,B|116:325|172:333,2,90,0|0|2,0:0|0:0|0:0,0:0:0:0:
191,221,38362,2,0,B|223:125|322:116,1,180,0|2,0:0|0:0,0:0:0:0:
448,128,38892,1,0,0:0:0:0:
448,128,39068,1,0,0:0:0:0:
464,264,39245,1,8,0:0:0:0:
464,264,39598,6,0,B|433:226|361:234,1,90,4|0,0:0|0:0,0:0:0:0:
336,312,39951,1,2,0:0:0:0:
210,313,40127,2,0,B|218:259|264:248,1,90
224,168,40480,1,2,0:0:0:0:
208,40,40657,2,0,B|304:72|313:172,1,180,0|2,0:0|0:0,0:0:0:0:
496,48,41186,2,0,B|400:80|391:180,1,180,0|2,0:0|0:0,0:0:0:0:
344,248,41715,1,0,0:0:0:0:
288,328,41892,1,0,0:0:0:0:
384,336,42068,1,0,0:0:0:0:
344,248,42245,1,0,0:0:0:0:
312,160,42421,6,0,B|333:123|389:123,1,90,4|0,0:0|0:0,0:0:0:0:
240,232,42774,1,2,0:0:0:0:
240,232,42862,1,0,0:0:0:0:
240,232,42951,2,0,B|144:264|135:364,1,180,0|2,0:0|0:0,0:0:0:0:
224,144,43480,2,0,B|179:129|179:73,2,90,0|0|4,0:0|0:0|0:0,0:0:0:0:
472,352,44010,2,0,B|372:342|340:246,1,180,0|4,0:0|0:0,0:0:0:0:
456,200,44539,2,0,B|456:224|432:248,3,45
392,144,44892,2,0,B|392:120|416:104,3,45,4|0|0|0,0:0|0:0|0:0|0:0,0:0:0:0:
496,112,45245,5,4,0:0:0:0:
320,88,45598,2,0,B|264:80|232:120,1,90,0|0,0:0|0:0,0:0:0:0:
192,208,45951,2,0,B|248:216|280:176,1,90,0|2,0:0|0:0,0:0:0:0:
144,120,46304,1,0,0:0:0:0:
96,208,46480,1,2,0:0:0:0:
144,288,46657,2,0,B|232:336|320:288,1,180,0|0,0:0|0:0,0:0:0:0:
48,128,47362,1,4,0:0:0:0:
56,288,47627,1,4,0:0:0:0:
192,208,47892,1,4,0:0:0:0:
96,208,48068,5,4,0:0:0:0:
240,128,48421,2,0,B|328:112,1,90,0|0,0:0|0:0,0:0:0:0:
400,184,48774,2,0,B|312:201,1,90,0|2,0:0|0:0,0:0:0:0:
408,96,49127,1,0,0:0:0:0:
392,272,49304,1,2,0:0:0:0:
376,296,49392,1,0,0:0:0:0:
360,320,49480,2,0,B|176:312,1,180,0|0,0:0|0:0,0:0:0:0:
32,144,50186,5,0,0:0:0:0:
32,224,50363,1,0,0:0:0:0:
104,184,50539,1,0,0:0:0:0:
104,264,50716,1,0,0:0:0:0:
176,224,50892,1,4,0:0:0:0:
128,24,51245,6,0,B|128:72|160:112,1,90
256,288,51598,2,0,B|303:287|339:259,1,90,0|2,0:0|0:0,0:0:0:0:
328,144,51951,2,0,B|296:112|248:104,1,90,0|2,0:0|0:0,0:0:0:0:
16,213,52304,2,0,B|109:268|184:208,1,180
328,96,53010,6,4,B|272:160|184:112,2,135
376,176,53715,2,4,B|438:121|404:41,2,148.499995574355
304,216,54421,2,4,B|257:294|321:366,2,162.000003862381
376,176,55127,2,4,B|480:176|504:296,2,175.499996861816
256,200,55833,2,0,B|216:224|160:200,1,90,0|0,0:0|0:0,0:0:0:0:
48,104,56186,2,0,B|92:98|124:146,1,90
96,280,56539,5,0,0:0:0:0:
96,280,56892,1,8,0:0:0:0:
256,200,57068,2,0,B|320:128|272:16,1,180,0|2,0:0|0:0,0:0:0:0:
207,122,57598,2,0,B|304:80|376:144,1,180,4|2,0:0|0:0,0:0:0:0:
416,216,58127,2,0,B|392:320,1,90,0|0,0:0|0:0,0:0:0:0:
496,296,58480,1,2,0:0:0:0:
395,303,58657,2,0,B|304:312,1,90,0|0,0:0|0:0,0:0:0:0:
112,296,59010,2,0,B|203:287,1,90,0|0,0:0|0:0,0:0:0:0:
272,208,59362,5,0,0:0:0:0:
272,208,59715,2,0,B|256:168,1,45,8|0,0:0|0:0,0:0:0:0:
240,128,59892,2,0,B|136:112|80:208,1,180,0|2,0:0|0:0,0:0:0:0:
176,224,60421,2,0,B|91:286|119:393,1,180,4|2,0:0|0:0,0:0:0:0:
208,304,60951,2,0,B|248:280|304:296,2,90,0|0|2,0:0|0:0|0:0,0:0:0:0:
256,368,61480,1,0,0:0:0:0:
256,368,61657,1,0,0:0:0:0:
200,96,61833,1,8,0:0:0:0:
200,96,62186,5,0,0:0:0:0:
488,104,62539,1,8,0:0:0:0:
440,184,62715,2,0,B|392:96|272:112,1,180,0|2,0:0|0:0,0:0:0:0:
120,112,63245,2,0,B|136:168|192:176,2,90,0|0|2,0:0|0:0|0:0,0:0:0:0:
40,168,63774,2,0,B|0:272,1,90,0|0,0:0|0:0,0:0:0:0:
136,248,64127,1,2,0:0:0:0:
163,329,64304,2,0,B|112:344|80:312,1,90
324,264,64657,2,0,B|356:233|408:248,1,90
288,360,65010,6,0,B|216:288|264:176,1,180,0|8,0:0|0:0,0:0:0:0:
257,193,65451,1,0,0:0:0:0:
257,193,65539,2,0,B|280:152|256:88,1,90
176,144,65892,1,2,0:0:0:0:
224,32,66068,2,0,B|312:-8|400:32,1,180,4|2,0:0|0:0,0:0:0:0:
472,80,66598,2,0,B|432:184,1,90,4|0,0:0|0:0,0:0:0:0:
480,240,66951,1,2,0:0:0:0:
400,264,67127,1,0,0:0:0:0:
368,344,67304,1,0,0:0:0:0:
456,328,67480,2,0,B|456:360,6,22.5
368,344,67833,6,0,B|344:360|288:352,2,60,2|2|0,0:0|0:0|0:0,0:0:0:0:
320,280,68186,2,2,B|291:274|257:229,2,60,0|2|0,0:0|0:0|0:0,0:0:0:0:
336,200,68539,2,2,B|320:176|328:120,2,60
400,152,68892,2,2,B|405:123|450:89,2,60,0|2|0,0:0|0:0|0:0,0:0:0:0:
360,72,69245,5,4,0:0:0:0:
32,120,70657,6,0,B|16:240,1,116.999997907877,0|0,0:0|0:0,0:0:0:0:
120,328,71010,2,0,B|104:212,1,116.999997907877
192,64,71362,2,0,B|176:184,1,116.999997907877,0|0,0:0|0:0,0:0:0:0:
280,272,71715,2,0,B|264:156,1,116.999997907877,0|0,0:0|0:0,0:0:0:0:
360,16,72068,2,0,B|344:136,1,116.999997907877,0|0,0:0|0:0,0:0:0:0:
448,224,72421,2,0,B|432:104,1,116.999997907877
432,108,72774,1,0,0:0:0:0:
432,108,72951,1,2,0:0:0:0:
392,312,73127,1,0,0:0:0:0:
392,312,73215,1,0,0:0:0:0:
392,312,73304,1,2,0:0:0:0:
392,312,73392,1,0,0:0:0:0:
392,312,73480,6,0,B|328:320|296:256,1,116.999997907877,0|0,0:0|0:0,0:0:0:0:
160,328,73833,2,0,B|221:297|213:233,1,116.999997907877
352,176,74186,2,0,B|290:145|298:81,1,116.999997907877,0|0,0:0|0:0,0:0:0:0:
120,112,74539,2,0,B|183:119|214:58,1,116.999997907877,0|0,0:0|0:0,0:0:0:0:
40,184,74892,1,0,0:0:0:0:
72,264,75068,1,2,0:0:0:0:
128,192,75245,1,0,0:0:0:0:
160,272,75421,1,2,0:0:0:0:
320,296,75774,1,2,0:0:0:0:
432,176,76127,1,2,0:0:0:0:
472,64,76304,6,0,B|408:40|344:96,1,116.999997907877,0|0,0:0|0:0,0:0:0:0:
256,192,76657,2,0,B|302:234|366:210,1,116.999997907877,0|0,0:0|0:0,0:0:0:0:
256,104,77010,2,0,B|192:80|128:136,1,116.999997907877,0|2,0:0|0:0,0:0:0:0:
145,122,77539,1,2,0:0:0:0:
32,232,77715,6,0,B|78:274|142:250,1,116.999997907877,0|0,0:0|0:0,0:0:0:0:
237,300,78068,2,0,B|279:254|256:192,1,116.999997907877
208,120,78421,5,4,0:0:0:0:
336,8,78686,1,4,0:0:0:0:
384,184,78951,1,4,0:0:0:0:
384,184,79127,6,0,B|488:224,1,109.800003141403,2|0,0:0|0:0,0:0:0:0:
336,384,79480,2,0,B|321:275,1,109.800003141403,2|0,0:0|0:0,0:0:0:0:
192,270,79833,2,0,B|177:378,1,109.800003141403,2|0,0:0|0:0,0:0:0:0:
25,223,80186,2,0,B|128:184,1,109.800003141403,2|0,0:0|0:0,0:0:0:0:
216,112,80539,5,2,0:0:0:0:
216,112,80715,1,0,0:0:0:0:
296,120,80892,1,2,0:0:0:0:
296,120,81068,1,0,0:0:0:0:
248,184,81245,1,2,0:0:0:0:
248,184,81421,1,0,0:0:0:0:
328,32,81598,1,2,0:0:0:0:
343,27,81686,1,0,0:0:0:0:
359,29,81774,1,0,0:0:0:0:
374,35,81862,1,0,0:0:0:0:
384,48,81951,6,0,B|408:72|448:64,2,54.9000015707016,2|0|2,0:0|0:0|0:0,0:0:0:0:
376,232,82304,2,0,B|409:231|432:198,2,54.9000015707016,2|0|2,0:0|0:0|0:0,0:0:0:0:
512,144,82657,5,4,0:0:0:0:
456,288,82921,1,4,0:0:0:0:
360,160,83186,1,4,0:0:0:0:
272,144,83362,5,2,0:0:0:0:
272,144,83451,1,0,0:0:0:0:
272,144,83539,1,2,0:0:0:0:
296,232,83715,2,0,B|240:280|160:272,1,129.600004943848,0|4,0:0|0:0,0:0:0:0:
16,168,84068,2,0,B|72:216|152:208,1,129.600004943848,0|4,0:0|0:0,0:0:0:0:
224,80,84421,2,0,B|168:128|88:120,1,129.600004943848,0|4,0:0|0:0,0:0:0:0:
136,32,84774,5,2,0:0:0:0:
136,32,84862,1,0,0:0:0:0:
136,32,84951,1,2,0:0:0:0:
272,144,85127,2,0,B|328:96|408:104,1,129.600004943848,0|4,0:0|0:0,0:0:0:0:
472,232,85480,2,0,B|416:184|336:192,1,129.600004943848,0|6,0:0|0:0,0:0:0:0:
384,288,85833,1,0,0:0:0:0:
384,288,85921,1,0,0:0:0:0:
384,288,86010,1,4,0:0:0:0:
384,288,86098,1,0,0:0:0:0:
384,288,86186,6,0,B|256:344,1,129.600004943848,2|2,0:0|0:0,0:0:0:0:
128,304,86539,2,0,B|256:248,1,129.600004943848,0|4,0:0|0:0,0:0:0:0:
368,184,86892,2,0,B|374:105|326:65,1,129.600004943848,2|4,0:0|0:0,0:0:0:0:
184,64,87245,2,0,B|136:103|143:181,1,129.600004943848,2|4,0:0|0:0,0:0:0:0:
224,128,87598,2,0,B|208:158|224:190,2,64.8000024719239,2|0|0,0:0|0:0|0:0,0:0:0:0:
288,224,87951,2,0,B|304:192|288:160,2,64.8000024719239,2|0|0,0:0|0:0|0:0,0:0:0:0:
143,181,88304,5,4,0:0:0:0:
40,312,88568,1,4,0:0:0:0:
200,352,88833,1,4,0:0:0:0:
312,312,89010,6,0,B|344:320|376:296,2,64.8000024719239,2|0|2,0:0|0:0|0:0,0:0:0:0:
496,208,89362,2,0,B|428:177|372:217,1,129.600004943848,2|4,0:0|0:0,0:0:0:0:
384,128,89715,2,0,B|316:139|290:208,1,129.600004943848,2|4,0:0|0:0,0:0:0:0:
224,152,90068,2,0,B|193:219|233:275,1,129.600004943848,0|4,0:0|0:0,0:0:0:0:
240,80,90421,2,0,B|208:72|176:96,2,64.8000024719239,2|0|2,0:0|0:0|0:0,0:0:0:0:
136,160,90774,2,0,B|68:148|42:79,1,129.600004943848,2|4,0:0|0:0,0:0:0:0:
120,56,91127,5,4,0:0:0:0:
264,16,91392,1,0,0:0:0:0:
224,152,91657,1,0,0:0:0:0:
136,160,91833,5,4,0:0:0:0:
200,312,92098,1,0,0:0:0:0:
40,288,92362,1,0,0:0:0:0:
128,256,92539,5,4,0:0:0:0:
288,224,92804,1,0,0:0:0:0:
400,112,93068,1,0,0:0:0:0:
504,192,93245,6,2,B|480:176|432:184,2,60,2|0|2,0:0|0:0|0:0,0:0:0:0:
464,264,93598,2,0,B|448:288|456:336,2,60,0|2|0,0:0|0:0|0:0,0:0:0:0:
392,240,93951,2,0,B|363:246|335:286,2,60,2|0|2,0:0|0:0|0:0,0:0:0:0:
376,344,94304,2,0,B|360:358|344:352,4,30
280,320,94657,5,4,0:0:0:0:
256,192,94745,12,4,96068,0:0:0:0:
48,184,96421,6,0,B|88:264,1,90,8|2,0:0|0:0,0:0:0:0:
88,264,96686,1,0,0:0:0:0:
88,264,96774,2,0,B|191:279,1,90,0|2,0:0|0:0,0:0:0:0:
176,360,97127,2,0,B|72:344,1,90,8|2,0:0|0:0,0:0:0:0:
177,277,97480,2,0,B|267:264,1,90,0|2,0:0|0:0,0:0:0:0:
265,346,97833,2,0,B|176:360,1,90,8|2,0:0|0:0,0:0:0:0:
336,312,98186,2,4,B|392:352|488:328,2,135
416,256,98892,6,0,B|480:192|440:64,1,180,0|8,0:0|0:0,0:0:0:0:
397,14,99421,1,2,0:0:0:0:
397,14,99510,1,0,0:0:0:0:
397,14,99598,1,0,0:0:0:0:
363,93,99774,1,2,0:0:0:0:
312,24,99951,1,8,0:0:0:0:
280,104,100127,1,2,0:0:0:0:
280,104,100215,1,0,0:0:0:0:
280,104,100304,6,0,B|240:128|184:120,1,90,0|2,0:0|0:0,0:0:0:0:
16,136,100657,2,0,B|112:104,1,90,8|2,0:0|0:0,0:0:0:0:
128,192,101010,1,0,0:0:0:0:
192,232,101186,1,0,0:0:0:0:
224,296,101362,1,0,0:0:0:0:
224,368,101539,1,0,0:0:0:0:
440,256,101715,6,0,B|368:200|256:232,1,180,4|8,0:0|0:0,0:0:0:0:
152,296,102245,1,2,0:0:0:0:
152,296,102333,1,0,0:0:0:0:
152,296,102421,2,0,B|112:320|64:294,1,90,0|2,0:0|0:0,0:0:0:0:
0,216,102774,2,0,B|-24:170|0:130,1,90,8|2,0:0|0:0,0:0:0:0:
8,112,103039,1,0,0:0:0:0:
24,104,103127,6,0,B|144:104|88:136|200:136,1,180,0|8,0:0|0:0,0:0:0:0:
264,88,103657,1,2,0:0:0:0:
352,88,103833,6,4,B|344:144|384:160|366:222,2,135
312,272,104539,2,4,B|368:312|392:280|464:328,2,148.499995574355
296,200,105245,2,4,B|240:192|208:232|112:216,2,162.000003862381
296,200,105951,6,0,B|256:168|280:112,1,90,0|2,0:0|0:0,0:0:0:0:
416,40,106304,2,0,B|371:25|331:57,1,90,0|2,0:0|0:0,0:0:0:0:
168,24,106657,2,0,B|212:9|252:41,1,90,0|2,0:0|0:0,0:0:0:0:
48,64,107010,1,0,0:0:0:0:
64,184,107186,1,2,0:0:0:0:
64,184,107274,1,0,0:0:0:0:
64,184,107362,6,0,B|17:207|25:258,1,90,4|0,0:0|0:0,0:0:0:0:
176,184,107715,1,8,0:0:0:0:
128,248,107892,2,0,B|188:284|252:244|260:172,1,180,4|2,0:0|0:0,0:0:0:0:
152,360,108421,2,0,B|101:367|77:319,2,90,4|2|2,0:0|0:0|0:0,0:0:0:0:
0,336,108951,1,4,0:0:0:0:
40,112,109304,1,2,0:0:0:0:
128,104,109480,2,0,B|232:96,1,90
384,120,109833,2,0,B|280:128,1,90
280,296,110186,6,0,B|248:336|264:382,1,90,4|0,0:0|0:0,0:0:0:0:
336,224,110539,1,8,0:0:0:0:
336,224,110627,1,0,0:0:0:0:
336,224,110715,2,0,B|408:248|464:208|464:128,1,180,4|2,0:0|0:0,0:0:0:0:
291,129,111245,2,0,B|242:144|248:200,2,90,4|2|2,0:0|0:0|0:0,0:0:0:0:
248,64,111774,1,4,0:0:0:0:
248,64,112304,5,0,0:0:0:0:
144,16,112480,1,0,0:0:0:0:
144,16,112568,1,0,0:0:0:0:
144,16,112657,1,8,0:0:0:0:
16,32,112833,1,0,0:0:0:0:
16,32,113010,6,0,B|88:32|120:112|80:168,1,180,4|8,0:0|0:0,0:0:0:0:
32,248,113539,2,0,B|32:176|112:144|168:184,1,180,4|2,0:0|0:0,0:0:0:0:
272,384,114068,2,0,B|200:384|168:304|208:248,1,180,4|2,0:0|0:0,0:0:0:0:
256,184,114598,2,0,B|256:256|176:288|120:248,1,180,4|2,0:0|0:0,0:0:0:0:
344,208,115127,1,0,0:0:0:0:
256,184,115304,1,0,0:0:0:0:
320,112,115480,1,0,0:0:0:0:
344,208,115657,1,0,0:0:0:0:
369,299,115833,6,0,B|320:312|288:272,1,90,4|0,0:0|0:0,0:0:0:0:
168,216,116186,1,8,0:0:0:0:
168,216,116274,1,0,0:0:0:0:
168,216,116362,2,0,B|131:165|163:85|235:85,1,180,4|2,0:0|0:0,0:0:0:0:
88,256,116892,2,0,B|39:244|7:284,2,90,0|2|2,0:0|0:0|0:0,0:0:0:0:
168,312,117421,1,4,0:0:0:0:
64,64,117951,1,0,0:0:0:0:
48,144,118127,1,0,0:0:0:0:
128,120,118304,2,0,B|160:120,6,22.5
200,48,118657,6,0,B|176:32|120:40,2,60,2|2|0,0:0|0:0|0:0,0:0:0:0:
304,128,119009,2,2,B|323:100|352:94,2,60,0|2|0,0:0|0:0|0:0,0:0:0:0:
192,192,119362,2,2,B|176:216|184:272,2,60
304,264,119715,2,0,B|320:288,6,22.5
256,328,120068,5,4,0:0:0:0:
256,328,120774,1,4,0:0:0:0:
256,328,121480,1,4,0:0:0:0:
256,192,121568,12,0,124127,0:0:0:0:
