osu file format v14

[General]
AudioFilename: confalted.mp3
AudioLeadIn: 0
PreviewTime: 56651
Countdown: 0
SampleSet: Soft
StackLeniency: 0.7
Mode: 0
LetterboxInBreaks: 0
WidescreenStoryboard: 1

[Editor]
Bookmarks: 25118,46248,46570,48828,49151,51409
DistanceSpacing: 1
BeatDivisor: 4
GridSize: 8
TimelineZoom: 1.4

[Metadata]
Title:UNLOCK (TV Size)
TitleUnicode:UNLOCK (TV Size)
Artist:Iguchi Yuka
ArtistUnicode:井口裕香
Creator:YukiZura-
Version:Easy
Source:Lostorage conflated WIXOSS
Tags:Selector incited infected destructed opening Neoskylove Affirmation
BeatmapID:1606555
BeatmapSetID:763769

[Difficulty]
HPDrainRate:3
CircleSize:3
OverallDifficulty:2
ApproachRate:3
SliderMultiplier:0.9
SliderTickRate:1

[Events]
//Background and Video events
Video,0,"Lostorage Conflated WIXOSS OP.avi"
0,0,"bg.jpg",0,0
//Break Periods
2,44028,50291
//Storyboard Layer 0 (Background)
//Storyboard Layer 1 (Fail)
//Storyboard Layer 2 (Pass)
//Storyboard Layer 3 (Foreground)
//Storyboard Sound Samples

[TimingPoints]
119,322.58064516129,4,2,1,65,1,0
119,-100,4,2,1,65,0,0
7860,-100,4,2,1,70,0,0
10280,-100,4,2,1,80,0,0
20602,-100,4,2,1,70,0,0
23344,-100,4,2,1,60,0,0
33667,-100,4,2,1,70,0,0
43828,-100,4,2,1,55,0,0
51731,-100,4,2,1,70,0,0
56731,-100,4,2,1,85,0,1
77377,-100,4,2,1,85,0,0
77457,-100,4,2,2,15,0,0
82377,-100,4,2,1,80,0,0

[Colours]
Combo1 : 255,0,0
Combo2 : 255,128,0
Combo3 : 0,196,0

[HitObjects]
60,81,119,6,0,P|105:68|156:73,1,90,2|8,0:0|0:0,0:0:0:0:
211,134,764,2,0,P|256:147|307:142,1,90,2|2,0:0|0:0,0:0:0:0:
358,76,1409,2,0,P|401:60|454:68,1,90,8|2,0:0|0:0,0:0:0:0:
412,148,2054,6,0,L|406:333,1,180,0|2,0:0|0:0,0:0:0:0:
330,377,3022,2,0,P|280:382|234:372,1,90,8|2,0:0|0:0,0:0:0:0:
190,300,3667,2,0,P|140:295|94:305,1,90,2|8,0:0|0:0,0:0:0:0:
22,361,4312,1,2,0:0:0:0:
16,262,4635,6,0,L|31:71,1,180,0|2,0:0|0:0,0:0:0:0:
113,29,5602,2,0,P|158:21|203:28,1,90,8|2,0:0|0:0,0:0:0:0:
277,90,6248,2,0,P|283:134|275:178,1,90,2|8,0:0|0:0,0:0:0:0:
202,245,6893,1,2,0:0:0:0:
297,271,7215,6,0,L|479:230,1,180,0|2,0:0|0:0,0:0:0:0:
465,141,8183,2,0,L|369:160,1,90,8|4,0:0|0:3,0:0:0:0:
354,71,8828,2,0,L|442:53,2,90,8|8|8,0:0|0:0|0:0,0:0:0:0:
277,118,9796,2,0,P|269:154|281:213,1,90,2|8,0:0|0:0,0:0:0:0:
308,244,10280,5,12,0:0:0:0:
179,286,10764,2,0,P|142:292|81:271,1,90,8|2,0:0|0:0,0:0:0:0:
18,224,11409,2,0,P|13:174|27:127,1,90,8|2,0:0|0:0,0:0:0:0:
84,70,12054,2,0,P|134:65|181:79,1,90,8|8,0:0|0:0,0:0:0:0:
229,144,12699,2,0,P|254:148|278:145,1,45,8|8,0:0|0:0,0:0:0:0:
400,99,13344,6,0,P|407:137|395:200,1,90,8|2,0:0|0:0,0:0:0:0:
319,227,13989,2,0,P|312:265|324:328,1,90,8|2,0:0|0:0,0:0:0:0:
253,377,14634,2,0,L|144:373,1,90,8|8,0:0|0:0,0:0:0:0:
88,322,15279,2,0,L|101:272,1,45,8|12,0:0|0:0,0:0:0:0:
203,192,15925,6,0,P|158:184|114:191,1,90,8|2,0:0|0:0,0:0:0:0:
30,223,16570,2,0,P|22:178|29:134,1,90,8|2,0:0|0:0,0:0:0:0:
96,73,17215,2,0,L|185:76,1,90,8|8,0:0|0:0,0:0:0:0:
264,119,17860,2,0,L|318:105,1,45,8|8,0:0|0:0,0:0:0:0:
434,59,18506,6,0,P|441:97|429:160,1,90,8|2,0:0|0:0,0:0:0:0:
351,183,19151,2,0,P|344:221|356:284,1,90,8|2,0:0|0:0,0:0:0:0:
261,275,19796,2,0,P|253:230|260:186,1,90,8|8,0:0|0:0,0:0:0:0:
299,105,20441,1,8,0:0:0:0:
299,105,20602,6,0,L|163:91,1,135,6|2,0:0|0:0,0:0:0:0:
79,120,21409,2,0,P|64:166|88:297,1,180,2|0,0:0|0:0,0:0:0:0:
176,254,22377,2,0,P|217:249|272:257,1,90,2|0,0:0|0:0,0:0:0:0:
436,354,23344,6,0,L|425:260,1,90,2|2,0:0|0:0,0:0:0:0:
353,209,23989,2,0,L|364:115,1,90,2|2,0:0|0:0,0:0:0:0:
325,37,24635,2,0,P|370:30|413:41,2,90,2|2|2,0:0|0:0|0:0,0:0:0:0:
260,99,25602,1,2,0:0:0:0:
186,47,25925,5,0,0:0:0:0:
103,84,26248,2,0,L|105:180,1,90,0|2,0:0|0:0,0:0:0:0:
187,210,26893,2,0,L|185:306,1,90,2|2,0:0|0:0,0:0:0:0:
133,374,27538,1,2,0:0:0:0:
222,383,27860,2,0,P|264:382|320:368,1,90,0|2,0:0|0:0,0:0:0:0:
378,311,28506,6,0,P|379:266|389:222,1,90,2|2,0:0|0:0,0:0:0:0:
471,185,29151,2,0,P|470:140|460:96,1,90,2|2,0:0|0:0,0:0:0:0:
399,29,29796,2,0,P|445:9|498:9,2,90,2|2|2,0:0|0:0|0:0,0:0:0:0:
371,114,30764,1,6,0:0:0:0:
319,187,31086,6,0,L|224:209,1,90,6|2,0:0|0:0,0:0:0:0:
154,254,31731,2,0,P|133:156|138:58,1,180,2|2,0:0|0:0,0:0:0:0:
211,29,32699,2,0,P|254:23|300:27,2,90,8|8|0,0:0|0:0|0:0,0:0:0:0:
135,76,33667,6,0,P|127:120|134:165,1,90,6|8,0:0|0:0,0:0:0:0:
96,248,34312,2,0,P|88:292|95:337,1,90,2|8,0:0|0:0,0:0:0:0:
177,371,34957,1,2,0:0:0:0:
236,303,35280,1,8,0:0:0:0:
328,311,35602,2,0,L|425:325,1,90,2|8,0:0|0:0,0:0:0:0:
487,266,36248,5,2,0:0:0:0:
403,232,36570,2,0,P|399:168|407:135,1,90,8|2,0:0|0:0,0:0:0:0:
486,105,37215,2,0,P|491:60|484:16,1,90,8|2,0:0|0:0,0:0:0:0:
404,56,37860,2,0,P|359:50|315:57,1,90,8|2,0:0|0:0,0:0:0:0:
251,121,38506,6,0,L|254:223,1,90,8|2,0:0|0:0,0:0:0:0:
191,276,39151,2,0,P|142:266|89:271,2,90,8|2|8,0:0|0:0|0:0,0:0:0:0:
277,299,40118,1,2,0:0:0:0:
338,232,40441,2,0,P|381:222|426:224,2,90,8|2|4,0:0|0:0|0:0,0:0:0:0:
253,210,41409,6,0,L|250:121,1,90,2|8,0:0|0:0,0:0:0:0:
182,60,42054,2,0,P|134:58|84:77,1,90,2|8,0:0|0:0,0:0:0:0:
47,147,42699,2,0,P|45:195|64:245,1,90,2|8,0:0|0:0,0:0:0:0:
151,234,43344,2,0,P|195:214|253:218,1,90,8|8,0:0|0:0,0:0:0:0:
274,237,43828,5,2,0:0:0:0:
352,285,51731,6,0,P|276:300|214:290,2,135,8|8|8,0:0|0:0|0:0,0:0:0:0:
437,146,53344,2,0,L|429:56,1,90,8|8,0:0|0:0,0:0:0:0:
341,39,53989,2,0,L|346:93,1,45,8|8,0:0|0:0,0:0:0:0:
287,153,54473,6,0,P|217:164|148:146,1,135,2|8,0:0|0:0,0:0:0:0:
82,95,55280,2,0,P|78:72|81:44,1,45,8|0,0:0|0:0,0:0:0:0:
28,275,56731,6,0,P|95:285|169:270,1,135,12|8,0:0|0:0,0:0:0:0:
218,203,57538,2,0,P|276:193|313:203,1,90,2|8,0:0|0:0,0:0:0:0:
337,231,58022,2,0,L|348:332,1,90,2|2,0:0|0:0,0:0:0:0:
377,353,58506,1,8,0:0:0:0:
431,281,58828,2,0,L|433:182,1,90,2|8,0:0|0:0,0:0:0:0:
433,145,59312,6,0,P|377:126|303:139,1,135,2|8,0:0|0:0,0:0:0:0:
238,201,60118,2,0,P|198:212|135:204,1,90,2|8,0:0|0:0,0:0:0:0:
108,191,60602,2,0,P|93:259|92:341,1,135,2|8,0:0|0:0,0:0:0:0:
180,319,61409,2,0,P|222:304|280:309,1,90,2|8,0:0|0:0,0:0:0:0:
342,355,62054,6,0,P|384:370|442:365,1,90,6|8,0:0|0:0,0:0:0:0:
485,298,62699,1,2,0:0:0:0:
398,274,63022,2,0,L|389:178,1,90,8|2,0:0|0:0,0:0:0:0:
457,125,63667,2,0,L|466:29,1,90,8|0,0:0|0:0,0:0:0:0:
378,11,64312,6,0,P|335:9|276:23,1,90,8|8,0:0|0:0,0:0:0:0:
226,82,64957,2,0,P|183:84|124:70,2,90,12|8|8,0:0|0:0|0:0,0:0:0:0:
314,101,65925,2,0,P|318:152|312:193,1,90,8|8,0:0|0:0,0:0:0:0:
237,239,66570,1,8,0:0:0:0:
266,369,67054,6,0,P|333:379|407:364,1,135,12|8,0:0|0:0,0:0:0:0:
450,290,67861,2,0,P|458:246|453:201,1,90,2|8,0:0|0:0,0:0:0:0:
409,190,68344,2,0,P|401:146|406:101,1,90,2|2,0:0|0:0,0:0:0:0:
437,69,68828,1,8,0:0:0:0:
359,23,69151,2,0,L|248:27,1,90,2|8,0:0|0:0,0:0:0:0:
241,62,69635,6,0,L|106:56,1,135,0|8,0:0|0:0,0:0:0:0:
44,122,70441,2,0,P|35:165|38:210,1,90,2|8,0:0|0:0,0:0:0:0:
81,223,70925,2,0,P|165:201|228:215,1,135,6|8,0:0|0:0,0:0:0:0:
268,278,71732,2,0,P|310:293|368:288,1,90,2|2,0:0|0:0,0:0:0:0:
393,269,72215,6,0,L|404:120,1,135,12|8,0:0|0:0,0:0:0:0:
372,49,73022,2,0,P|323:47|268:61,1,90,2|0,0:0|0:0,0:0:0:0:
217,118,73667,1,8,0:0:0:0:
171,40,73989,2,0,P|122:38|67:52,1,90,8|0,0:0|0:0,0:0:0:0:
17,111,74635,1,8,0:0:0:0:
59,190,74957,5,2,0:0:0:0:
106,266,75280,2,0,P|65:282|17:274,2,90,8|8|8,0:0|0:0|0:0,0:0:0:0:
154,190,76248,2,0,P|198:185|243:189,1,90,8|8,0:0|0:0,0:0:0:0:
299,259,76893,2,0,P|365:273|440:247,1,135,8|6,0:0|0:0,0:0:0:0:
256,192,77538,12,0,81409,0:0:0:0:
433,213,82377,6,0,P|401:210|373:214,1,45,2|12,0:0|0:0,0:0:0:0:
304,322,83022,2,0,P|267:331|198:320,1,90,8|2,0:0|0:0,0:0:0:0:
158,257,83667,2,0,P|121:248|52:259,1,90,8|2,0:0|0:0,0:0:0:0:
3,191,84312,2,0,L|12:94,1,90,8|8,0:0|0:0,0:0:0:0:
80,43,84957,2,0,P|105:39|129:42,1,45,8|8,0:0|0:0,0:0:0:0:
252,83,85602,6,0,P|259:127|251:171,1,90,8|2,0:0|0:0,0:0:0:0:
208,250,86247,2,0,P|248:260|309:245,1,90,8|2,0:0|0:0,0:0:0:0:
342,174,86893,2,0,P|382:164|443:179,1,90,8|8,0:0|0:0,0:0:0:0:
488,239,87537,2,0,L|476:282,1,45,8|14,3:0|0:0,0:0:0:0:
