osu file format v12

[General]
AudioFilename: Strike my soul.mp3
AudioLeadIn: 0
PreviewTime: 47777
Countdown: 0
SampleSet: Soft
StackLeniency: 0.7
Mode: 3
LetterboxInBreaks: 0
SpecialStyle: 0
WidescreenStoryboard: 1

[Editor]
Bookmarks: 13370,33245
DistanceSpacing: 1.6
BeatDivisor: 4
GridSize: 8
TimelineZoom: 3.099999

[Metadata]
Title:Strike My Soul (TV Size)
TitleUnicode:Strike My Soul (TV Size)
Artist:Iguchi Yuka
ArtistUnicode:井口 裕香
Creator:Theeph-
Version:HD
Source:Strike The Blood
Tags:strike the blood tv version silver link
BeatmapID:354739
BeatmapSetID:142110

[Difficulty]
HPDrainRate:7
CircleSize:7
OverallDifficulty:7
ApproachRate:5
SliderMultiplier:1.6
SliderTickRate:1

[Events]
//Background and Video events
0,0,"Uasdntitled.png",0,0
//Break Periods
//Storyboard Layer 0 (Background)
//Storyboard Layer 1 (Fail)
//Storyboard Layer 2 (Pass)
//Storyboard Layer 3 (Foreground)
//Storyboard Sound Samples
//Background Colour Transformations
3,100,163,162,255

[TimingPoints]
2777,375,4,2,0,80,1,0
36902,-100,4,2,0,70,0,0
38027,-100,4,2,0,80,0,0
47777,-100,4,2,0,80,0,1
58277,-100,4,2,0,80,0,0
59777,-100,4,2,0,80,0,1
68665,-100,4,2,0,80,0,1
73089,-100,4,2,0,5,0,1
74978,-100,4,2,0,80,0,1
76277,-100,4,2,0,20,0,1
76652,-100,4,2,0,80,0,1
80777,-100,4,2,0,80,0,0
82380,-100,4,2,0,5,0,0
82558,-100,4,2,0,80,0,0
86589,-100,4,2,0,30,0,0
87339,-100,4,2,0,5,0,0
88652,-100,4,2,0,5,0,0

[HitObjects]
109,192,2777,128,0,3527:0:0:0:0:
36,192,2777,128,0,3527:0:0:0:0:
475,192,2777,1,0,0:0:0:0:
329,192,3152,1,0,0:0:0:0:
402,192,3527,1,0,0:0:0:0:
475,192,3902,1,0,0:0:0:0:
402,192,3902,1,0,0:0:0:0:
256,192,3902,1,0,0:0:0:0:
36,192,4277,128,0,5027:0:0:0:0:
182,192,4277,128,0,5027:0:0:0:0:
402,192,4277,1,0,0:0:0:0:
329,192,4652,1,0,0:0:0:0:
402,192,5027,1,0,0:0:0:0:
475,192,5402,1,0,0:0:0:0:
402,192,5402,1,0,0:0:0:0:
256,192,5402,1,0,0:0:0:0:
402,192,5777,128,0,6527:0:0:0:0:
475,192,5777,128,0,6527:0:0:0:0:
36,192,5777,1,0,0:0:0:0:
182,192,6152,1,0,0:0:0:0:
109,192,6527,1,0,0:0:0:0:
475,192,6902,1,0,0:0:0:0:
402,192,6902,1,0,0:0:0:0:
256,192,6902,1,0,0:0:0:0:
475,192,7277,128,0,8027:0:0:0:0:
329,192,7277,128,0,8027:0:0:0:0:
109,192,7277,1,0,0:0:0:0:
182,192,7652,1,0,0:0:0:0:
36,192,7839,1,0,0:0:0:0:
109,192,8027,1,0,0:0:0:0:
36,192,8402,1,0,0:0:0:0:
109,192,8402,1,0,0:0:0:0:
256,192,8402,1,0,0:0:0:0:
402,192,8777,128,0,9527:0:0:0:0:
475,192,8777,128,0,9527:0:0:0:0:
182,192,8777,1,0,0:0:0:0:
109,192,9152,1,0,0:0:0:0:
182,192,9527,1,0,0:0:0:0:
36,192,9902,1,0,0:0:0:0:
109,192,9902,1,0,0:0:0:0:
256,192,9902,1,0,0:0:0:0:
109,192,10277,128,0,11027:0:0:0:0:
36,192,10277,128,0,11027:0:0:0:0:
329,192,10277,1,0,0:0:0:0:
402,192,10652,1,0,0:0:0:0:
329,192,11027,1,0,0:0:0:0:
36,192,11402,1,0,0:0:0:0:
109,192,11402,1,0,0:0:0:0:
256,192,11402,1,0,0:0:0:0:
36,192,11777,128,0,12527:0:0:0:0:
109,192,11777,128,0,12527:0:0:0:0:
329,192,11777,1,0,0:0:0:0:
402,192,12152,1,0,0:0:0:0:
256,192,12339,1,0,0:0:0:0:
329,192,12527,1,0,0:0:0:0:
36,192,12902,1,0,0:0:0:0:
109,192,12902,1,0,0:0:0:0:
256,192,12902,1,0,0:0:0:0:
36,192,13277,1,0,0:0:0:0:
109,192,13277,1,0,0:0:0:0:
256,192,13277,1,0,0:0:0:0:
256,192,13464,1,0,0:0:0:0:
182,192,13464,1,0,0:0:0:0:
402,192,13464,1,0,0:0:0:0:
256,192,13839,1,0,0:0:0:0:
329,192,13839,1,0,0:0:0:0:
109,192,13839,1,0,0:0:0:0:
402,192,14027,1,0,0:0:0:0:
475,192,14027,1,0,0:0:0:0:
256,192,14027,1,0,0:0:0:0:
402,192,14402,128,0,14777:0:0:0:0:
475,192,14777,1,0,0:0:0:0:
109,192,14777,1,0,0:0:0:0:
36,192,14777,128,0,17027:0:0:0:0:
256,192,14964,1,0,0:0:0:0:
402,192,15152,1,0,0:0:0:0:
475,192,15339,1,0,0:0:0:0:
256,192,15527,1,0,0:0:0:0:
109,192,15714,1,0,0:0:0:0:
182,192,15902,1,0,0:0:0:0:
329,192,16089,1,0,0:0:0:0:
402,192,16277,1,0,0:0:0:0:
182,192,16464,1,0,0:0:0:0:
329,192,16652,1,0,0:0:0:0:
402,192,16839,1,0,0:0:0:0:
475,192,17027,1,0,0:0:0:0:
36,192,17402,1,0,0:0:0:0:
182,192,17402,1,0,0:0:0:0:
256,192,17777,1,0,0:0:0:0:
109,192,17777,128,0,20027:0:0:0:0:
182,192,17964,1,0,0:0:0:0:
36,192,18152,1,0,0:0:0:0:
329,192,18339,1,0,0:0:0:0:
182,192,18527,1,0,0:0:0:0:
475,192,18714,1,0,0:0:0:0:
329,192,18902,1,0,0:0:0:0:
182,192,19089,1,0,0:0:0:0:
402,192,19277,1,0,0:0:0:0:
475,192,19464,1,0,0:0:0:0:
329,192,19652,1,0,0:0:0:0:
256,192,19839,1,0,0:0:0:0:
182,192,20027,1,0,0:0:0:0:
475,192,20402,1,0,0:0:0:0:
329,192,20402,1,0,0:0:0:0:
182,192,20777,1,0,0:0:0:0:
475,192,20777,128,0,23027:0:0:0:0:
109,192,20964,1,0,0:0:0:0:
256,192,21152,1,0,0:0:0:0:
182,192,21339,1,0,0:0:0:0:
402,192,21527,1,0,0:0:0:0:
256,192,21714,1,0,0:0:0:0:
109,192,21902,1,0,0:0:0:0:
329,192,22089,1,0,0:0:0:0:
182,192,22277,1,0,0:0:0:0:
109,192,22464,1,0,0:0:0:0:
256,192,22652,1,0,0:0:0:0:
329,192,22839,1,0,0:0:0:0:
109,192,23027,1,0,0:0:0:0:
182,192,23402,1,0,0:0:0:0:
36,192,23402,1,0,0:0:0:0:
109,192,23777,1,0,0:0:0:0:
36,192,23777,128,0,26027:0:0:0:0:
329,192,23964,1,0,0:0:0:0:
475,192,24152,1,0,0:0:0:0:
329,192,24339,1,0,0:0:0:0:
256,192,24527,1,0,0:0:0:0:
109,192,24714,1,0,0:0:0:0:
402,192,24902,1,0,0:0:0:0:
475,192,25089,1,0,0:0:0:0:
329,192,25277,1,0,0:0:0:0:
182,192,25464,1,0,0:0:0:0:
402,192,25652,1,0,0:0:0:0:
256,192,25839,1,0,0:0:0:0:
329,192,26027,1,0,0:0:0:0:
36,192,26402,1,0,0:0:0:0:
109,192,26402,1,0,0:0:0:0:
256,192,26777,1,0,0:0:0:0:
329,192,26777,128,0,29027:0:0:0:0:
182,192,26964,1,0,0:0:0:0:
109,192,27152,1,0,0:0:0:0:
402,192,27339,1,0,0:0:0:0:
182,192,27527,1,0,0:0:0:0:
36,192,27714,1,0,0:0:0:0:
475,192,27902,1,0,0:0:0:0:
182,192,28089,1,0,0:0:0:0:
36,192,28277,1,0,0:0:0:0:
402,192,28464,1,0,0:0:0:0:
109,192,28652,1,0,0:0:0:0:
36,192,28839,1,0,0:0:0:0:
182,192,29027,1,0,0:0:0:0:
256,192,29402,1,0,0:0:0:0:
36,192,29402,1,0,0:0:0:0:
109,192,29402,1,0,0:0:0:0:
182,192,29777,1,0,0:0:0:0:
36,192,29777,128,0,32027:0:0:0:0:
402,192,29964,1,0,0:0:0:0:
329,192,30152,1,0,0:0:0:0:
182,192,30339,1,0,0:0:0:0:
475,192,30527,1,0,0:0:0:0:
109,192,30714,1,0,0:0:0:0:
402,192,30902,1,0,0:0:0:0:
256,192,31089,1,0,0:0:0:0:
109,192,31277,1,0,0:0:0:0:
402,192,31464,1,0,0:0:0:0:
256,192,31652,1,0,0:0:0:0:
475,192,31839,1,0,0:0:0:0:
402,192,32027,1,0,0:0:0:0:
256,192,32027,1,0,0:0:0:0:
475,192,32402,1,0,0:0:0:0:
402,192,32402,1,0,0:0:0:0:
256,192,32402,1,0,0:0:0:0:
36,192,32777,1,0,0:0:0:0:
256,192,32777,1,0,0:0:0:0:
109,192,32777,1,0,0:0:0:0:
475,192,33152,1,0,0:0:0:0:
329,192,33152,1,0,0:0:0:0:
329,192,33527,1,0,0:0:0:0:
182,192,33527,1,0,0:0:0:0:
109,192,33714,1,0,0:0:0:0:
256,192,33714,1,0,0:0:0:0:
182,192,33902,128,0,34277:0:0:0:0:
329,192,33902,128,0,34277:0:0:0:0:
256,192,34464,1,0,0:0:0:0:
402,192,34464,1,0,0:0:0:0:
329,192,34652,1,0,0:0:0:0:
182,192,34652,1,0,0:0:0:0:
256,192,34839,1,0,0:0:0:0:
109,192,34839,1,0,0:0:0:0:
182,192,35214,128,0,35777:0:0:0:0:
329,192,35214,128,0,35777:0:0:0:0:
36,192,35777,128,0,36339:0:0:0:0:
475,192,35777,128,0,36339:0:0:0:0:
256,192,35777,1,0,0:0:0:0:
256,192,36058,1,0,0:0:0:0:
109,192,36339,128,0,36902:0:0:0:0:
402,192,36339,128,0,36902:0:0:0:0:
256,192,36339,1,0,0:0:0:0:
256,192,36620,1,0,0:0:0:0:
256,192,36902,128,0,37652:0:0:0:0:
329,192,36902,1,0,0:0:0:0:
182,192,36902,1,0,0:0:0:0:
475,192,38027,1,0,0:0:0:0:
402,192,38027,1,0,0:0:0:0:
402,192,38308,1,0,0:0:0:0:
475,192,38308,1,0,0:0:0:0:
402,192,38589,1,0,0:0:0:0:
475,192,38589,1,0,0:0:0:0:
36,192,38777,128,0,39152:0:0:0:0:
182,192,38777,1,0,0:0:0:0:
402,192,38777,1,0,0:0:0:0:
109,192,39152,128,0,39527:0:0:0:0:
256,192,39152,1,0,0:0:0:0:
475,192,39152,1,0,0:0:0:0:
182,192,39527,128,0,39902:0:0:0:0:
402,192,39527,1,0,0:0:0:0:
36,192,39527,1,0,0:0:0:0:
109,192,39902,128,0,40277:0:0:0:0:
256,192,39902,1,0,0:0:0:0:
475,192,39902,1,0,0:0:0:0:
475,192,40277,128,0,40652:0:0:0:0:
402,192,40277,1,0,0:0:0:0:
182,192,40277,1,0,0:0:0:0:
402,192,40652,128,0,41027:0:0:0:0:
329,192,40652,1,0,0:0:0:0:
109,192,40652,1,0,0:0:0:0:
329,192,41027,128,0,41402:0:0:0:0:
256,192,41027,1,0,0:0:0:0:
36,192,41027,1,0,0:0:0:0:
402,192,41402,128,0,41777:0:0:0:0:
475,192,41402,1,0,0:0:0:0:
109,192,41402,1,0,0:0:0:0:
36,192,41777,128,0,42902:0:0:0:0:
256,192,41777,1,0,0:0:0:0:
182,192,41777,1,0,0:0:0:0:
329,192,41964,1,0,0:0:0:0:
475,192,42152,1,0,0:0:0:0:
109,192,42339,1,0,0:0:0:0:
402,192,42527,1,0,0:0:0:0:
182,192,42714,1,0,0:0:0:0:
329,192,42902,1,0,0:0:0:0:
329,192,43089,1,0,0:0:0:0:
329,192,43277,128,0,44402:0:0:0:0:
182,192,43277,1,0,0:0:0:0:
36,192,43464,1,0,0:0:0:0:
109,192,43652,1,0,0:0:0:0:
402,192,43839,1,0,0:0:0:0:
182,192,44027,1,0,0:0:0:0:
36,192,44214,1,0,0:0:0:0:
182,192,44402,1,0,0:0:0:0:
36,192,44777,128,0,47027:0:0:0:0:
256,192,44777,1,0,0:0:0:0:
256,192,45152,1,0,0:0:0:0:
109,192,45527,128,0,47027:0:0:0:0:
256,192,45527,1,0,0:0:0:0:
256,192,45902,1,0,0:0:0:0:
182,192,46277,128,0,47027:0:0:0:0:
329,192,46277,1,0,0:0:0:0:
329,192,46652,1,0,0:0:0:0:
329,192,47027,128,0,47402:0:0:0:0:
402,192,47777,128,0,48152:0:0:0:0:
256,192,47777,1,0,0:0:0:0:
182,192,47777,1,0,0:0:0:0:
36,192,47964,1,0,0:0:0:0:
329,192,48152,1,0,0:0:0:0:
475,192,48339,1,0,0:0:0:0:
329,192,48527,128,0,48902:0:0:0:0:
182,192,48527,1,0,0:0:0:0:
256,192,48527,1,0,0:0:0:0:
36,192,48714,1,0,0:0:0:0:
182,192,48902,1,0,0:0:0:0:
475,192,49089,1,0,0:0:0:0:
36,192,49277,1,0,0:0:0:0:
256,192,49277,1,0,0:0:0:0:
182,192,49277,128,0,49652:0:0:0:0:
475,192,49464,1,0,0:0:0:0:
329,192,49652,1,0,0:0:0:0:
475,192,49839,1,0,0:0:0:0:
329,192,50027,128,0,50402:0:0:0:0:
256,192,50027,1,0,0:0:0:0:
36,192,50027,1,0,0:0:0:0:
36,192,50214,1,0,0:0:0:0:
402,192,50402,1,0,0:0:0:0:
36,192,50589,1,0,0:0:0:0:
256,192,50777,1,0,0:0:0:0:
36,192,50777,1,0,0:0:0:0:
182,192,50777,128,0,51152:0:0:0:0:
475,192,50964,1,0,0:0:0:0:
329,192,51152,1,0,0:0:0:0:
36,192,51339,1,0,0:0:0:0:
256,192,51527,1,0,0:0:0:0:
475,192,51527,128,0,51902:0:0:0:0:
109,192,51527,1,0,0:0:0:0:
36,192,51714,1,0,0:0:0:0:
402,192,51902,1,0,0:0:0:0:
36,192,52089,1,0,0:0:0:0:
256,192,52277,1,0,0:0:0:0:
329,192,52277,128,0,52652:0:0:0:0:
36,192,52464,1,0,0:0:0:0:
256,192,52652,1,0,0:0:0:0:
402,192,52652,128,0,53027:0:0:0:0:
36,192,52839,1,0,0:0:0:0:
256,192,53027,1,0,0:0:0:0:
329,192,53027,128,0,53402:0:0:0:0:
36,192,53214,1,0,0:0:0:0:
182,192,53402,1,0,0:0:0:0:
256,192,53402,1,0,0:0:0:0:
475,192,53589,1,0,0:0:0:0:
109,192,53777,1,0,0:0:0:0:
36,192,53777,128,0,54152:0:0:0:0:
256,192,53777,1,0,0:0:0:0:
475,192,53964,1,0,0:0:0:0:
329,192,54152,1,0,0:0:0:0:
475,192,54339,1,0,0:0:0:0:
109,192,54527,1,0,0:0:0:0:
182,192,54527,128,0,54902:0:0:0:0:
256,192,54527,1,0,0:0:0:0:
475,192,54714,1,0,0:0:0:0:
329,192,54902,1,0,0:0:0:0:
36,192,55089,1,0,0:0:0:0:
475,192,55277,128,0,55839:0:0:0:0:
402,192,55277,1,0,0:0:0:0:
329,192,55464,1,0,0:0:0:0:
256,192,55652,1,0,0:0:0:0:
109,192,55839,128,0,56214:0:0:0:0:
475,192,56214,1,0,0:0:0:0:
36,192,56402,1,0,0:0:0:0:
182,192,56402,1,0,0:0:0:0:
109,192,56589,1,0,0:0:0:0:
256,192,56589,1,0,0:0:0:0:
475,192,56777,128,0,57339:0:0:0:0:
36,192,56777,1,0,0:0:0:0:
182,192,56964,1,0,0:0:0:0:
256,192,57152,1,0,0:0:0:0:
402,192,57339,1,0,0:0:0:0:
256,192,57527,128,0,57902:0:0:0:0:
182,192,57527,1,0,0:0:0:0:
36,192,57714,1,0,0:0:0:0:
329,192,57902,1,0,0:0:0:0:
256,192,58089,1,0,0:0:0:0:
36,192,58277,128,0,59402:0:0:0:0:
256,192,58277,1,0,0:0:0:0:
475,192,58277,1,0,0:0:0:0:
402,192,58464,1,0,0:0:0:0:
256,192,58652,1,0,0:0:0:0:
329,192,58652,1,0,0:0:0:0:
402,192,58839,1,0,0:0:0:0:
475,192,59027,1,0,0:0:0:0:
256,192,59027,1,0,0:0:0:0:
402,192,59214,1,0,0:0:0:0:
256,192,59402,1,0,0:0:0:0:
329,192,59402,1,0,0:0:0:0:
402,192,59777,128,0,60152:0:0:0:0:
36,192,59777,1,0,0:0:0:0:
256,192,59777,1,0,0:0:0:0:
36,192,59964,1,0,0:0:0:0:
329,192,60152,1,0,0:0:0:0:
36,192,60339,1,0,0:0:0:0:
402,192,60527,1,0,0:0:0:0:
182,192,60527,1,0,0:0:0:0:
256,192,60527,128,0,60902:0:0:0:0:
36,192,60714,1,0,0:0:0:0:
329,192,60902,1,0,0:0:0:0:
475,192,61089,1,0,0:0:0:0:
36,192,61277,128,0,61652:0:0:0:0:
109,192,61277,1,0,0:0:0:0:
256,192,61277,1,0,0:0:0:0:
475,192,61464,1,0,0:0:0:0:
109,192,61652,1,0,0:0:0:0:
182,192,61839,1,0,0:0:0:0:
256,192,61839,1,0,0:0:0:0:
329,192,62027,1,0,0:0:0:0:
402,192,62027,128,0,62402:0:0:0:0:
256,192,62027,1,0,0:0:0:0:
36,192,62214,1,0,0:0:0:0:
475,192,62402,1,0,0:0:0:0:
36,192,62589,1,0,0:0:0:0:
182,192,62777,1,0,0:0:0:0:
109,192,62777,128,0,63152:0:0:0:0:
256,192,62777,1,0,0:0:0:0:
475,192,62964,1,0,0:0:0:0:
182,192,63152,1,0,0:0:0:0:
475,192,63339,1,0,0:0:0:0:
329,192,63527,1,0,0:0:0:0:
256,192,63527,128,0,63902:0:0:0:0:
109,192,63527,1,0,0:0:0:0:
36,192,63714,1,0,0:0:0:0:
402,192,63902,1,0,0:0:0:0:
475,192,64089,1,0,0:0:0:0:
402,192,64277,1,0,0:0:0:0:
475,192,64277,128,0,64652:0:0:0:0:
256,192,64277,1,0,0:0:0:0:
36,192,64464,1,0,0:0:0:0:
329,192,64652,1,0,0:0:0:0:
182,192,64839,1,0,0:0:0:0:
256,192,64839,1,0,0:0:0:0:
109,192,65027,1,0,0:0:0:0:
36,192,65027,128,0,65402:0:0:0:0:
256,192,65027,1,0,0:0:0:0:
475,192,65214,1,0,0:0:0:0:
329,192,65402,1,0,0:0:0:0:
256,192,65589,1,0,0:0:0:0:
109,192,65777,1,0,0:0:0:0:
36,192,65777,1,0,0:0:0:0:
36,192,65964,1,0,0:0:0:0:
182,192,65964,1,0,0:0:0:0:
36,192,66152,1,0,0:0:0:0:
256,192,66152,1,0,0:0:0:0:
329,192,66339,1,0,0:0:0:0:
36,192,66339,1,0,0:0:0:0:
475,192,66527,1,0,0:0:0:0:
402,192,66527,1,0,0:0:0:0:
329,192,66714,1,0,0:0:0:0:
475,192,66714,1,0,0:0:0:0:
256,192,66902,1,0,0:0:0:0:
475,192,66902,1,0,0:0:0:0:
475,192,67089,1,0,0:0:0:0:
182,192,67089,1,0,0:0:0:0:
36,192,67277,1,0,0:0:0:0:
109,192,67277,1,0,0:0:0:0:
402,192,67464,1,0,0:0:0:0:
182,192,67464,1,0,0:0:0:0:
329,192,67464,1,0,0:0:0:0:
256,192,67652,1,0,0:0:0:0:
475,192,67652,1,0,0:0:0:0:
36,192,67652,1,0,0:0:0:0:
109,192,67839,1,0,0:0:0:0:
329,192,67839,1,0,0:0:0:0:
182,192,67839,1,0,0:0:0:0:
256,192,68027,1,0,0:0:0:0:
475,192,68027,128,0,68402:0:0:0:0:
36,192,68214,1,0,0:0:0:0:
256,192,68402,1,0,0:0:0:0:
402,192,68402,128,0,68777:0:0:0:0:
36,192,68589,1,0,0:0:0:0:
256,192,68777,1,0,0:0:0:0:
182,192,68777,128,0,69152:0:0:0:0:
475,192,68964,1,0,0:0:0:0:
256,192,69152,1,0,0:0:0:0:
36,192,69152,128,0,69527:0:0:0:0:
475,192,69339,1,0,0:0:0:0:
256,192,69527,1,0,0:0:0:0:
402,192,69527,128,0,69902:0:0:0:0:
36,192,69714,1,0,0:0:0:0:
256,192,69902,1,0,0:0:0:0:
109,192,69902,128,0,70277:0:0:0:0:
475,192,70089,1,0,0:0:0:0:
256,192,70277,1,0,0:0:0:0:
475,192,70277,128,0,70652:0:0:0:0:
36,192,70464,1,0,0:0:0:0:
256,192,70652,1,0,0:0:0:0:
329,192,71027,1,0,0:0:0:0:
256,192,71027,1,0,0:0:0:0:
329,192,71402,1,0,0:0:0:0:
256,192,71402,1,0,0:0:0:0:
182,192,71777,1,0,0:0:0:0:
109,192,71777,128,0,72339:0:0:0:0:
36,192,71777,1,0,0:0:0:0:
475,192,72058,1,0,0:0:0:0:
182,192,72339,1,0,0:0:0:0:
256,192,72339,128,0,72902:0:0:0:0:
329,192,72339,1,0,0:0:0:0:
36,192,72620,1,0,0:0:0:0:
402,192,72902,128,0,74027:0:0:0:0:
475,192,72902,1,0,0:0:0:0:
329,192,72902,1,0,0:0:0:0:
36,192,73277,1,0,0:0:0:0:
109,192,73464,1,0,0:0:0:0:
182,192,73652,1,0,0:0:0:0:
256,192,73839,1,0,0:0:0:0:
475,192,74214,1,0,0:0:0:0:
402,192,74402,1,0,0:0:0:0:
475,192,74589,1,0,0:0:0:0:
256,192,74777,128,0,75152:0:0:0:0:
109,192,75152,1,0,0:0:0:0:
36,192,75152,1,0,0:0:0:0:
109,192,75339,1,0,0:0:0:0:
182,192,75339,1,0,0:0:0:0:
36,192,75714,1,0,0:0:0:0:
109,192,75714,1,0,0:0:0:0:
329,192,75714,1,0,0:0:0:0:
109,192,76089,128,0,76370:0:0:0:0:
256,192,76089,128,0,76370:0:0:0:0:
402,192,76089,128,0,76370:0:0:0:0:
36,192,76652,1,0,0:0:0:0:
256,192,76652,1,0,0:0:0:0:
182,192,76652,1,0,0:0:0:0:
329,192,76652,1,0,0:0:0:0:
402,192,77027,1,0,0:0:0:0:
329,192,77027,1,0,0:0:0:0:
256,192,77027,1,0,0:0:0:0:
109,192,77027,1,0,0:0:0:0:
182,192,77402,1,0,0:0:0:0:
329,192,77402,1,0,0:0:0:0:
402,192,77402,1,0,0:0:0:0:
475,192,77402,1,0,0:0:0:0:
36,192,77777,128,0,79652:0:0:0:0:
402,192,77777,128,0,79652:0:0:0:0:
109,192,78339,128,0,80027:0:0:0:0:
475,192,78339,128,0,80027:0:0:0:0:
256,192,78902,128,0,80777:0:0:0:0:
182,192,80777,1,0,0:0:0:0:
329,192,80777,1,0,0:0:0:0:
329,192,81152,1,0,0:0:0:0:
402,192,81152,1,0,0:0:0:0:
182,192,81152,1,0,0:0:0:0:
402,192,81339,1,0,0:0:0:0:
109,192,81527,1,0,0:0:0:0:
36,192,81527,1,0,0:0:0:0:
256,192,81527,1,0,0:0:0:0:
109,192,81714,1,0,0:0:0:0:
475,192,81902,1,0,0:0:0:0:
402,192,81902,1,0,0:0:0:0:
109,192,81902,1,0,0:0:0:0:
402,192,82089,1,0,0:0:0:0:
36,192,82277,1,0,0:0:0:0:
109,192,82277,1,0,0:0:0:0:
256,192,82277,1,0,0:0:0:0:
36,192,82464,1,0,0:0:0:0:
256,192,82652,1,0,0:0:0:0:
329,192,82652,1,0,0:0:0:0:
475,192,82652,1,0,0:0:0:0:
402,192,82839,1,0,0:0:0:0:
109,192,83027,1,0,0:0:0:0:
36,192,83027,1,0,0:0:0:0:
256,192,83027,1,0,0:0:0:0:
109,192,83214,1,0,0:0:0:0:
402,192,83402,1,0,0:0:0:0:
329,192,83402,1,0,0:0:0:0:
256,192,83402,1,0,0:0:0:0:
256,192,83777,1,0,0:0:0:0:
402,192,83777,128,0,84339:0:0:0:0:
329,192,83777,1,0,0:0:0:0:
256,192,84058,1,0,0:0:0:0:
109,192,84339,128,0,84902:0:0:0:0:
182,192,84339,1,0,0:0:0:0:
256,192,84339,1,0,0:0:0:0:
256,192,84620,1,0,0:0:0:0:
256,192,84902,5,0,0:0:0:0:
329,192,84902,128,0,85277:0:0:0:0:
36,192,85089,1,0,0:0:0:0:
402,192,85277,5,0,0:0:0:0:
36,192,85277,128,0,85839:0:0:0:0:
256,192,85558,1,0,0:0:0:0:
256,192,85839,5,0,0:0:0:0:
402,192,85839,1,0,0:0:0:0:
475,192,85839,128,0,86402:0:0:0:0:
256,192,86495,1,0,0:0:0:0:
109,192,86683,128,0,88183:0:0:0:0:
256,192,86683,128,0,88745:0:0:0:0:
402,192,86683,128,0,87808:0:0:0:0:
