osu file format v9

[General]
AudioFilename: TVOP (TVsize).mp3
AudioLeadIn: 2000
PreviewTime: 55046
Countdown: 0
SampleSet: Normal
StackLeniency: 0.6
Mode: 1
LetterboxInBreaks: 1

[Editor]
DistanceSpacing: 0.8
BeatDivisor: 4
GridSize: 8

[Metadata]
Title:Platinum Disco (TV size)
Artist:Iguchi Yuka
Creator:forevehappy
Version:Taiko Oni
Source:Nise monogatari
Tags:jih7491 senjogahara hitagi hachikuji mayoi kanbaru suruga sengoku nadeko hanekawa tsubasa oshino shinobu araragi karen araragi tsukihi saito chiwa kato emiri sawashiro miyuki hanazawa kana horie yui sakamoto maaya kitamura eri vofan aniplex shaft op3 opening meg rock

[Difficulty]
HPDrainRate:5
CircleSize:5
OverallDifficulty:5
ApproachRate:5
SliderMultiplier:1.40000000596047
SliderTickRate:1

[Events]
//Background and Video events
0,0,"Taiko BG.jpg"
//Break Periods
//Storyboard Layer 0 (Background)
//Storyboard Layer 1 (Fail)
//Storyboard Layer 2 (Pass)
//Storyboard Layer 3 (Foreground)
//Storyboard Sound Samples
//Background Colour Transformations
3,100,163,162,255

[TimingPoints]
175,512.820512820513,4,1,0,80,1,0
55559,-100,4,1,0,100,0,1
87354,-100,4,1,0,100,0,0

[Colours]
Combo1 : 0,128,255
Combo2 : 255,128,128

[HitObjects]
256,192,175,1,4
256,192,687,1,4
256,192,1200,1,4
328,192,1457,1,0
328,192,1585,5,8
328,192,1713,1,8
128,64,1969,1,8
128,64,2226,5,4
128,64,2482,1,0
128,64,2739,5,8
128,64,2995,1,8
128,64,3251,5,0
128,64,3508,1,0
128,64,3636,5,8
128,64,3764,5,0
128,64,4021,5,8
176,64,4277,5,0
176,64,4533,5,8
176,64,4662,5,8
176,64,4790,1,0
176,64,5046,5,8
176,64,5303,5,0
176,64,5559,5,12
176,64,5816,1,12
256,64,6072,5,0
256,64,6200,1,0
256,64,6328,1,0
256,64,6585,1,0
256,64,6841,5,8
256,64,7098,1,8
256,64,7354,5,0
256,64,7610,5,8
256,64,7739,1,8
256,64,7867,5,0
256,64,8123,5,8
256,64,8380,5,0
256,64,8636,1,0
256,64,8764,1,0
256,64,8892,5,8
256,64,9149,5,0
256,64,9405,5,8
256,64,9662,5,0
256,64,9918,5,8
256,64,10046,5,8
256,64,10175,1,0
256,64,10431,1,4
256,64,10687,1,0
256,64,10944,5,8
256,64,11200,5,8
256,64,11457,1,0
256,64,11713,5,8
256,64,11841,1,8
256,64,11969,5,0
256,64,12226,5,8
256,64,12482,5,0
256,64,12739,1,0
256,64,12867,5,8
256,64,12995,5,0
256,64,13251,5,8
256,64,13508,5,0
256,64,13764,5,12
256,64,14021,1,12
256,64,14277,5,0
256,64,14405,1,0
256,64,14533,1,0
256,64,14790,1,0
256,64,15046,5,8
256,64,15303,1,8
256,64,15559,5,0
256,64,15687,1,0
256,64,15816,5,8
256,64,15944,1,8
256,64,16072,5,0
256,64,16328,5,8
256,64,16585,5,0
256,64,16713,5,8
256,64,16841,1,8
256,64,16969,1,8
256,64,17098,5,0
256,64,17226,5,8
256,64,17354,1,8
256,64,17482,1,8
256,64,17610,5,0
256,64,17867,5,8
256,64,18123,1,8
260,192,18636,5,0
260,192,18892,1,0
260,192,19149,5,8
260,192,19405,5,0
260,192,19662,1,0
260,192,19918,5,8
260,192,20046,5,0
260,192,20175,5,8
260,192,20431,5,0
260,192,20687,1,0
260,192,20944,5,8
260,192,21072,5,0
260,192,21200,1,0
260,192,21457,1,0
260,192,21713,1,0
260,192,21969,5,8
260,192,22098,5,0
260,192,22226,1,0
260,192,22482,1,0
260,192,22610,1,0
260,192,22739,1,0
260,192,22995,5,8
260,192,23123,1,8
260,192,23251,5,0
260,192,23508,5,8
260,192,23764,5,0
260,192,24021,1,0
260,192,24149,1,0
260,192,24277,5,8
260,192,24533,1,8
260,192,24790,5,0
260,192,25046,5,8
260,192,25303,1,8
260,192,25559,5,0
260,192,25816,5,8
260,192,26072,5,0
260,192,26200,5,8
260,192,26328,1,8
260,192,26585,5,0
260,192,26713,1,0
260,192,26841,1,0
260,192,27098,1,0
260,192,27226,5,8
260,192,27610,5,0
260,192,27739,1,0
260,192,27867,1,0
260,192,28123,5,8
260,192,28251,5,0
260,192,28636,1,0
260,192,28764,1,0
260,192,28892,1,0
260,192,29149,1,0
260,192,29277,5,8
260,192,29662,5,0
260,192,29790,1,0
260,192,29918,1,0
260,192,30175,5,8
260,192,30303,5,0
260,192,30687,1,0
260,192,30944,1,0
260,192,31200,5,8
260,192,31457,5,0
260,192,31713,5,8
260,192,31969,5,0
260,192,32226,5,8
260,192,32354,1,8
260,192,32482,5,0
260,192,32739,5,8
264,96,32995,5,0
264,96,33123,1,0
264,96,33251,1,0
264,96,33380,1,0
264,96,33508,5,8
264,96,33636,1,8
264,96,33764,1,8
264,96,33892,1,8
264,96,34021,5,0
264,96,34277,5,8
264,96,34533,5,0
256,193,34790,5,8
256,193,35046,5,4
256,193,35303,1,0
256,193,35559,5,8
256,193,35816,5,0
256,193,36072,1,0
256,193,36328,1,0
256,193,36585,5,8
256,193,36841,1,8
256,193,37098,5,0
256,193,37354,1,0
256,193,37610,5,8
256,193,37867,1,8
256,193,38123,5,0
256,193,38380,5,8
256,193,38508,1,8
256,193,38636,5,0
256,193,38892,5,8
256,193,39149,5,0
256,193,39405,5,8
256,193,39918,5,0
256,193,40175,5,12
256,193,40431,1,12
256,193,40687,5,0
256,193,40944,5,8
256,193,41200,5,0
256,193,41457,5,8
256,193,41969,5,0
256,193,42226,5,12
256,193,42482,1,12
256,193,42739,5,0
256,193,42995,5,8
256,193,43251,5,0
256,193,43508,1,0
256,193,43764,5,8
256,193,44021,1,8
256,193,44277,5,0
256,193,44533,1,0
256,193,44790,5,8
256,193,45046,5,0
256,193,45303,1,0
256,193,45559,1,0
256,193,45816,5,8
256,193,46072,1,8
256,193,46328,5,0
256,193,46585,5,8
256,193,46713,1,8
256,193,46841,5,0
256,193,47098,5,8
256,193,47354,5,0
256,193,47610,1,0
256,193,47867,5,12
256,193,48380,5,0
256,193,48636,1,0
256,193,48892,5,12
256,193,49405,5,4
256,193,49918,1,4
256,193,50431,1,4
256,193,50944,1,4
184,112,51457,1,0
184,112,51585,1,0
184,112,51713,5,8
184,112,51841,1,8
184,112,51969,5,0
184,112,52098,1,0
184,112,52226,5,8
184,112,52354,1,8
184,112,52482,5,0
184,112,52610,1,0
184,112,52739,5,8
184,112,52867,1,8
184,112,52995,5,0
259,195,53251,5,8
259,195,53508,5,4
259,195,53764,5,12
259,195,54021,5,4
259,195,54277,1,4
259,195,54533,5,12
259,195,55046,1,8
259,195,55303,1,8
259,195,55559,5,0
259,195,55816,1,0
259,195,55944,5,8
259,195,56072,5,0
259,195,56328,5,8
259,195,56585,5,0
259,195,56841,5,8
259,195,56969,5,0
259,195,57098,5,8
259,195,57354,1,8
259,195,57610,5,0
259,195,57867,1,0
259,195,57995,5,8
259,195,58123,5,0
259,195,58380,5,8
259,195,58636,5,0
259,195,58764,5,8
259,195,58892,5,0
259,195,59021,1,0
259,195,59149,5,8
259,195,59405,1,8
259,195,59662,5,0
259,195,59918,5,8
259,195,60046,1,8
259,195,60174,5,0
259,195,60431,1,0
259,195,60687,1,0
259,195,60816,1,0
259,195,60944,5,8
259,195,61072,1,8
259,195,61200,5,0
259,195,61457,5,8
259,195,61713,1,8
259,195,61841,1,8
259,195,61969,5,0
259,195,62098,1,0
259,195,62226,5,8
259,195,62354,1,8
259,195,62482,5,0
259,195,62610,1,0
259,195,62739,5,8
259,195,62867,5,0
259,195,62995,1,0
259,195,63123,1,0
259,195,63251,5,8
259,195,63380,5,0
259,195,63508,5,8
259,195,63636,5,0
259,195,63764,5,8
259,195,64021,5,0
259,195,64149,5,8
259,195,64277,5,0
259,195,64533,5,8
259,195,64790,5,0
259,195,65046,5,8
259,195,65174,5,0
259,195,65303,5,8
259,195,65559,1,8
259,195,65816,5,0
259,195,66072,1,0
259,195,66200,5,8
259,195,66328,5,0
259,195,66585,5,8
259,195,66841,5,0
259,195,66969,5,8
259,195,67098,5,0
259,195,67226,1,0
259,195,67354,5,8
259,195,67610,1,8
259,195,67867,5,0
259,195,68123,5,8
259,195,68251,1,8
259,195,68380,5,0
259,195,68636,5,8
259,195,68892,5,0
259,195,69021,1,0
259,195,69149,5,8
259,195,69277,1,8
259,195,69405,5,0
259,195,69662,5,8
259,195,69918,5,0
259,195,70046,5,8
259,195,70174,1,8
259,195,70303,5,0
259,195,70431,1,0
259,195,70559,1,0
259,195,70687,5,8
259,195,70816,1,8
259,195,70944,5,0
352,160,71200,5,8
352,160,71457,1,8
259,132,71713,5,0
259,132,71969,1,0
259,132,72482,5,8
259,132,72739,5,0
259,132,72995,1,0
259,132,73251,5,8
259,132,73508,5,0
259,132,73764,5,8
259,132,74021,5,0
259,132,74149,1,0
259,132,74277,5,8
259,132,74533,1,8
259,132,74790,5,0
259,132,75046,1,0
259,132,75303,5,12
259,132,75559,1,12
259,132,75816,5,4
259,132,76072,5,12
259,132,76585,1,8
259,132,76841,5,0
259,132,77098,1,0
259,132,77354,5,8
259,132,77482,1,8
259,132,77610,5,0
259,132,77867,5,8
259,132,78123,5,0
259,132,78251,1,0
259,132,78380,5,8
259,132,78636,1,8
259,132,78892,5,0
263,247,79149,1,0
263,247,79405,5,12
263,247,79662,1,12
263,247,79918,5,4
263,247,80175,1,4
263,247,80687,5,8
263,247,80944,5,0
263,247,81200,1,0
263,247,81457,5,8
263,247,81713,1,8
263,247,81969,5,0
263,247,82226,5,8
263,247,82482,5,0
263,247,82610,5,8
263,247,82739,5,0
263,247,82995,5,8
263,247,83251,5,0
263,247,83508,1,0
263,247,83764,5,12
263,247,84021,5,0
263,247,84149,1,0
263,247,84277,1,0
263,247,84533,1,0
263,247,84790,5,12
263,247,85046,5,0
263,247,85303,1,0
263,247,85559,1,0
263,247,85816,5,12
263,247,86072,5,0
344,248,86328,5,12
344,248,86585,5,0
272,120,86841,5,8
272,120,86969,1,8
272,120,87098,5,0
272,120,87354,1,4
