osu file format v9

[General]
AudioFilename: TVOP (TVsize).mp3
AudioLeadIn: 2000
PreviewTime: 55046
Countdown: 0
SampleSet: Soft
StackLeniency: 0.6
Mode: 0
LetterboxInBreaks: 1

[Editor]
DistanceSpacing: 1
BeatDivisor: 4
GridSize: 8

[Metadata]
Title:Platinum Disco (TV size)
Artist:Iguchi Yuka
Creator:forevehappy
Version:Normal
Source:Nise monogatari
Tags:jih7491 senjogahara hitagi hachikuji mayoi kanbaru suruga sengoku nadeko hanekawa tsubasa oshino shinobu araragi karen araragi tsukihi saito chiwa kato emiri sawashiro miyuki hanazawa kana horie yui sakamoto maaya kitamura eri vofan aniplex shaft op3 opening meg rock

[Difficulty]
HPDrainRate:3
CircleSize:4
OverallDifficulty:3
ApproachRate:4
SliderMultiplier:1.70000000596046
SliderTickRate:1

[Events]
//Background and Video events
0,0,"BG1.jpg"
Video,0,"Platinum Disco (TV Size).avi"
//Break Periods
//Storyboard Layer 0 (Background)
//Storyboard Layer 1 (Fail)
//Storyboard Layer 2 (Pass)
//Storyboard Layer 3 (Foreground)
//Storyboard Sound Samples
//Background Colour Transformations
3,100,163,162,255

[TimingPoints]
175,512.820512820513,4,2,0,80,1,0
18123,-100,4,2,0,60,0,0
49149,-133.333333333333,4,2,0,60,0,0
51457,-100,4,2,0,80,0,0
55559,-100,4,2,0,90,0,1
61713,-133.333333333333,4,2,0,90,0,1
62739,-100,4,2,0,90,0,1
82226,-133.333333333333,4,2,0,90,0,1
87354,-100,4,2,0,90,0,0

[Colours]
Combo1 : 255,128,255
Combo2 : 255,128,128
Combo3 : 255,255,128
Combo4 : 255,128,64

[HitObjects]
344,312,175,2,0,B|392:232|336:152,1,170.000000596046,2|8
248,288,1200,1,2
136,160,1713,1,8
56,312,2226,6,0,B|80:232,1,85.000000298023,2|0
176,240,2739,2,0,B|208:328,1,85.000000298023,8|0
280,280,3251,2,0,B|328:280|360:256,1,85.000000298023,0|0
432,200,3764,1,8
448,32,4277,6,0,B|416:120,1,85.000000298023,2|0
336,128,4790,2,0,B|312:48,1,85.000000298023,8|0
232,80,5303,2,0,B|184:80|152:112,1,85.000000298023,2|8
72,136,5816,1,8
120,296,6328,6,0,B|160:320|200:296,1,85.000000298023,2|0
288,288,6841,2,0,B|344:224,1,85.000000298023,8|0
344,144,7354,2,0,B|256:144,1,85.000000298023,2|0
176,144,7867,2,0,B|152:104|176:64,1,85.000000298023,8|0
256,192,8380,12,4,9918
227,321,10431,6,0,B|202:279|156:281,1,85.000000298023,2|0
72,288,10944,2,0,B|48:245|72:207,1,85.000000298023,8|0
157,198,11457,1,0
177,29,11969,1,12
344,64,12482,6,0,B|392:72|408:112,1,85.000000298023,2|0
416,200,12995,2,0,B|400:248|362:263,1,85.000000298023,8|0
256,192,13508,1,0
256,192,14021,1,12
152,328,14533,6,0,B|192:304|232:328,1,85.000000298023
320,328,15046,2,0,B|368:256,1,85.000000298023,8|0
376,168,15559,2,0,B|334:147|294:171,1,85.000000298023,0|0
208,152,16072,2,0,B|256:80,1,85.000000298023,8|0
256,192,16585,12,2,18123
448,40,18636,6,0,B|368:64|352:168,1,170.000000596046,2|8
296,136,19405,1,0
280,200,19662,2,0,B|200:176|184:72,1,170.000000596046,2|8
48,72,20687,6,0,B|128:104|152:200,1,170.000000596046,2|8
200,248,21457,1,0
256,288,21713,2,0,B|336:264|352:160,1,170.000000596046,2|8
272,48,22739,6,0,B|179:12|107:52,1,170.000000596046,2|8
128,184,23764,1,2
264,184,24277,1,8
400,168,24790,6,0,B|416:216|400:256,1,85.000000298023,2|0
336,272,25303,2,0,B|296:256|248:272,1,85.000000298023,8|0
184,256,25816,2,0,B|172:220|192:168,1,85.000000298023,2|0
190,172,26328,1,12
272,64,26841,6,0,B|320:64|344:104,1,85.000000298023,2|0
376,160,27354,1,8
272,248,27867,1,2
136,264,28380,1,8
72,144,28892,6,0,B|88:96|128:80,1,85.000000298023,2|0
192,72,29405,1,8
240,200,29918,1,2
376,168,30431,1,8
440,288,30944,6,0,B|368:328|272:288,1,170.000000596046,2|8
344,176,31969,1,2
224,232,32482,1,10
88,200,32995,6,0,B|72:152|88:112,1,85.000000298023,2|0
152,120,33508,2,0,B|200:136|240:120,1,85.000000298023,8|0
304,120,34021,2,0,B|318:155|296:208,1,85.000000298023,2|2
298,202,34533,1,8
80,160,35046,6,0,B|136:80|224:88,1,170.000000596046,2|8
256,224,36072,1,2
344,120,36585,1,8
432,224,37098,6,0,B|376:304|288:296,1,170.000000596046,2|8
256,160,38123,1,2
256,160,38636,1,8
152,248,39149,6,0,B|120:160|160:80,1,170.000000596046,2|8
288,88,40174,1,2
288,88,40687,1,8
288,224,41200,6,0,B|376:224,2,85.000000298023,2|0|8
184,136,42226,1,4
184,272,42739,1,8
272,168,43251,5,2
352,56,43764,1,8
392,184,44277,2,0,B|408:224|392:272,1,85.000000298023,2|0
336,304,44790,1,8
240,208,45303,5,2
144,304,45816,1,8
112,176,46328,2,0,B|96:136|112:88,1,85.000000298023,2|0
168,64,46841,1,8
216,112,47098,5,0
216,112,47354,2,0,B|256:128|304:112,2,85.000000298023,0|0|8
299,270,48380,2,0,B|256:256|216:272,2,85.000000298023,2|0|12
400,256,49405,5,2
400,208,49662,1,0
400,160,49918,2,0,B|400:80|322:80,1,127.499996647239,8|2
224,80,50944,1,8
256,192,51457,12,4,52995
400,40,53508,6,0,B|384:80|400:128,1,85.000000298023,2|2
408,192,54021,1,4
352,232,54277,2,0,B|312:248|264:232,1,85.000000298023,2|4
112,304,55046,6,0,B|56:240,1,85.000000298023,0|0
128,192,55559,1,2
64,136,55816,2,0,B|120:72,1,85.000000298023,0|8
192,128,56328,1,0
256,192,56585,1,2
392,311,57098,6,0,B|448:248,1,85.000000298023,8|0
384,192,57610,1,2
452,147,57867,2,0,B|400:79,1,85.000000298023,0|8
320,128,58380,1,0
264,200,58636,2,0,B|98:240,1,170.000000596046,2|12
80,152,59405,5,0
80,152,59662,2,0,B|120:128|160:152,1,85.000000298023,2|0
184,72,60174,1,8
256,112,60431,1,0
302,38,60687,2,0,B|346:62|383:53,1,85.000000298023,2|0
448,112,61200,1,8
448,200,61457,1,0
360,200,61713,2,0,B|299:154|243:203,2,127.499996647239,2|8|4
408,360,63251,6,0,B|335:315,1,85.000000298023,8|0
264,272,63764,1,2
200,328,64021,2,0,B|143:264,1,85.000000298023,0|8
136,176,64533,1,0
48,184,64790,1,4
104,24,65303,6,0,B|176:68,1,85.000000298023,8|0
248,112,65816,1,2
312,56,66073,2,0,B|369:120,1,85.000000298023,0|8
304,176,66585,1,0
304,176,66842,1,4
320,344,67354,5,8
388,293,67610,2,0,B|451:236,1,85.000000298023,2|0
368,88,68380,1,8
316,155,68636,1,0
316,155,68892,2,0,B|260:219,1,85.000000298023,2|0
260,219,69405,1,8
256,192,69918,12,4,71457
65,72,71969,6,0,B|81:112|65:160,1,85.000000298023,2|0
56,240,72482,2,0,B|96:216|144:240,1,85.000000298023,8|0
192,174,72995,1,0
294,38,73508,1,12
452,99,74021,6,0,B|399:188|312:176,1,170.000000596046,2|8
279,343,75046,1,0
279,343,75303,1,0
279,343,75559,1,12
447,312,76072,6,0,B|431:272|447:224,1,85.000000298023,2|0
456,144,76585,2,0,B|416:168|368:144,1,85.000000298023,8|0
320,210,77098,1,0
218,346,77611,1,12
60,285,78124,6,0,B|113:196|200:208,1,170.000000596046,2|8
233,41,79149,1,0
233,41,79406,1,0
233,41,79662,1,12
265,207,80174,6,0,B|196:274|104:240,1,170.000000596046,2|8
130,159,80944,1,0
213,142,81200,2,0,B|245:110|296:112,1,85.000000298023,2|0
290,111,81713,1,12
391,185,82226,5,2
362,242,82482,1,0
333,298,82739,2,0,B|271:258|264:192,1,127.500005310774,8|2
187,96,83764,2,0,B|127:50|72:103,1,127.499996647239,8|2
73,104,84533,1,0
73,104,84790,1,12
120,222,85303,5,2
120,222,85559,1,0
120,222,85816,2,0,B|184:238|208:312,1,127.500005310774,12|0
329,280,86841,2,0,B|366:282|379:248,2,63.7499983236193,2|2|4
