osu file format v9

[General]
AudioFilename: TVOP (TVsize).mp3
AudioLeadIn: 2000
PreviewTime: 55046
Countdown: 0
SampleSet: Soft
StackLeniency: 0.6
Mode: 0
LetterboxInBreaks: 1

[Editor]
DistanceSpacing: 1.4
BeatDivisor: 4
GridSize: 8

[Metadata]
Title:Platinum Disco (TV size)
Artist:Iguchi Yuka
Creator:forevehappy
Version:Insane
Source:Nise monogatari
Tags:jih7491 senjogahara hitagi hachikuji mayoi kanbaru suruga sengoku nadeko hanekawa tsubasa oshino shinobu araragi karen araragi tsukihi saito chiwa kato emiri sawashiro miyuki hanazawa kana horie yui sakamoto maaya kitamura eri vofan aniplex shaft op3 opening meg rock

[Difficulty]
HPDrainRate:7
CircleSize:4
OverallDifficulty:7
ApproachRate:8
SliderMultiplier:2.20000000596047
SliderTickRate:2

[Events]
//Background and Video events
0,0,"BG1.jpg"
Video,0,"Platinum Disco (TV Size).avi"
//Break Periods
//Storyboard Layer 0 (Background)
//Storyboard Layer 1 (Fail)
//Storyboard Layer 2 (Pass)
//Storyboard Layer 3 (Foreground)
//Storyboard Sound Samples
//Background Colour Transformations
3,100,163,162,255

[TimingPoints]
175,512.820512820513,4,2,0,90,1,0
1457,-100,4,2,0,80,0,0
8380,-133.333333333333,4,2,0,80,0,0
9405,-100,4,2,0,80,0,0
16585,-133.333333333333,4,2,0,80,0,0
47098,-100,4,2,0,80,0,0
49149,-66.6666666666667,4,2,0,80,0,0
54790,-100,4,2,0,80,0,0
55559,-100,4,2,0,90,0,1
69790,-133.333333333333,4,2,0,90,0,1
71457,-100,4,2,0,90,0,1
84277,-66.6666666666667,4,2,0,90,0,1
87354,-66.6666666666667,4,2,0,90,0,0

[Colours]
Combo1 : 255,128,255
Combo2 : 255,128,128
Combo3 : 255,255,128
Combo4 : 255,128,64

[HitObjects]
400,136,175,5,2
448,288,431,1,0
408,296,559,1,0
368,288,687,1,8
216,232,944,2,0,B|268:211|291:155,1,110.000000298024,0|2
144,92,1457,1,0
104,80,1585,1,0
64,88,1713,1,8
112,248,1969,1,4
40,40,2226,5,0
80,24,2354,1,0
120,32,2482,2,0,B|180:39|216:88,1,110.000000298024,0|8
152,232,2995,1,0
296,296,3251,1,0
320,328,3380,1,0
360,336,3508,2,0,B|418:361|466:337,2,110.000000298024,0|8|0
423,195,4277,5,0
423,155,4405,1,0
407,115,4533,2,0,B|384:63|328:42,1,110.000000298024,0|8
308,195,5046,1,0
117,305,5303,1,2
117,85,5559,1,4
308,195,5816,1,12
254,51,6072,1,0
408,64,6328,5,0
392,104,6457,1,0
376,144,6585,2,0,B|368:204|320:242,1,110.000000298024,0|8
191,158,7098,1,0
162,124,7226,1,0
136,88,7354,2,0,B|99:39|39:30,2,110.000000298024,0|0|8
72,232,8123,1,0
178,280,8380,5,2
205,249,8508,1,0
235,221,8636,1,0
264,192,8764,1,0
295,165,8892,2,0,B|317:176|328:199,4,41.2499988824131,8|0|0|0|2
432,72,9662,1,0
432,224,9918,2,8,B|464:272,2,55.0000001490118,8|0|0
312,328,10431,5,0
311,284,10559,1,0
336,248,10687,2,0,B|358:197|334:141,1,110.000000298024,0|8
176,144,11200,1,0
184,187,11328,1,0
160,224,11457,2,0,B|138:275|162:331,2,110.000000298024,0|0|8
264,112,12226,1,0
312,264,12482,5,0
355,265,12610,1,0
392,288,12739,2,0,B|435:321|495:313,1,110.000000298024,0|8
469,159,13251,1,0
428,132,13380,1,0
384,136,13508,1,0
184,40,13764,1,4
384,136,14021,1,12
184,224,14277,1,0
56,312,14533,5,0
80,275,14662,1,0
88,232,14790,2,0,B|96:172|144:134,1,110.000000298024,0|8
272,216,15303,1,0
307,242,15431,1,0
328,280,15559,2,0,B|365:329|425:338,2,110.000000298024,0|0|8
384,136,16328,1,0
310,223,16585,5,2
269,227,16713,1,0
236,202,16841,1,0
211,169,16969,1,0
211,127,17098,1,8
211,86,17226,1,0
170,86,17354,2,0,B|130:86,3,41.2499988824131
100,103,17867,2,0,B|70:135|83:180,1,82.4999977648261,0|8
64,344,18380,6,0,B|88:304|64:256,1,82.4999977648261,0|4
25,154,18892,1,0
58,153,19021,1,0
80,128,19149,2,0,B|97:95|151:92,2,82.4999977648261,8|0|2
192,208,19918,1,0
224,216,20046,1,0
256,208,20175,1,8
296,48,20431,6,0,B|318:88|372:92,1,82.4999977648261,0|2
479,109,20944,1,0
461,137,21072,1,0
472,168,21200,2,0,B|491:207|467:255,2,82.4999977648261,8|0|2
336,168,21969,1,0
304,160,22098,1,0
272,168,22226,1,8
144,64,22482,5,0
119,177,22739,2,0,B|159:164|199:180,1,82.4999977648261,2|0
275,93,23251,1,8
382,137,23508,1,0
390,169,23636,1,0
382,201,23764,1,2
267,218,24021,1,0
239,330,24277,2,0,B|198:316|158:332,1,82.4999977648261,8|0
88,240,24790,5,2
80,208,24918,1,0
88,176,25046,1,0
184,240,25303,2,0,B|223:223|242:184,1,82.4999977648261,8|0
320,96,25816,1,2
346,116,25944,1,0
374,133,26072,2,0,B|422:101,2,41.2499988824131,0|0|8
432,288,26585,6,0,B|396:263|353:268,1,82.4999977648261,0|6
256,328,27098,1,0
224,336,27226,1,0
192,328,27354,1,8
240,216,27610,1,0
184,112,27867,2,0,B|164:73|125:56,2,82.4999977648261,2|0|8
64,136,28636,6,0,B|102:116|119:77,1,82.4999977648261,0|2
232,40,29149,1,0
264,32,29277,1,0
296,40,29405,1,8
248,152,29662,1,0
304,256,29918,2,0,B|323:294|362:311,2,82.4999977648261,2|0|8
403,124,30687,5,0
296,80,30944,2,0,B|255:66|215:82,2,82.4999977648261,2|0|8
256,192,31713,1,0
216,304,31969,1,2
256,312,32098,1,0
296,304,32226,1,0
405,256,32482,6,0,B|384:214|407:175,1,82.4999977648261,8|0
391,146,32867,1,0
384,112,32995,2,0,B|361:71|307:68,1,82.4999977648261,2|0
289,51,33380,1,0
256,56,33508,2,0,B|216:75|176:51,1,82.4999977648261,8|0
63,172,34021,5,2
59,213,34149,1,0
75,251,34277,1,0
105,279,34405,1,0
143,295,34533,2,0,B|191:293|233:265,1,82.4999977648261,8|0
312,200,35046,1,4
376,352,35303,6,0,B|424:352|456:312,1,82.4999977648261,0|8
352,256,35816,1,0
448,192,36072,2,0,B|439:198|400:192|368:152,2,82.4999977648261,2|0|8
352,256,36841,1,0
216,352,37098,6,0,B|205:355|169:339|149:292,1,82.4999977648261,2|0
222,204,37610,2,0,B|206:166|170:150|159:154,1,82.4999977648261,8|0
66,229,38123,1,2
39,114,38380,1,0
40,81,38508,1,0
63,54,38636,1,8
137,148,38892,1,0
250,174,39149,6,0,B|292:180|330:222,2,82.4999977648261,2|0|8
178,78,39918,2,0,B|206:45|249:39,1,82.4999977648261,0|2
330,126,40431,1,0
346,158,40559,1,0
354,190,40687,1,8
208,272,40944,6,0,B|175:241|183:195,1,82.4999977648261,0|2
156,80,41457,1,0
38,104,41713,2,8,B|28:149|61:178,1,82.4999977648261,8|0
122,285,42226,1,2
148,305,42354,1,0
180,312,42482,2,0,B|273:338,2,82.4999977648261,0|8|0
336,256,43251,5,4
440,200,43508,2,0,B|456:160|440:112,1,82.4999977648261,0|8
352,48,44021,2,0,B|312:32|272:49,1,82.4999977648261,0|2
264,168,44533,1,0
232,160,44662,1,0
208,136,44790,1,8
120,64,45046,6,0,B|81:83|64:122,1,82.4999977648261,0|2
151,200,45559,1,0
178,217,45687,1,0
205,234,45816,1,8
272,328,46072,2,0,B|236:349|193:325,1,82.4999977648261,0|2
96,256,46585,1,0
96,256,46713,1,0
96,256,46841,1,8
160,112,47098,6,0,B|192:48|288:40,1,110.000000298024,0|2
256,176,47610,1,4
256,176,47867,1,12
256,176,48123,1,0
352,272,48380,2,0,B|320:336|224:344,1,110.000000298024,2|4
256,176,48892,1,12
336,72,49149,5,2
456,128,49405,2,0,B|400:194|315:206,1,164.999995529652,2|0
416,296,49918,1,8
288,328,50174,2,0,B|202:313|149:245,1,164.999995529652,0|2
272,216,50687,1,0
224,104,50944,2,0,B|155:52|61:60,1,164.999995529652,8|2
256,192,51457,12,4,52995
472,48,53508,6,0,B|408:216,1,164.999995529652,2|2
344,88,54021,2,0,B|256:48|176:88,1,164.999995529652,2|0
56,48,54533,2,0,B|114:202,1,164.999995529652,4|2
176,296,55046,5,0
216,288,55174,1,0
256,287,55303,2,0,B|316:278|364:315,2,110.000000298024,0|4|0
400,232,56072,1,8
336,88,56328,1,0
296,96,56457,1,0
256,96,56585,2,0,B|196:105|148:68,1,110.000000298024,2|0
40,264,57098,6,0,B|49:313|94:361,1,110.000000298024,8|0
224,280,57610,1,2
264,272,57739,1,0
304,280,57867,1,0
456,264,58123,2,0,B|445:313|400:360,2,110.000000298024,8|0|2
336,168,58892,1,0
408,32,59149,1,8
280,216,59405,6,0,B|223:201|183:160,1,110.000000298024,0|4
72,56,59918,1,0
48,96,60046,1,0
48,144,60174,1,8
112,288,60431,2,0,B|150:327|206:341,1,110.000000298024,0|2
360,304,60944,1,0
208,256,61200,2,0,B|157:227|130:179,1,110.000000298024,8|0
222,56,61713,5,2
276,47,61841,1,0
330,58,61969,2,0,B|376:87,3,55.0000001490118,0|0|8|0
408,133,62482,2,0,B|409:211,3,55.0000001490118,0|0|2|0
377,233,62995,2,0,B|329:260,1,55.0000001490118
279,283,63251,1,8
227,264,63380,1,0
183,230,63508,6,0,B|126:244|86:286,2,110.000000298024,0|4|0
64,128,64277,1,8
216,88,64533,2,0,B|272:72|328:88,1,110.000000298024,0|2
368,104,64918,1,0
400,136,65046,1,0
256,304,65303,5,8
163,180,65559,1,0
312,136,65816,2,0,B|368:121|408:80,2,110.000000298024,2|0|8
200,248,66585,2,0,B|146:261|106:303,2,110.000000298024,0|2|0
56,192,67354,1,8
272,168,67610,6,10,B|231:130|218:73,1,110.000000298024,0|4
368,120,68123,1,0
409,143,68251,1,0
432,184,68380,1,8
344,312,68636,2,8,B|295:285|266:233,1,110.000000298024,0|2
128,176,69149,1,0
96,328,69405,2,0,B|48:216,1,110.000000298024,8|0
70,112,69918,5,2
107,94,70046,1,0
148,90,70174,1,0
187,104,70303,1,0
221,127,70431,1,8
249,157,70559,1,0
258,197,70687,1,0
244,236,70816,1,0
218,268,70944,2,2,B|184:294|174:344,2,82.4999977648261,2|0|8
152,128,71713,6,0,B|101:99|72:48,2,110.000000298024,0|4|0
189,150,72354,1,0
232,147,72482,1,8
352,64,72739,2,0,B|402:92|431:143,1,110.000000298024,0|2
390,286,73251,1,0
390,286,73380,1,0
390,286,73508,6,0,B|340:258|310:207,1,110.000000298024,8|0
160,192,74021,1,2
304,136,74277,1,0
184,40,74533,1,8
184,40,74790,2,0,B|127:54|87:96,1,110.000000298024,0|2
112,320,75303,1,4
336,312,75559,1,12
264,176,75816,5,0
352,48,76072,2,0,B|401:79|411:136,1,110.000000298024,4|0
426,178,76457,1,0
416,220,76585,1,8
264,176,76841,1,0
416,220,77098,1,2
426,178,77226,1,0
411,137,77354,2,0,B|401:80|352:49,1,110.000000298024,0|8
264,176,77867,5,0
136,80,78123,1,2
72,224,78380,1,0
88,264,78508,1,0
128,280,78636,1,8
208,144,78892,1,0
288,280,79149,1,2
328,64,79405,1,4
440,256,79662,1,12
288,280,79918,5,0
160,336,80174,2,0,B|111:305|100:247,1,110.000000298024,4|0
81,207,80559,1,0
93,164,80687,1,8
248,208,80944,1,0
93,164,81200,1,2
81,207,81328,1,0
101,247,81457,2,0,B|111:304|160:335,1,110.000000298024,0|8
278,236,81969,5,0
160,136,82226,1,2
56,256,82482,1,0
72,296,82610,1,0
112,312,82739,1,8
192,176,82995,1,0
320,80,83251,2,0,B|399:159,1,110.000000298024,2|0
264,240,83764,1,8
264,240,84021,1,0
448,96,84277,6,0,B|384:31|307:14,2,164.999995529652,0|0|12
256,192,85046,1,0
66,287,85303,2,0,B|121:344|208:368,2,164.999995529652,0|0|12
392,344,86072,5,0
360,112,86328,1,0
176,256,86585,1,2
392,344,86841,1,8
360,112,87098,2,0,B|297:176|307:262,1,164.999995529652,0|2
