osu file format v9

[General]
AudioFilename: TVOP (TVsize).mp3
AudioLeadIn: 2000
PreviewTime: 55046
Countdown: 0
SampleSet: Soft
StackLeniency: 0.6
Mode: 0
LetterboxInBreaks: 1

[Editor]
DistanceSpacing: 1
BeatDivisor: 4
GridSize: 8

[Metadata]
Title:Platinum Disco (TV size)
Artist:Iguchi Yuka
Creator:forevehappy
Version:Hard
Source:Nise monogatari
Tags:jih7491 senjogahara hitagi hachikuji mayoi kanbaru suruga sengoku nadeko hanekawa tsubasa oshino shinobu araragi karen araragi tsukihi saito chiwa kato emiri sawashiro miyuki hanazawa kana horie yui sakamoto maaya kitamura eri vofan aniplex shaft op3 opening meg rock

[Difficulty]
HPDrainRate:6
CircleSize:4
OverallDifficulty:6
ApproachRate:7
SliderMultiplier:2.20000000596047
SliderTickRate:2

[Events]
//Background and Video events
0,0,"BG1.jpg"
Video,0,"Platinum Disco (TV Size).avi"
//Break Periods
//Storyboard Layer 0 (Background)
//Storyboard Layer 1 (Fail)
//Storyboard Layer 2 (Pass)
//Storyboard Layer 3 (Foreground)
//Storyboard Sound Samples
//Background Colour Transformations
3,100,163,162,255

[TimingPoints]
175,512.820512820513,4,2,0,90,1,0
1457,-100,4,2,0,80,0,0
18123,-100,4,2,0,70,0,0
35303,-133.333333333333,4,2,0,70,0,0
39918,-100,4,2,0,70,0,0
43251,-133.333333333333,4,2,0,70,0,0
49405,-100,4,2,0,60,0,0
55046,-100,4,2,0,80,0,0
55559,-100,4,2,0,90,0,1
61713,-133.333333333333,4,2,0,90,0,1
62739,-100,4,2,0,90,0,1
87354,-100,4,2,0,90,0,0

[Colours]
Combo1 : 255,128,255
Combo2 : 255,128,128
Combo3 : 255,255,128
Combo4 : 255,128,64

[HitObjects]
352,192,175,6,0,B|344:128|288:96,1,110.000000298024,2|0
256,96,559,1,0
208,108,687,2,0,B|156:147|156:212,1,110.000000298024,2|0
172,240,1072,1,0
208,275,1200,2,0,B|267:300|323:267,1,110.000000298024,2|0
256,192,1713,1,8
256,192,1969,1,8
256,80,2226,6,0,B|192:80|152:144,1,110.000000298024,4|0
168,240,2739,1,8
256,304,2995,2,0,B|320:304|360:240,1,110.000000298024,0|2
160,144,3508,1,0
136,112,3636,1,0
117,77,3764,2,0,B|165:40|223:52,1,110.000000298024,8|0
432,104,4277,5,2
408,136,4405,1,0
384,168,4533,1,0
272,128,4790,1,8
312,232,5046,1,0
395,307,5303,2,0,B|352:352|288:344,1,110.000000298024,2|4
312,232,5816,1,12
256,136,6072,1,0
352,80,6328,6,0,B|368:128|408:176,1,110.000000298024,2|0
352,272,6841,2,0,B|296:280|256:328,1,110.000000298024,8|0
208,224,7354,1,2
112,168,7610,1,0
112,280,7867,2,0,B|144:320|216:320,1,110.000000298024,8|0
322,294,8380,5,2
368,192,8636,1,0
256,200,8892,1,8
256,200,9149,1,0
202,103,9405,2,0,B|256:88|314:103,1,110.000000298024,2|0
312,280,9918,2,0,B|256:296|198:281,1,110.000000298024,8|8
216,64,10431,6,0,B|208:135|160:152,1,110.000000298024,4|0
160,152,10944,1,8
160,232,11200,1,0
160,232,11457,2,0,B|209:252|216:320,1,110.000000298024,2|0
216,320,11969,1,8
296,320,12226,5,0
296,320,12482,2,0,B|303:254|352:232,1,110.000000298024,2|0
352,232,12995,1,8
352,152,13251,1,0
352,152,13508,2,0,B|303:132|296:64,1,110.000000298024,2|4
256,192,14021,1,12
256,192,14277,1,0
200,288,14533,6,0,B|256:272|312:288,1,110.000000298024,2|0
308,96,15046,2,0,B|256:112|200:96,1,110.000000298024,8|0
360,136,15559,2,0,B|376:192|360:248,1,110.000000298024,2|0
152,248,16072,2,0,B|136:192|152:136,1,110.000000298024,8|0
256,192,16585,12,0,18123
56,80,18380,5,0
168,80,18636,2,0,B|224:64|224:96|280:80,1,110.000000298024,4|0
304,112,19021,1,0
328,144,19149,1,8
216,160,19405,1,0
109,197,19662,2,0,B|56:216,2,55.0000001490118,2|0|0
195,269,20175,1,8
280,200,20431,5,0
344,312,20687,2,0,B|288:328|288:296|232:312,1,110.000000298024,2|0
208,272,21072,1,0
184,240,21200,1,8
280,200,21457,1,0
387,163,21714,2,0,B|439:143,2,55.0000001490118,2|0|0
301,91,22227,1,8
280,200,22482,5,0
200,128,22739,2,0,B|112:56,1,110.000000298024,2|0
48,144,23251,2,0,B|32:200|48:256,1,110.000000298024,8|0
152,216,23764,1,2
128,328,24021,1,0
240,328,24277,2,0,B|360:328,1,110.000000298024,8|0
312,224,24790,2,0,B|263:187|256:127,1,110.000000298024,2|0
368,112,25303,5,8
464,160,25559,1,0
464,160,25816,2,0,B|464:272,1,110.000000298024,2|0
441,303,26200,1,0
417,335,26328,1,8
304,312,26585,6,0,B|256:272,2,55.0000001490118,0|0|4
208,240,27098,1,0
176,216,27226,1,0
144,192,27354,1,8
64,112,27610,2,0,B|104:64,2,55.0000001490118,0|0|2
160,56,28123,2,0,B|216:40|272:56,1,110.000000298024,0|8
330,146,28636,6,0,B|277:161,2,55.0000001490118,0|0|2
224,176,29149,1,0
184,184,29277,1,0
144,192,29405,1,8
65,269,29662,2,0,B|105:317,2,55.0000001490118,0|0|2
160,328,30175,2,0,B|216:344|272:328,1,110.000000298024,0|8
376,312,30687,5,2
456,232,30944,2,0,B|400:216|352:168,1,110.000000298024,0|0
336,96,31457,2,0,B|264:193,1,110.000000298024,8|0
378,163,31969,1,0
342,267,32226,1,0
352,304,32354,1,0
331,338,32482,1,8
226,304,32739,1,0
256,192,32995,12,4,35046
96,80,35303,5,0
155,136,35559,2,0,B|163:176|139:216,1,82.4999977648261,8|0
82,275,36072,1,0
156,310,36328,1,0
214,251,36585,1,8
277,304,36841,1,0
349,264,37098,6,0,B|381:232|397:184,1,82.4999977648261,2|0
414,115,37610,1,8
355,57,37867,1,0
275,78,38123,2,0,B|235:86|195:126,1,82.4999977648261,2|0
168,192,38636,1,8
168,192,38892,1,0
208,264,39149,6,0,B|288:224|336:144,1,164.999995529652,2|8
405,75,39918,1,0
417,184,40174,2,0,B|305:120,1,110.000000298024,4|0
295,236,40687,1,8
221,154,40944,6,0,B|171:252,1,110.000000298024,0|2
64,280,41457,1,0
164,325,41713,2,0,B|220:341|276:325,1,110.000000298024,8|0
348,246,42226,1,4
248,200,42482,1,0
331,128,42739,1,8
224,104,42995,6,0,B|168:88|112:104,1,110.000000298024,0|4
159,173,43508,1,0
159,173,43764,1,8
95,226,44021,2,0,B|119:258|167:282,1,82.4999977648261,0|2
216,336,44533,1,0
297,352,44790,2,0,B|313:320|337:272,1,82.4999977648261,8|0
280,216,45303,5,4
240,144,45559,1,0
240,144,45816,2,0,B|280:128|328:144,1,82.4999977648261,8|0
413,246,46328,2,0,B|427:286|410:327,1,82.4999977648261,2|0
261,339,46841,1,8
141,237,47098,1,0
137,72,47354,5,2
299,43,47610,1,0
239,197,47867,1,12
239,197,48380,1,2
393,251,48636,1,0
264,356,48893,1,12
184,336,49149,5,0
74,333,49405,1,4
56,224,49662,2,0,B|31:167|55:112,1,110.000000298024,0|12
137,186,50174,1,0
167,80,50431,1,4
232,168,50687,2,4,B|288:200|352:168,1,110.000000298024,0|12
394,79,51200,1,0
256,192,51457,12,4,52995
256,96,53508,5,4
352,160,53764,1,0
317,270,54021,1,2
201,270,54277,1,0
163,160,54533,1,4
448,40,55046,2,0,B|352:136,1,110.000000298024,0|0
392,232,55559,5,2
288,208,55816,1,0
312,312,56072,2,0,B|256:328|200:312,1,110.000000298024,8|0
256,192,56585,1,2
304,64,56841,1,0
304,64,56969,1,0
304,64,57098,2,0,B|248:80|192:64,1,110.000000298024,8|0
128,152,57610,6,0,B|144:208|128:264,1,110.000000298024,2|0
232,304,58123,1,8
336,344,58380,1,0
356,236,58636,2,0,B|268:164,1,110.000000298024,2|0
236,140,59021,1,0
204,116,59149,1,8
112,56,59405,5,0
57,155,59662,2,0,B|41:214|56:264,1,110.000000298024,2|0
56,264,60174,1,8
139,336,60431,1,0
208,251,60687,2,0,B|296:179,1,110.000000298024,2|0
328,155,61072,1,0
360,131,61200,1,8
376,240,61457,1,0
400,320,61713,6,2,B|224:296|56:320,1,329.999991059304,2|2
144,235,62995,1,0
64,160,63251,6,0,B|112:128|144:80,1,110.000000298024,8|0
192,181,63764,1,4
225,286,64021,2,0,B|273:262|313:198,1,110.000000298024,0|8
240,122,64533,1,0
320,47,64790,1,2
408,112,65046,1,0
408,152,65174,1,0
408,192,65303,2,0,B|392:248|352:304,1,110.000000298024,8|0
254,263,65816,5,2
168,331,66072,1,0
88,256,66328,2,0,B|56:208|48:136,1,110.000000298024,8|0
152,96,66841,1,2
192,112,66969,1,0
232,120,67098,1,0
272,112,67226,1,0
312,96,67354,1,8
416,78,67610,5,0
464,178,67867,2,0,B|464:242|464:288,1,110.000000298024,4|0
464,288,68380,1,8
379,358,68636,1,0
304,304,68892,1,2
264,288,69020,1,0
224,280,69149,1,0
184,288,69277,1,0
144,304,69405,1,8
85,141,69662,5,0
216,40,69918,2,0,B|184:112,1,55.0000001490118,2|0
216,128,70174,2,0,B|184:200,1,55.0000001490118,0|0
216,216,70431,2,8,B|184:288,1,55.0000001490118,8|0
216,304,70687,2,0,B|248:376,1,55.0000001490118,0|0
272,360,70944,2,0,B|373:306|439:220,1,220.000000596047,2|8
320,32,71713,5,0
408,96,71969,2,0,B|384:152|344:192,1,110.000000298024,4|0
248,139,72482,1,8
125,322,72739,5,0
84,220,72995,2,0,B|108:172|148:132,1,110.000000298024,6|0
197,230,73508,1,8
264,316,73764,5,0
373,311,74021,2,0,B|400:256|440:224,1,110.000000298024,2|0
440,224,74533,1,8
400,120,74790,1,0
310,56,75046,2,0,B|256:72|200:56,1,110.000000298024,4|4
200,56,75559,1,8
128,144,75816,5,0
240,192,76072,1,4
128,240,76328,1,0
240,288,76585,1,8
336,336,76841,1,0
416,256,77098,2,0,B|384:208|336:168,1,110.000000298024,6|0
272,88,77610,2,0,B|216:104|160:88,1,110.000000298024,8|0
64,144,78123,6,0,B|144:223|144:224,1,110.000000298024,2|0
176,248,78508,1,0
208,272,78636,1,8
312,320,78892,1,0
400,256,79149,1,2
400,144,79405,1,4
400,144,79662,2,0,B|360:104|288:80,1,110.000000298024,12|0
200,72,80174,5,4
240,176,80431,1,0
136,176,80687,1,8
96,72,80944,1,0
40,168,81200,2,0,B|56:224|40:280,1,110.000000298024,6|0
144,320,81713,2,0,B|200:304|256:256,1,110.000000298024,8|0
304,176,82226,5,2
224,96,82482,1,0
184,96,82610,1,0
144,96,82739,2,0,B|88:112|32:96,1,110.000000298024,8|0
48,208,83251,2,0,B|80:264|120:296,1,110.000000298024,2|0
224,296,83764,1,8
328,336,84021,1,0
416,272,84277,6,8,B|432:216|416:152,1,110.000000298024,6|4
332,90,84790,2,0,B|270:72|224:88,1,110.000000298024,8|0
224,88,85303,1,4
128,144,85559,1,0
160,248,85816,1,8
256,192,86328,12,4,87354
