osu file format v9

[General]
AudioFilename: TVOP (TVsize).mp3
AudioLeadIn: 2000
PreviewTime: 55046
Countdown: 0
SampleSet: Soft
StackLeniency: 0.6
Mode: 0
LetterboxInBreaks: 1

[Editor]
DistanceSpacing: 0.8
BeatDivisor: 4
GridSize: 8

[Metadata]
Title:Platinum Disco (TV size)
Artist:Iguchi Yuka
Creator:forevehappy
Version:Easy
Source:Nise monogatari
Tags:jih7491 senjogahara hitagi hachikuji mayoi kanbaru suruga sengoku nadeko hanekawa tsubasa oshino shinobu araragi karen araragi tsukihi saito chiwa kato emiri sawashiro miyuki hanazawa kana horie yui sakamoto maaya kitamura eri vofan aniplex shaft op3 opening meg rock

[Difficulty]
HPDrainRate:2
CircleSize:3
OverallDifficulty:2
ApproachRate:3
SliderMultiplier:1.50000000596046
SliderTickRate:1

[Events]
//Background and Video events
0,0,"BG1.jpg"
Video,0,"Platinum Disco (TV Size).avi"
//Break Periods
//Storyboard Layer 0 (Background)
//Storyboard Layer 1 (Fail)
//Storyboard Layer 2 (Pass)
//Storyboard Layer 3 (Foreground)
//Storyboard Sound Samples
//Background Colour Transformations
3,100,163,162,255

[TimingPoints]
175,512.820512820513,4,2,0,70,1,0
48892,-100,4,2,0,60,0,0
53508,-100,4,2,0,80,0,0
55559,-100,4,2,0,90,0,1
87354,-100,4,2,0,90,0,0

[Colours]
Combo1 : 255,128,255
Combo2 : 255,128,128
Combo3 : 255,255,128
Combo4 : 255,128,64

[HitObjects]
200,120,175,2,0,B|272:88|352:120,1,150.000000596046,2|8
344,240,1200,2,0,B|272:272|192:240,1,150.000000596046,2|8
104,160,2226,5,4
80,280,2739,1,8
192,320,3251,2,0,B|264:344|344:320,1,150.000000596046,2|8
440,256,4277,6,0,B|464:184|440:104,1,150.000000596046,0|8
336,56,5303,1,2
248,144,5816,1,4
152,72,6328,6,0,B|128:168|180:212,1,150.000000596046,2|8
296,176,7354,2,0,B|348:220|324:316,1,150.000000596046,2|8
208,328,8380,6,0,B|163:275|67:299,1,150.000000596046,2|8
40,184,9405,1,0
104,80,9918,1,8
128,200,10431,6,0,B|200:168|275:196,1,150.000000596046,4|8
370,267,11457,2,0,B|298:299|223:271,1,150.000000596046,2|8
128,200,12482,6,0,B|101:275|128:352,1,150.000000596046,0|8
224,272,13508,2,0,B|251:197|224:120,1,150.000000596046,0|8
312,48,14533,5,2
393,129,15046,1,8
281,169,15559,1,2
201,89,16072,1,8
201,89,16585,6,0,B|201:193|-87:97|-87:329|201:209|201:313,1,450.000001788138,2|8
321,310,18636,6,0,B|400:288|432:216,1,150.000000596046,4|8
316,188,19662,1,2
196,188,20175,1,8
191,310,20687,6,0,B|112:288|80:216,1,150.000000596046,4|8
88,96,21713,1,2
197,54,22226,1,8
312,88,22739,6,0,B|384:104|424:184,1,150.000000596046,0|8
432,304,23764,2,0,B|360:288|320:208,1,150.000000596046,2|8
200,224,24790,5,2
272,320,25303,1,8
320,208,25816,2,0,B|400:208,2,75.000000298023,2|0|0
328,88,26841,6,0,B|176:88|176:88,1,150.000000596046,2|8
96,176,27867,1,2
152,280,28380,1,8
264,320,28892,6,0,B|263:323|367:211,1,150.000000596046,0|8
264,152,29918,1,2
192,248,30431,1,8
128,352,30944,6,0,B|48:328|40:240,1,150.000000596046,0|8
32,120,31969,1,2
128,184,32482,1,8
190,286,32995,6,0,B|266:322|328:256,1,150.000000596046,4|0
235,184,34021,2,0,B|174:121|210:45,1,150.000000596046,2|2
328,64,35046,6,0,B|402:93|424:176,1,150.000000596046,6|8
304,176,36072,2,0,B|288:216|240:208,2,75.000000298023,0|2|8
200,112,37098,6,8,B|136:160|131:241,1,150.000000596046,2|8
256,240,38123,2,0,B|272:200|320:208,2,75.000000298023,0|2|8
200,352,39149,5,2
200,352,39662,1,8
80,328,40174,2,0,B|34:263|46:185,1,150.000000596046,0|8
160,224,41200,5,2
104,120,41713,1,8
200,48,42226,1,4
256,152,42739,1,8
376,144,43251,6,0,B|467:178|447:259,1,150.000000596046,6|8
336,304,44277,1,2
216,288,44790,1,8
184,176,45303,6,0,B|105:152|121:56,1,150.000000596046,2|8
240,80,46328,1,2
360,88,46841,1,8
454,162,47354,6,0,B|464:200|440:232,2,75.000000298023,2|2|4
344,210,48380,2,0,B|312:232|320:280,2,75.000000298023,2|2|4
256,128,49405,5,2
152,64,49918,1,2
96,168,50431,1,2
200,224,50944,1,2
256,192,51457,12,0,52995
184,128,53508,6,0,B|256:88|328:128,1,150.000000596046,4|8
328,256,54533,2,0,B|256:296|184:256,1,150.000000596046,2|8
88,192,55559,5,4
208,168,56072,1,8
328,152,56585,2,0,B|408:152|408:152,2,75.000000298023,2|2|8
224,88,57610,5,2
104,112,58123,1,8
144,224,58636,2,0,B|216:160|216:160,2,75.000000298023,2|2|8
264,232,59662,6,0,B|320:184,2,75.000000298023,2|2|8
168,296,60687,1,2
264,368,61200,1,8
332,269,61713,6,0,B|400:208|336:136,1,150.000000596046
235,75,62739,2,0,B|173:149|226:211,1,150.000000596046,2|2
112,248,63764,6,0,B|55:297,2,75.000000298023,4|2|8
216,304,64790,1,0
320,240,65303,6,0,B|376:289,2,75.000000298023,8|2|2
432,192,66328,1,8
392,80,66841,2,0,B|320:16|256:80,1,150.000000596046,2|8
144,128,67867,6,0,B|80:72,2,75.000000298023,2|2|8
258,77,68892,1,0
376,64,69405,1,8
393,181,69918,6,0,B|311:190|284:271,1,150.000000596046
185,340,70944,2,0,B|104:313|94:231,1,150.000000596046,2|2
104,112,71969,6,8,B|176:72|248:120,1,150.000000596046,4|8
328,200,72995,2,0,B|256:240|184:192,1,150.000000596046,2|8
88,256,74021,5,2
184,320,74533,1,8
224,208,75046,2,0,B|264:184|296:208,2,75.000000298023,0|2|4
312,288,76072,6,0,B|384:264|416:184,1,150.000000596046,2|8
392,72,77098,2,0,B|320:96|288:176,1,150.000000596046,2|8
224,72,78123,5,2
128,152,78636,1,8
224,224,79149,2,0,B|264:248|296:224,2,75.000000298023,0|2|4
104,240,80174,6,0,B|168:192|144:104,1,150.000000596046,2|8
256,72,81200,2,0,B|344:45|392:109,1,150.000000596046,2|8
336,216,82226,5,2
216,192,82739,1,8
112,248,83251,2,0,B|136:320,2,75.000000298023,2|2|8
216,304,84277,6,0,B|296:304,1,75.000000298023,2|0
352,304,84790,1,4
352,184,85303,2,0,B|272:184,1,75.000000298023,2|0
216,184,85816,1,4
104,152,86328,5,4
192,72,86841,1,4
312,56,87354,1,4
