osu file format v9

[General]
AudioFilename: Platinum Disco (TV Size).mp3
AudioLeadIn: 1500
PreviewTime: 55393
Countdown: 0
SampleSet: Normal
StackLeniency: 0.7
Mode: 0
LetterboxInBreaks: 0

[Editor]
DistanceSpacing: 1
BeatDivisor: 4
GridSize: 4

[Metadata]
Title:Platinum Disco (TV Size)
Artist:Iguchi Yuka
Creator:wcx19911123
Version:Insane
Source:Nisemonogatari
Tags:No_Gu KayeSara Senjogahara Hitagi Hachikuji Mayoi Kanbaru Suruga Sengoku Nadeko Hanekawa Tsubasa Oshino Shinobu Araragi Karen Araragi Tsukihi Saito Chiwa Kato Emiri Sawashiro Miyuki Hanazawa Kana Horie Yui Sakamoto Maaya Kitamura Eri VOFAN Aniplex SHAFT OP3 opening meg rock

[Difficulty]
HPDrainRate:7
CircleSize:4
OverallDifficulty:7
ApproachRate:8
SliderMultiplier:1.92
SliderTickRate:1

[Events]
//Background and Video events
Video,0,"Platinum Disco (TV Size).avi"
0,0,"BG.jpg"
//Break Periods
//Storyboard Layer 0 (Background)
//Storyboard Layer 1 (Fail)
//Storyboard Layer 2 (Pass)
//Storyboard Layer 3 (Foreground)
//Storyboard Sound Samples
//Background Colour Transformations
3,100,163,162,255

[TimingPoints]
650,512.820512820513,4,1,1,70,1,0
18085,-100,4,1,1,60,0,0
18855,-100,4,2,1,70,0,0
27316,-100,4,1,1,70,0,0
27573,-100,4,2,1,70,0,0
35521,-100,4,1,1,70,0,0
35778,-100,4,2,1,70,0,0
43726,-100,4,1,1,70,0,0
43983,-100,4,2,1,70,0,0
49880,-100,4,1,1,70,0,0
50137,-100,4,2,1,70,0,0
51932,-100,4,1,1,70,0,0
52060,-100,4,2,1,60,0,0
52957,-100,4,2,1,70,0,0
55265,-100,4,2,1,60,0,0
55521,-100,4,2,1,70,0,0
56034,-100,4,2,1,70,0,1
56291,-100,4,1,1,70,0,1
72316,-100,4,1,1,70,0,0
72444,-100,4,1,1,70,0,1
84752,-100,4,2,1,70,0,1
87701,-100,4,2,1,70,0,0
87829,-100,4,2,1,60,0,1
87957,-100,4,2,1,60,0,0

[Colours]
Combo1 : 112,255,104
Combo2 : 53,255,240
Combo3 : 255,140,247
Combo4 : 249,255,121

[HitObjects]
368,56,650,2,0,B|416:64|440:112,1,96,0|8
448,160,1034,1,0
412,192,1162,2,0,B|376:224|376:280,1,96,0|8
388,324,1547,1,0
348,352,1675,2,0,B|300:368|256:332,1,96,0|8
224,300,2060,1,0
204,256,2188,1,0
340,120,2444,1,0
156,68,2701,6,0,B|104:56|64:80,1,96,4|0
32,116,3085,1,0
28,164,3214,2,0,B|32:240|104:284,1,144,8|0
48,358,3726,2,0,B|56:310|100:282,1,96
196,260,4239,1,8
284,296,4496,1,0
320,328,4624,1,0
364,344,4752,6,0,B|412:360|464:344,1,96,2|0
440,300,5137,1,0
432,252,5265,2,0,B|428:204|460:164,1,96,8|0
384,40,5778,1,0
200,100,6034,1,2
344,228,6291,1,2
288,128,6547,1,0
248,100,6675,1,0
200,100,6803,6,0,B|148:100|112:140,1,96,2|0
144,176,7188,1,0
164,220,7316,2,0,B|176:268|148:316,1,96,8|0
20,348,7829,2,0,B|48:308|104:304,1,96
149,312,8214,1,0
196,324,8342,2,0,B|248:340|296:312,1,96,8|0
416,172,8855,5,2
388,284,9111,1,0
348,256,9239,1,0
320,216,9367,2,0,B|300:172|320:124,1,96,8|0
488,64,9880,2,0,B|464:112|412:120,1,96
368,128,10265,1,0
320,122,10393,1,8
148,36,10650,1,2
32,220,10906,6,0,B|76:240|128:216,1,96,4|0
164,244,11291,1,0
212,252,11419,2,0,B|280:276|348:228,1,144,8|0
404,302,11932,2,0,B|360:282|348:230,1,96
380,40,12444,1,8
456,100,12701,1,0
476,144,12829,1,0
480,192,12957,6,0,B|480:240|448:280,1,96,2|0
404,302,13342,1,0
356,296,13470,2,0,B|304:288|264:320,1,96,8|0
120,352,13983,1,0
4,200,14239,1,2
196,176,14496,1,2
216,304,14752,1,0
168,296,14880,1,0
124,276,15008,6,0,B|84:252|76:192,1,96,2|0
116,168,15393,1,0
144,128,15521,2,0,B|164:84|152:32,1,96,8|0
56,20,16034,1,0
100,108,16291,1,0
144,128,16419,1,0
192,136,16547,2,0,B|240:140|284:112,1,96,8|0
392,28,17060,6,0,B|444:36,1,48,2|0
436,84,17316,2,0,B|476:108,1,48
460,152,17573,2,0,B|492:192,1,48,8|0
460,228,17829,2,0,B|468:280,1,48
424,296,18085,5,0
396,336,18214,1,0
352,356,18342,1,0
304,360,18470,1,0
260,344,18598,1,8
100,300,18855,1,0
148,292,18983,1,0
192,272,19111,6,0,B|232:248|244:196,1,96,4|0
248,148,19496,1,0
236,104,19624,1,8
120,36,19880,1,0
64,160,20137,2,0,B|104:188|164:176,1,96
204,168,20521,1,0
248,148,20650,1,8
352,60,20906,1,0
472,120,21162,6,0,B|504:160|496:216,1,96,2|0
456,236,21547,1,0
428,276,21675,2,0,B|408:320|424:372,1,96,8|0
360,228,22188,2,0,B|344:176|296:156,1,96
252,168,22573,1,0
232,212,22701,2,0,B|208:256|156:264,1,96,8|0
20,192,23214,5,2
52,284,23470,1,0
80,324,23598,1,0
124,344,23726,2,0,B|168:360|224:348,1,96,8|0
308,308,24239,1,0
400,336,24496,1,0
480,280,24752,1,8
484,184,25008,1,0
400,136,25265,6,0,B|360:112|352:56,1,96,2|0
356,8,25650,1,0
352,56,25778,2,0,B|332:104|280:116,1,96,8|0
132,80,26291,1,0
48,160,26547,1,8
40,208,26675,1,0
56,252,26803,1,8
36,348,27060,1,0
84,352,27188,1,0
124,324,27316,6,0,B|160:288|212:296,1,96,4|0
256,316,27701,1,0
300,336,27829,2,0,B|348:356|392:336,1,96,8|0
432,308,28214,1,0
452,264,28342,1,0
348,244,28598,1,0
304,224,28726,1,0
284,180,28855,1,8
324,44,29111,1,0
364,72,29239,1,0
384,116,29367,6,0,B|400:164|380:212,1,96,2|0
348,244,29752,1,0
304,264,29880,1,8
176,348,30137,1,0
204,308,30265,1,0
212,260,30393,2,0,B|212:208|176:172,1,96
136,148,30778,1,0
88,144,30906,1,8
32,288,31162,1,0
176,348,31419,6,0,B|224:364|268:336,1,96,2|0
288,292,31803,1,0
324,260,31932,2,0,B|364:232|416:240,1,96,8|0
500,288,32444,1,0
472,136,32701,1,0
404,68,32957,1,8
312,40,33214,1,0
216,32,33470,6,0,B|168:44,1,48,2|0
168,92,33726,2,0,B|132:124,1,48
160,164,33983,1,8
168,212,34111,1,0
160,260,34239,1,0
132,300,34367,1,0
88,320,34496,2,0,B|36:332|0:296,2,96,0|0|8
236,284,35265,1,0
284,276,35393,1,0
332,284,35521,6,0,B|380:300|400:348,1,96,4|0
404,300,35906,1,0
424,256,36034,2,0,B|444:208|496:196,1,96,8|0
488,44,36547,2,0,B|472:96|424:116,1,96
312,132,37060,1,8
196,120,37316,1,0
108,44,37573,6,0,B|60:52|32:96,1,96,2|0
12,140,37957,1,0
16,188,38085,1,8
40,300,38342,1,0
144,352,38598,2,0,B|192:368|240:344,2,96,0|0|8
136,240,39367,1,0
256,152,39624,5,2
376,240,39880,1,0
376,240,40008,1,0
376,240,40137,1,8
256,280,40393,1,0
256,152,40650,2,0,B|256:56,2,96,2|2|8
392,248,41419,1,0
256,296,41675,5,2
120,248,41932,1,0
120,248,42060,1,0
120,248,42188,1,8
48,160,42444,1,0
88,52,42701,2,0,B|120:16|176:20,1,96,2|2
208,56,43085,1,0
252,72,43214,2,0,B|296:88|348:72,1,96,8|0
496,108,43726,5,4
436,32,43983,1,0
346,72,44239,1,8
356,168,44496,1,0
448,192,44752,2,0,B|504:276|472:376,1,192,0|8
384,300,45521,1,0
292,272,45778,6,0,B|244:260|200:288,1,96,2|0
168,324,46162,1,0
124,344,46291,2,0,B|80:364|32:344,1,96,8|0
76,196,46803,1,0
172,176,47060,1,0
256,220,47316,1,8
304,304,47573,1,0
376,192,47829,5,2
340,104,48085,1,8
256,56,48342,1,10
256,168,48598,1,0
136,192,48855,1,0
172,104,49111,1,8
256,56,49368,1,10
256,168,49624,1,0
296,272,49880,6,0,B|324:316|376:320,1,96,4|0
420,340,50265,1,0
464,320,50393,2,0,B|488:276|472:224,1,96,8|0
440,136,50906,1,0
360,68,51162,1,0
256,44,51419,1,8
152,68,51675,1,0
72,136,51932,6,0,B|36:172,3,48,4|0|0|0
60,212,52444,2,0,B|48:260,3,48,8|0|0|0
92,284,52957,2,0,B|100:336,3,48
148,336,53470,2,0,B|184:368,3,48,8|0|0|0
224,340,53983,5,10
320,202,54239,1,10
161,258,54496,1,10
322,306,54752,1,10
220,172,55008,1,10
128,120,55265,2,0,B|96:120,3,32,0|0|0|8
220,68,55778,1,0
312,120,56034,6,0,B|356:144|404:128,1,96,4|0
444,100,56419,1,0
488,120,56547,2,0,B|512:168|492:216,1,96,8|0
424,332,57060,2,0,B|424:276|460:244,1,96,0|0
493,212,57444,1,0
458,245,57573,2,0,B|408:256|368:224,1,96,8|0
256,120,58085,5,2
248,256,58342,1,0
228,300,58470,1,0
192,332,58598,2,0,B|144:356|96:336,1,96,8|0
20,176,59111,2,0,B|68:152|116:172,1,96,0|0
140,212,59496,1,0
184,232,59624,2,0,B|224:256|276:244,1,96,8|0
392,352,60137,6,0,B|436:336|456:284,1,96,2|0
464,236,60521,1,0
456,188,60650,1,8
416,40,60906,1,0
308,148,61162,2,0,B|248:192|172:168,1,144
139,253,61675,2,0,B|179:221|171:165,1,96,8|0
128,40,62188,6,0,B|84:24,3,48,2|0|0|0
56,64,62701,2,0,B|8:72,3,48,8|0|0|0
16,120,63214,1,0
0,164,63342,1,0
4,212,63470,1,0
24,256,63598,1,0
60,288,63726,2,0,B|104:308,2,48,8|0|0
104,184,64239,6,0,B|128:136|180:128,1,96,4|0
212,164,64624,1,0
260,176,64752,2,0,B|308:188|356:160,1,96,8|0
452,28,65265,2,0,B|424:72|440:120,1,96
456,164,65650,1,0
492,196,65778,1,8
440,340,66034,1,0
292,296,66291,6,0,B|248:276|236:224,1,96,2|0
248,176,66675,1,0
248,128,66803,2,0,B|244:80|200:48,1,96,8|0
24,128,67316,2,0,B|28:176|72:208,1,96
116,224,67701,1,0
164,224,67829,1,8
268,80,68085,1,0
456,36,68342,6,0,B|504:100|480:172,1,144,2|0
404,224,68855,2,0,B|432:176|480:172,1,96,8|0
488,268,69367,2,0,B|464:324|364:340|328:276,1,192,0|8
284,160,70137,1,0
200,80,70393,6,0,B|160:56,3,48,2|0|0|0
128,92,70906,2,0,B|80:92,3,48,8|0|0|0
72,140,71419,2,0,B|32:164,2,48
48,252,71932,1,8
112,324,72188,1,0
204,352,72444,6,0,B|284:364|344:324,1,144,4|0
372,288,72957,1,8
444,344,73214,2,0,B|396:336|372:288,1,96
340,196,73726,1,0
340,100,73983,1,8
500,52,74239,1,0
508,148,74496,6,0,B|480:200|432:208,1,96,2|0
388,208,74880,1,0
340,196,75008,2,0,B|288:184|244:208,1,96,8|0
164,336,75521,1,0
344,272,75778,1,2
200,148,76034,1,2
160,40,76291,1,0
112,48,76419,1,0
72,76,76547,6,0,B|36:112|36:164,1,96,2|0
84,348,77060,2,0,B|120:312|120:260,1,96,8|0
108,216,77444,1,0
128,172,77573,2,0,B|152:128|208:124,1,96
300,148,78085,1,8
360,224,78342,1,0
404,352,78598,6,0,B|400:300|436:264,1,96,2|0
468,228,78983,1,0
488,184,79111,2,0,B|508:136|488:88,1,96,8|0
344,32,79624,1,0
188,140,79880,1,2
360,224,80137,1,2
288,112,80393,1,0
256,80,80521,1,0
212,60,80650,6,0,B|164:44|116:60,1,96,4|0
72,76,81034,1,0
36,108,81162,1,8
188,140,81419,2,0,B|236:156|256:208,1,96
268,320,81932,1,0
304,352,82060,1,0
352,360,82188,1,8
440,324,82444,1,0
384,220,82701,6,0,B|364:172|388:120,1,96,2|0
512,96,83214,2,0,B|508:152|460:176,1,96,8|0
308,64,83726,1,0
292,160,83983,1,0
272,204,84111,1,0
240,240,84239,2,0,B|204:276|152:280,1,96,8|0
60,296,84752,5,2
152,368,85008,1,8
256,320,85265,1,10
348,248,85521,1,0
452,296,85778,1,0
360,368,86034,1,8
256,320,86291,1,10
164,248,86547,1,0
212,84,86803,6,0,B|256:52|300:84,1,96,2|0
300,196,87316,2,0,B|256:228|212:196,1,96,2|0
256,140,87829,1,2
