osu file format v9

[General]
AudioFilename: Iguchi Yuka - Platinum Disco.mp3
AudioLeadIn: 1000
PreviewTime: 55718
Countdown: 0
SampleSet: Soft
StackLeniency: 0.7
Mode: 0
LetterboxInBreaks: 1

[Editor]
DistanceSpacing: 1.1
BeatDivisor: 2
GridSize: 8

[Metadata]
Title:Platinum Disco (TV Size)
Artist:Iguchi Yuka
Creator:Mei_coN
Version:Normal
Source:Nisemonogatari
Tags:Araragi Tsukihi Kanon Nymph

[Difficulty]
HPDrainRate:4
CircleSize:4
OverallDifficulty:3
ApproachRate:4
SliderMultiplier:1.3
SliderTickRate:1

[Events]
//Background and Video events
0,0,"bg2.jpg"
Video,320,"Iguchi Yuka - Platinum Disco.avi"
//Break Periods
//Storyboard Layer 0 (Background)
//Storyboard Layer 1 (Fail)
//Storyboard Layer 2 (Pass)
//Storyboard Layer 3 (Foreground)
//Storyboard Sound Samples
//Background Colour Transformations
3,100,163,162,255

[TimingPoints]
847,512.820512820513,4,2,0,60,1,0
2898,-100,4,2,1,85,0,0
11103,-100,4,2,0,55,0,0
11231,-100,4,2,1,85,0,0
19308,-100,4,2,2,90,0,0
20334,-100,4,2,1,90,0,0
21359,-100,4,2,2,90,0,0
22385,-100,4,2,1,90,0,0
23411,-100,4,2,2,90,0,0
24436,-100,4,2,1,90,0,0
25462,-100,4,2,2,90,0,0
26488,-100,4,2,1,90,0,0
27513,-100,4,2,2,90,0,0
28539,-100,4,2,1,90,0,0
29564,-100,4,2,2,90,0,0
30590,-100,4,2,1,90,0,0
31616,-100,4,2,2,90,0,0
32641,-100,4,2,1,90,0,0
33667,-100,4,2,2,90,0,0
34693,-100,4,2,1,90,0,0
47770,-100,4,2,2,90,0,0
56231,-100,4,2,0,60,0,1
56359,-100,4,2,1,75,0,1
64436,-100,4,2,0,60,0,1
64564,-100,4,2,1,75,0,1
72641,-100,4,2,0,60,0,1
72770,-100,4,2,1,75,0,1
84949,-100,4,2,2,75,0,1
85462,-100,4,2,1,75,0,1
85975,-100,4,2,2,75,0,1
86488,-100,4,2,1,75,0,1
88026,-100,4,2,1,75,0,0

[Colours]
Combo1 : 128,128,255
Combo2 : 0,162,162
Combo3 : 226,235,61

[HitObjects]
256,192,847,12,4,2385
280,112,2898,6,0,B|216:72|152:112,1,130,0|8
216,168,3667,1,0
216,168,3923,2,0,B|176:232|224:312,1,130,2|8
288,288,4693,5,0
288,288,4949,2,0,B|304:320|288:376,2,65,0|0|8
352,248,5718,1,0
424,264,5975,2,0,B|440:200|416:120,1,130,2|8
304,48,7000,5,0
240,88,7257,1,0
176,48,7513,2,0,B|160:88|168:128,1,65,8|0
184,184,8026,6,0,B|138:192|106:164,2,65,2|0|8
216,248,8795,1,0
216,248,9052,2,0,B|208:328|152:368,1,130,0|8
296,248,10077,2,0,B|304:328|360:368,1,130,2|8
424,240,11103,5,4
440,168,11359,1,0
392,112,11616,2,0,B|344:56|272:56,1,130,8|2
208,72,12385,1,0
168,136,12641,1,8
216,192,12898,6,0,B|192:224|168:208|160:256,2,65
296,192,13667,2,0,B|320:224|344:208|352:256,2,65,8|0|2
256,256,14436,1,0
256,256,14693,1,8
128,192,15205,6,0,B|160:112|240:104,1,130,0|8
360,112,16231,2,0,B|344:184|264:200,1,130,2|8
256,192,17257,12,0,18795
328,184,19308,6,0,B|368:120|328:56,1,130,8|0
176,24,20334,2,0,B|136:88|176:152,1,130,2|0
208,288,21359,6,0,B|176:320|128:288,2,65,8|0|0
288,168,22385,2,0,B|320:136|368:168,2,65,2|0|0
384,280,23411,6,0,B|312:256|248:304,1,130,8|0
136,224,24436,2,0,B|208:248|272:200,1,130,2|0
352,96,25462,5,8
416,128,25718,1,0
400,200,25975,1,0
328,208,26231,1,0
296,144,26488,1,2
200,40,27000,1,0
72,104,27513,6,0,B|32:152|48:232,1,130,8|0
72,296,28282,1,0
144,288,28539,2,0,B|136:344|104:368,2,65,2|0|0
160,216,29308,5,0
160,216,29564,2,0,B|224:192|296:208,1,130,8|0
360,216,30334,1,0
328,280,30590,2,0,B|361:293|408:280,2,65,2|0|0
200,336,31616,6,0,B|152:296|144:216,1,130,8|0
152,152,32385,1,0
184,88,32641,2,0,B|136:72|96:96,2,65,2|0|0
256,112,33411,1,0
296,176,33667,6,0,B|336:200|384:184,2,65,8|0|0
352,312,34693,2,0,B|384:304|416:328,2,65,2|0|0
208,304,35718,6,0,B|168:336|120:328,1,65
144,256,36231,1,8
144,256,36488,1,0
72,256,36744,2,0,B|72:184|112:120,1,130,0|8
152,80,37513,1,0
224,64,37770,6,0,B|272:56|304:80,1,65,0|0
256,136,38282,2,0,B|296:152|336:136,1,65,8|0
376,96,38795,2,0,B|408:168|368:248,1,130,0|8
336,280,39564,5,0
288,336,39821,1,0
232,288,40077,1,2
120,192,40590,6,0,B|88:224|104:280,2,65,0|2|2
240,112,41616,5,0
296,160,41872,1,0
272,232,42129,1,2
416,224,42641,6,0,B|432:184|424:136,2,65,0|2|2
400,296,43411,1,0
264,344,43923,6,0,B|216:360|176:336,1,65
224,280,44436,1,8
152,280,44693,1,0
184,216,44949,2,0,B|152:152|176:80,1,130,0|8
224,40,45718,1,0
296,40,45975,6,0,B|336:48|352:96,1,65
392,136,46488,2,0,B|360:160|312:144,1,65,8|0
264,168,47000,1,0
248,240,47257,1,0
304,288,47513,1,8
352,232,47770,6,0,B|384:216|424:224,2,65,0|2|6
208,240,48795,5,0
136,224,49052,1,2
136,152,49308,1,6
256,80,49821,5,0
256,80,50077,2,0,B|328:80|384:160,1,130,4|0
400,280,51103,2,0,B|328:280|272:200,1,130,4|0
256,192,52129,12,0,53667
256,256,54180,5,4
192,208,54436,1,0
216,136,54693,1,4
296,136,54949,1,0
320,208,55205,1,4
216,336,55718,6,0,B|176:320|136:344,1,65
88,304,56231,2,0,B|56:240|88:176,1,130,4|8
136,128,57000,1,0
200,88,57257,2,0,B|184:56|136:48,2,65,0|0|8
232,152,58026,1,0
216,224,58282,6,0,B|200:264|224:312,1,65
264,344,58795,2,0,B|304:352|344:336,1,65,8|0
392,304,59308,1,0
424,240,59564,1,0
392,176,59821,1,8
272,80,60334,6,0,B|208:40|128:72,1,130,0|8
80,96,61103,1,0
72,168,61359,2,0,B|96:232|168:264,1,130,0|8
232,264,62129,1,0
280,208,62385,2,0,B|328:272|272:328,2,130,0|8|2
200,104,63923,5,8
256,56,64180,1,0
320,96,64436,2,0,B|352:136|336:184,1,65,4|0
320,224,64949,2,0,B|368:232|400:208,2,65,8|0|0
176,232,65975,5,8
176,160,66231,1,0
232,112,66488,2,0,B|168:64|112:120,2,130,0|8|2
344,200,68026,5,8
400,248,68282,1,0
336,280,68539,2,0,B|272:304|192:288,1,130,0|8
144,256,69308,1,0
88,208,69564,2,0,B|88:144|128:80,1,130,0|8
184,40,70334,1,0
256,56,70590,6,0,B|328:104,1,65
264,144,71103,2,0,B|304:224,1,65,8|0
296,272,71616,2,0,B|208:256,2,65,0|0|8
400,176,72641,6,0,B|384:112|320:64,1,130,4|4
256,64,73411,1,0
184,72,73667,2,0,B|128:112|112:184,1,130,0|4
112,248,74436,1,0
176,280,74693,6,0,B|216:296|256:280,1,65
312,304,75205,2,0,B|320:272|296:216,1,65,4|0
256,192,75718,5,0
216,128,75975,1,4
288,128,76231,1,4
400,208,76744,6,0,B|384:272|320:320,1,130,0|4
256,320,77513,1,0
184,312,77770,2,0,B|128:272|112:200,1,130,0|4
136,136,78539,1,0
200,96,78795,6,0,B|176:48|120:64,2,65,0|0|4
256,144,79564,1,0
312,96,79821,2,0,B|336:48|392:64,2,65,0|4|4
311,240,80846,6,0,B|288:272|224:272|196:236,1,130,0|4
256,184,81616,1,0
200,127,81872,2,0,B|224:96|288:96|315:131,1,130,0|4
352,200,82641,1,0
336,272,82898,6,0,B|312:312|256:312,1,65
232,256,83411,2,0,B|200:224|144:232,1,65,4|0
112,272,83923,2,0,B|88:208|128:136,1,130,0|4
176,96,84693,1,0
240,64,84949,6,0,B|280:48|328:80,2,65,2|2|4
344,168,85975,6,0,B|384:184|432:152,2,65,2|2|4
256,280,87000,5,4
144,192,87513,1,4
256,104,88026,1,4
