osu file format v9

[General]
AudioFilename: Iguchi Yuka - Platinum Disco.mp3
AudioLeadIn: 1000
PreviewTime: 55718
Countdown: 0
SampleSet: Soft
StackLeniency: 0.7
Mode: 0
LetterboxInBreaks: 1

[Editor]
DistanceSpacing: 1
BeatDivisor: 4
GridSize: 8

[Metadata]
Title:Platinum Disco (TV Size)
Artist:Iguchi Yuka
Creator:Mei_coN
Version:Insane
Source:Nisemonogatari
Tags:Araragi Tsukihi Kanon Nymph

[Difficulty]
HPDrainRate:7
CircleSize:4
OverallDifficulty:7
ApproachRate:8
SliderMultiplier:1.7
SliderTickRate:1

[Events]
//Background and Video events
Video,320,"Iguchi Yuka - Platinum Disco.avi"
0,0,"bg2.jpg"
//Break Periods
//Storyboard Layer 0 (Background)
//Storyboard Layer 1 (Fail)
//Storyboard Layer 2 (Pass)
//Storyboard Layer 3 (Foreground)
//Storyboard Sound Samples
//Background Colour Transformations
3,100,163,162,255

[TimingPoints]
847,512.820512820513,4,2,0,60,1,0
2898,-100,4,2,1,85,0,0
11103,-100,4,2,0,55,0,0
11231,-100,4,2,1,85,0,0
19308,-100,4,2,2,80,0,0
19693,-100,4,2,1,80,0,0
20334,-100,4,2,2,80,0,0
20718,-100,4,2,1,80,0,0
21359,-100,4,2,2,80,0,0
21744,-100,4,2,1,80,0,0
22385,-100,4,2,2,80,0,0
22770,-100,4,2,1,80,0,0
23411,-100,4,2,2,80,0,0
27000,-100,4,2,1,80,0,0
27513,-100,4,2,2,80,0,0
27898,-100,4,2,1,80,0,0
28539,-100,4,2,2,80,0,0
28923,-100,4,2,1,80,0,0
29564,-100,4,2,2,80,0,0
29949,-100,4,2,1,80,0,0
30590,-100,4,2,2,80,0,0
30975,-100,4,2,1,80,0,0
31616,-100,4,2,2,80,0,0
35718,-100,4,2,0,55,0,0
35847,-100,4,2,1,85,0,0
43923,-100,4,2,0,55,0,0
44052,-100,4,2,1,85,0,0
48026,-100,4,2,2,85,0,0
56231,-100,4,2,0,60,0,1
56359,-100,4,2,1,75,0,1
64436,-100,4,2,0,60,0,1
64564,-100,4,2,1,75,0,1
71680,-100,4,2,1,70,0,1
71744,-100,4,2,1,65,0,1
71808,-100,4,2,1,60,0,1
71872,-100,4,2,1,55,0,1
71936,-100,4,2,1,50,0,1
72000,-100,4,2,1,45,0,1
72064,-100,4,2,1,40,0,1
72129,-100,4,2,1,100,0,1
72641,-100,4,2,0,60,0,1
72770,-100,4,2,1,75,0,1
84949,-100,4,2,2,75,0,1
85462,-100,4,2,1,75,0,1
85975,-100,4,2,2,75,0,1
86488,-100,4,2,1,75,0,1
88026,-100,4,2,1,75,0,0

[Colours]
Combo1 : 128,128,255
Combo2 : 0,162,162
Combo3 : 226,235,61

[HitObjects]
437,175,847,2,0,B|464:208|432:256,1,85,4|0
408,288,1231,1,0
375,312,1360,2,0,B|352:344|296:336,1,85,4|0
256,336,1744,1,0
216,336,1872,2,0,B|160:344|112:288,1,85,4|0
104,288,2257,1,0
80,256,2385,2,0,B|48:208|88:152,1,85,4|0
136,80,2898,6,0,B|192:80|240:128,1,85
240,24,3411,2,0,B|292:43|321:104,1,85,8|0
384,96,3923,1,2
384,96,4180,1,0
384,96,4308,1,0
384,96,4436,2,0,B|408:144|392:216,1,85,8|0
408,304,4949,6,0,B|357:327|293:304,1,85,0|0
256,360,5462,2,0,B|232:309|255:245,1,85,8|0
256,192,5975,1,2
256,192,6231,5,0
256,152,6359,1,0
256,104,6488,1,8
256,104,6744,1,0
176,88,7000,6,0,B|125:64|61:87,1,85,0|0
92,78,7513,1,8
92,78,7770,1,0
336,88,8026,6,0,B|386:64|450:87,1,85,2|0
419,78,8539,1,8
419,78,8796,1,0
368,176,9052,6,0,B|336:224|256:208,1,85,0|0
256,192,9436,1,0
216,184,9564,2,0,B|160:160|104:208,1,85,8|0
161,281,10077,1,2
192,312,10205,1,0
232,328,10334,1,0
272,336,10462,1,0
312,328,10590,2,0,B|353:323|380:277,1,85,8|0
368,40,11103,6,0,B|392:88|376:160,1,85,4|0
381,122,11488,1,0
381,122,11616,1,8
360,200,11872,1,0
304,256,12129,2,0,B|336:296|416:288,2,85,2|0|8
256,192,12898,1,0
144,40,13154,6,0,B|120:88|136:160,1,85,0|0
130,122,13539,1,0
130,122,13667,1,8
152,200,13923,1,0
208,256,14180,2,0,B|176:296|96:288,2,85,2|0|8
256,192,14949,1,0
232,110,15205,5,0
333,157,15462,1,0
279,273,15718,1,8
178,226,15975,1,0
132,134,16231,5,2
313,68,16488,1,0
379,249,16744,1,8
198,315,17000,1,0
256,240,17257,6,0,B|312:256,3,42.5
256,200,17770,2,0,B|200:184,3,42.5
256,164,18282,2,0,B|260:152|260:152|252:152|252:152|260:144|260:144|252:144|252:144|260:136|260:136|252:136|252:136|260:128|260:128|252:128|252:128|260:120|260:120|252:120|252:120|260:112|260:112|252:112|252:112|260:104|260:104|252:104|252:104|260:96|260:96|252:96|252:96|256:84,1,170
144,80,19052,5,0
120,112,19180,1,0
112,152,19308,2,0,B|96:200|128:256,1,85,8|0
144,272,19693,1,2
256,72,20077,5,0
256,72,20334,2,0,B|272:128|248:176,1,85,8|0
248,200,20718,2,0,B|232:248|256:288,1,85,2|0
264,320,21103,1,0
392,280,21359,5,8
392,280,21616,2,0,B|416:240,1,42.5,0|2
400,80,22000,2,0,B|384:120,1,42.5,0|0
328,184,22385,6,0,B|280:200|216:176,1,85,8|0
244,184,22770,1,2
244,184,22898,1,0
120,72,23154,5,0
120,72,23411,2,0,B|72:100|72:152,1,85,8|0
72,224,23923,2,0,B|72:280|112:304,1,85,0|0
400,304,24436,6,0,B|440:272|440:192,1,85,8|0
440,184,24821,1,0
440,144,24949,2,0,B|440:96|376:56,1,85,0|0
320,104,25462,5,8
256,264,25718,1,0
208,104,25975,1,0
344,208,26231,1,0
176,208,26488,2,0,B|136:224,4,42.5,8|0|0|0|2
352,304,27257,6,0,B|360:248,1,42.5
360,216,27513,2,0,B|368:168|352:128,1,85,8|0
336,96,27898,1,2
208,80,28282,6,0,B|160:32,2,42.5,0|0|8
256,144,28795,1,0
256,144,28923,1,2
304,304,29308,6,0,B|352:360,2,42.5,0|0|8
256,240,29821,1,0
256,240,29949,1,2
160,304,30334,5,0
136,272,30462,1,0
128,232,30590,2,0,B|120:184|152:144,1,85,8|0
168,112,30975,1,2
280,80,31359,5,0
280,80,31616,2,0,B|326:71|376:104,1,85,8|0
392,120,32000,1,0
416,160,32129,2,0,B|440:192|432:248,1,85
408,320,32641,1,8
320,320,32898,1,0
104,264,33154,1,0
192,264,33411,1,0
256,192,33667,6,0,B|256:128,3,42.5,8|0|0|0
256,192,34180,2,0,B|256:240,3,42.5,0|0|0|0
320,144,34693,1,8
192,144,34949,1,0
368,80,35205,1,0
144,80,35462,1,0
72,64,35718,6,0,B|56:112|64:160,1,85,4|0
72,320,36231,2,0,B|56:272|64:224,1,85,8|0
136,192,36744,1,0
136,192,37000,1,0
200,248,37257,1,8
200,248,37513,1,0
264,192,37770,5,0
400,296,38026,1,0
336,128,38282,1,8
296,296,38539,1,0
352,216,38795,2,0,B|392:200|440:208,2,85,0|0|8
256,288,39564,5,0
168,136,39821,1,0
344,136,40077,1,2
344,136,40205,1,0
344,136,40334,1,8
256,192,40590,5,0
256,192,40847,2,0,B|256:288,2,85,0|0|8
256,320,41616,5,0
136,104,41872,1,0
376,104,42129,1,2
376,104,42257,1,0
376,104,42385,1,8
256,192,42641,5,0
256,192,42898,2,0,B|296:176|344:192,1,85,2|2
256,192,43411,2,0,B|216:176|168:192,1,85,8|0
152,72,43923,6,0,B|104:48|56:56,1,85,4|0
69,54,44436,1,8
69,54,44693,1,0
88,136,44949,2,0,B|40:208|80:304,1,170,0|8
152,344,45718,1,0
160,256,45975,6,0,B|208:240|240:272,1,85
272,304,46359,1,0
312,304,46488,2,0,B|368:304|400:272,1,85,8|0
432,208,47000,2,0,B|472:240|472:304,2,85,0|0|8
392,104,47770,5,0
392,104,47898,1,0
392,104,48026,1,2
120,104,48282,1,6
256,320,48539,1,0
256,232,48795,5,0
256,232,48923,1,0
256,232,49052,1,2
360,128,49308,1,6
152,128,49564,1,0
256,72,49821,5,0
256,72,49949,1,0
256,72,50077,2,0,B|328:80|352:160,1,127.5,8|0
376,176,50590,2,0,B|384:248|352:304,1,127.5,0|0
320,328,51103,2,0,B|264:360|184:320,1,127.5,8|0
168,296,51616,2,0,B|135:247|152:176,1,85,0|0
168,136,52129,5,4
192,96,52257,1,0
232,80,52385,1,0
272,80,52513,1,0
312,104,52641,2,0,B|352:144,3,42.5,0|0|0|0
352,176,53154,5,4
352,216,53282,1,0
328,256,53411,1,0
296,280,53539,1,0
256,280,53667,2,0,B|272:336,3,42.5,0|0|0|0
176,280,54180,5,4
256,64,54436,1,0
336,280,54693,1,4
144,152,54949,1,0
368,152,55205,1,4
256,120,55718,6,0,B|296:112|344:128,1,85
416,96,56231,2,0,B|424:138|408:184,1,85,4|0
409,179,56616,1,0
409,179,56744,1,8
344,240,57000,1,0
344,240,57257,2,0,B|376:272|440:264,2,85,0|0|8
256,192,58026,5,0
256,192,58282,2,0,B|224:224|240:288,1,85
248,312,58667,1,0
216,344,58795,2,0,B|176:368|112:344,1,85,8|0
80,288,59308,1,0
40,160,59564,1,0
80,40,59821,1,8
40,160,60077,1,0
80,288,60334,1,0
168,144,60846,6,0,B|168:88|216:48,1,85,8|0
280,48,61359,1,0
280,48,61616,1,0
280,48,61744,1,0
280,48,61872,2,0,B|328:48|376:88,1,85,8|0
408,144,62385,6,0,B|480:112,3,42.5,2|0|2|0
408,184,62898,2,0,B|472:216,3,42.5,0|0|0|0
392,232,63411,5,2
376,264,63539,1,0
352,288,63667,1,0
320,296,63795,1,0
288,296,63923,2,0,B|240:304|208:272,1,85,0|0
248,208,64436,6,0,B|256:160|224:120,1,85,4|0
200,104,64821,1,0
160,88,64949,2,0,B|104:80|72:112,1,85,8|0
48,184,65462,1,0
160,336,65718,1,0
48,184,65975,1,8
160,336,66231,1,0
136,240,66488,6,0,B|176:208|224:208,1,85
256,208,66872,1,0
296,216,67000,2,0,B|344:216|384:160,1,85,8|0
432,128,67513,2,0,B|400:88|336:96,2,85,0|0|8
440,216,68282,5,0
392,288,68539,2,0,B|328:312|264:312,1,127.5
224,312,69052,1,8
224,312,69308,1,0
120,96,69564,6,0,B|184:72|248:72,1,127.5
288,72,70077,1,8
288,72,70333,1,0
392,88,70590,6,0,B|376:136,1,42.5,2|0
360,152,70846,2,0,B|288:168,1,42.5,2|0
272,160,71103,2,2,B|224:192,1,42.5
208,216,71359,2,0,B|160:224,1,42.5,2|0
136,192,71616,2,0,B|96:192,8,21.25,0|0|0|0|0|0|0|0|4
104,328,72385,5,0
104,328,72641,2,0,B|152:344|200:328,1,85,4|0
187,331,73026,1,0
187,331,73154,1,4
408,328,73411,5,0
408,328,73667,2,0,B|360:344|312:328,1,85
325,331,74052,1,0
324,331,74180,1,4
256,272,74436,5,0
304,208,74693,1,0
208,208,74949,1,0
352,144,75205,1,4
160,144,75462,1,0
256,72,75718,5,0
136,280,75975,1,4
376,280,76231,1,4
392,200,76488,5,0
392,200,76744,2,0,B|410:152|384:104,1,85
376,80,77129,1,0
344,56,77257,2,0,B|304:24|248:32,1,85,4|0
184,56,77770,5,0
144,48,77898,1,0
108,53,78026,1,0
72,80,78154,1,0
56,120,78282,2,0,B|40:160|48:208,1,85,4|0
128,184,78795,5,0
192,312,79052,1,0
336,312,79308,1,4
408,192,79564,1,0
256,112,79821,5,0
184,232,80077,1,4
328,232,80334,1,4
256,192,80590,5,0
256,192,80846,2,0,B|320:144|424:152,1,170,0|4
256,192,81616,5,0
256,192,81872,2,0,B|192:144|88:152,1,170,0|4
256,192,82641,1,0
256,96,82898,5,0
256,288,83154,1,0
323,124,83411,1,4
188,259,83667,1,0
352,192,83923,5,0
160,192,84180,1,0
323,259,84436,1,4
188,124,84693,1,0
192,216,84949,6,0,B|128:280,2,85,2|2|4
256,152,85718,1,0
320,216,85975,6,0,B|384:280,2,85,2|2|4
256,152,86744,1,0
160,144,87000,6,0,B|96:80,1,85,4|0
352,144,87513,2,0,B|416:80,1,85,4|0
256,264,88026,1,0
