osu file format v9

[General]
AudioFilename: Platinum Disco.mp3
AudioLeadIn: 0
PreviewTime: 61589
Countdown: 0
SampleSet: Soft
StackLeniency: 0.4
Mode: 0
LetterboxInBreaks: 0

[Editor]
DistanceSpacing: 0.8
BeatDivisor: 2
GridSize: 4

[Metadata]
Title:Platinum Disco
Artist:Iguchi Yuka
Creator:Andrea
Version:Normal
Source:Nisemonogatari
Tags:Opening Collab Collaboration Araragi Tsukihi osuplayer111 Saten Saten-san Vicho-kun

[Difficulty]
HPDrainRate:4
CircleSize:3
OverallDifficulty:4
ApproachRate:5
SliderMultiplier:1.4
SliderTickRate:1

[Events]
//Background and Video events
0,0,"BG.jpg"
//Break Periods
2,95250,108210
//Storyboard Layer 0 (Background)
//Storyboard Layer 1 (Fail)
//Storyboard Layer 2 (Pass)
//Storyboard Layer 3 (Foreground)
//Storyboard Sound Samples
//Background Colour Transformations
3,100,0,128,255

[TimingPoints]
6846,512.820512820513,4,2,1,80,1,0
58128,-100,4,2,1,50,0,0
59666,-100,4,2,1,80,0,0
62230,-100,4,2,1,80,0,1
94025,-100,4,2,1,80,0,0
109410,-100,4,2,1,50,0,0
111461,-100,4,2,1,80,0,0
144281,-100,4,2,1,50,0,0
145820,-100,4,2,1,80,0,0
148384,-100,4,2,1,80,0,1
180179,-100,4,2,1,80,0,0

[Colours]
Combo1 : 249,250,121
Combo2 : 53,250,240
Combo3 : 255,100,247

[HitObjects]
208,100,6846,1,4
256,72,7102,1,0
304,100,7358,1,4
364,192,7871,2,0,B|436:192,2,70,4|0|4
364,304,8897,5,4
256,340,9410,1,8
148,304,9922,1,0
148,192,10435,2,0,B|72:192,2,70,8|0|0
256,192,11461,1,8
256,80,11974,1,0
256,80,12230,1,2
256,80,12487,6,0,B|328:80|384:132,1,140,10|0
384,252,13512,2,0,B|328:304|256:304,1,140,8|0
144,304,14538,1,8
108,264,14794,1,0
68,228,15051,2,0,B|68:152|136:112,1,140,0|8
204,24,16076,1,0
256,48,16333,1,0
308,24,16589,1,8
376,112,17102,6,0,B|444:152|444:228,1,140,4|8
352,292,18128,1,0
256,352,18640,1,8
256,352,18897,1,0
256,352,19153,2,0,B|188:352|188:352|132:304,1,140,0|8
48,232,20179,2,0,B|-4:184,2,70,0|0|10
136,160,21204,5,0
200,68,21717,1,8
312,68,22230,1,0
376,160,22743,1,8
312,252,23256,5,0
200,252,23769,1,8
256,160,24281,2,0,B|256:88,2,70,0|0|8
256,272,25307,5,4
144,272,25820,2,8,B|144:132|144:132|212:8,1,280
256,112,27358,1,0
300,9,27871,2,8,B|368:132|368:132|368:272,1,280
312,368,29410,5,0
200,368,29922,1,8
256,268,30435,1,0
256,152,30948,2,0,B|256:12,2,140,8|0|8
144,152,32487,1,0
200,248,32999,1,8
312,248,33512,5,4
368,152,34025,2,8,B|256:68|256:68|144:152,1,280
256,192,35563,1,0
144,232,36076,2,8,B|256:316|256:316|368:232,1,280
460,168,37615,1,0
368,104,38128,6,8,B|324:28|256:12|184:28|144:104,1,280
144,216,39666,1,0
256,196,40179,1,8
368,216,40692,2,0,B|368:284|368:284|320:336,1,140,0|8
192,336,41717,6,0,B|144:284|144:284|144:216,1,140,4|8
104,108,42743,1,0
200,52,43256,1,8
312,52,43769,1,0
408,108,44281,6,0,B|408:176|348:232,1,140,8|0
256,292,45307,1,8
164,232,45820,2,0,B|104:176|104:108,2,140,0|8|2
256,164,47358,6,0,B|256:24,2,140,8|0|8
144,164,48897,1,2
200,260,49410,1,8
312,260,49922,5,4
368,164,50435,2,8,B|288:164|256:93|256:93|220:164|144:164,3,280
144,276,54025,5,0
172,324,54281,1,0
200,372,54538,1,6
312,372,55051,1,0
340,324,55307,1,0
368,272,55563,1,6
368,160,56076,6,4,B|368:88|312:36,1,140
200,36,57102,2,4,B|144:88|144:160,1,140
256,192,58128,12,8,59666
348,256,60179,5,2
256,192,60692,1,2
164,128,61204,1,2
256,64,61717,1,8
348,128,62230,5,4
256,192,62743,1,8
256,192,62999,1,0
256,192,63256,2,0,B|256:264|316:312,2,140,0|8|0
164,128,64794,2,0,B|96:128,2,70,8|0|0
256,64,65820,1,8
348,128,66333,6,0,B|416:128|416:128|472:172,1,140,0|8
472,284,67358,2,0,B|404:284|404:284|348:240,1,140,0|8
256,304,68384,2,0,B|256:372,2,70,0|0|8
164,240,69410,6,0,B|164:168|164:168|124:112,1,140,0|8
88,68,70179,1,0
56,112,70435,1,4
56,224,70948,1,8
72,336,71461,6,0,B|148:336|200:288,1,140,0|8
256,284,72230,1,0
312,288,72487,2,0,B|364:336|440:336,2,140,0|8|0
256,192,74025,6,0,B|256:120,2,70,8|0|0
176,120,75051,1,8
256,40,75563,1,0
336,120,76076,1,8
364,168,76333,1,0
392,216,76589,6,0,B|392:284|340:344,1,140,0|8
256,268,77615,2,0,B|200:312,1,70,0|0
156,344,78128,2,0,B|88:344,1,70,8|0
56,296,78640,6,0,B|56:224|56:224|88:164,1,140,4|8
200,148,79666,1,0
312,148,80179,1,8
424,164,80692,2,0,B|456:224|456:224|456:296,1,140,0|8
356,344,81717,1,0
304,320,81974,1,6
256,292,82230,6,0,B|184:292|128:240,1,140,6|0
128,128,83256,1,8
200,44,83769,1,0
312,44,84281,1,8
384,128,84794,1,0
384,240,85307,6,0,B|376:312|312:356,1,140,8|0
256,356,86076,1,6
200,356,86333,2,0,B|136:312|128:240,1,140,6|4
128,128,87358,1,8
200,44,87871,1,0
312,44,88384,1,8
384,128,88897,5,0
384,128,89153,1,0
384,128,89410,2,0,B|384:200|316:248,1,140,8|0
192,245,90435,2,0,B|128:200|128:128,1,140,8|0
128,128,91204,1,0
128,128,91461,1,6
204,48,91974,5,0
256,72,92230,1,0
308,48,92487,1,6
384,128,92999,2,0,B|384:196|344:196|344:264,1,140,6|6
256,332,94025,1,6
167,260,94538,2,0,B|166:196|128:196|128:128,1,140,8|4
256,192,109410,12,4,111461
368,112,111974,6,8,B|368:252|368:252|300:376,1,280
256,272,113512,1,0
212,375,114025,2,8,B|144:252|144:252|144:112,1,280
200,16,115564,5,0
312,16,116076,1,8
256,116,116589,1,0
256,232,117102,2,0,B|256:372,2,140,8|0|8
368,232,118641,1,0
312,136,119153,1,8
200,136,119666,5,4
144,232,120179,2,8,B|256:316|256:316|368:232,1,280
256,192,121717,1,0
368,152,122230,2,8,B|256:68|256:68|144:152,1,280
52,216,123769,1,0
144,280,124282,6,8,B|188:356|256:372|328:356|368:280,1,280
368,168,125820,1,0
256,188,126333,1,8
144,168,126846,2,0,B|144:100|144:100|192:48,1,140,0|8
320,48,127871,6,0,B|368:100|368:100|368:168,1,140,4|8
408,276,128897,1,0
312,332,129410,1,8
200,332,129923,1,0
104,276,130435,6,0,B|104:208|164:152,1,140,8|0
256,92,131461,1,8
348,152,131974,2,0,B|408:208|408:276,2,140,0|8|2
256,220,133512,6,0,B|256:360,2,140,8|0|8
368,220,135051,1,2
312,124,135564,1,8
200,124,136076,5,4
144,220,136589,2,8,B|224:220|256:291|256:291|292:220|368:220,3,280
368,108,140179,5,0
340,60,140435,1,0
312,12,140692,1,6
200,12,141205,1,0
172,60,141461,1,0
144,112,141717,1,6
144,224,142230,6,4,B|144:296|200:348,1,140
312,348,143256,2,4,B|368:296|368:224,1,140
256,192,144282,12,8,145820
164,128,146333,5,2
256,192,146846,1,2
348,256,147358,1,2
256,320,147871,1,8
164,256,148384,5,4
256,192,148897,1,8
256,192,149153,1,0
256,192,149410,2,0,B|256:120|196:72,2,140,0|8|0
348,256,150948,2,0,B|416:256,2,70,8|0|0
256,320,151974,1,8
164,256,152487,6,0,B|96:256|96:256|40:212,1,140,0|8
40,100,153512,2,0,B|108:100|108:100|164:144,1,140,0|8
256,80,154538,2,0,B|256:12,2,70,0|0|8
348,144,155564,6,0,B|348:216|348:216|388:272,1,140,0|8
424,316,156333,1,0
456,272,156589,1,4
456,160,157102,1,8
440,48,157615,6,0,B|364:48|312:96,1,140,0|8
256,100,158384,1,0
200,96,158641,2,0,B|148:48|72:48,2,140,0|8|0
256,192,160179,6,0,B|256:264,2,70,8|0|0
336,264,161205,1,8
256,344,161717,1,0
176,264,162230,1,8
148,216,162487,1,0
120,168,162743,6,0,B|120:100|172:40,1,140,0|8
256,116,163769,2,0,B|312:72,1,70,0|0
356,40,164282,2,0,B|424:40,1,70,8|0
456,88,164794,6,0,B|456:160|456:160|424:220,1,140,4|8
312,236,165820,1,0
200,236,166333,1,8
88,220,166846,2,0,B|56:160|56:160|56:88,1,140,0|8
156,40,167871,1,0
208,64,168128,1,6
256,92,168384,6,0,B|328:92|384:144,1,140,6|0
384,256,169410,1,8
312,340,169923,1,0
200,340,170435,1,8
128,256,170948,1,0
128,144,171461,6,0,B|136:72|200:28,1,140,8|0
256,28,172230,1,6
312,28,172487,2,0,B|376:72|384:144,1,140,6|4
384,256,173512,1,8
312,340,174025,1,0
200,340,174538,1,8
128,256,175051,5,0
128,256,175307,1,0
128,256,175564,2,0,B|128:184|196:136,1,140,8|0
320,139,176589,2,0,B|384:184|384:256,1,140,8|0
384,256,177358,1,0
384,256,177615,1,6
308,336,178128,5,0
256,312,178384,1,0
204,336,178641,1,6
128,256,179153,2,0,B|128:188|168:188|168:120,1,140,6|6
256,52,180179,1,6
345,124,180692,6,0,B|345:187|384:188|384:256,1,140,8|0
352,300,181461,1,0
312,340,181717,1,2
200,340,182230,1,0
160,300,182487,1,0
127,256,182743,6,0,B|128:188|166:188|166:124,1,140,2|2
256,52,183769,1,2
256,164,184281,1,2
