osu file format v9

[General]
AudioFilename: Mirai Shoot.mp3
AudioLeadIn: 1000
PreviewTime: 43405
Countdown: 0
SampleSet: Soft
StackLeniency: 0.7
Mode: 0
LetterboxInBreaks: 0

[Editor]
Bookmarks: 1229,6876,18170,43581,68993,80287,105699,131111,153699,164993,179111
DistanceSpacing: 1
BeatDivisor: 4
GridSize: 8

[Metadata]
Title:Mirai Shoot
Artist:Iguchi Yuka
Creator:wcx19911123
Version:Insane
Source:RO-KYU-BU!
Tags:Hanazawa Kana Hikasa Youko Ogura Yui Hidaka Rina Minato Tomoka Misawa Maho Nagatsuka Saki Hakamada Hinata Kasii Airi

[Difficulty]
HPDrainRate:8
CircleSize:4
OverallDifficulty:7
ApproachRate:9
SliderMultiplier:1.6
SliderTickRate:1

[Events]
//Background and Video events
0,0,"BG.jpg"
//Break Periods
2,69192,79687
2,131310,134570
//Storyboard Layer 0 (Background)
//Storyboard Layer 1 (Fail)
//Storyboard Layer 2 (Pass)
//Storyboard Layer 3 (Foreground)
//Storyboard Sound Samples
//Background Colour Transformations
3,100,163,162,255

[TimingPoints]
1229,352.941176470588,4,2,1,80,1,0
5287,-100,4,1,2,90,0,0
6876,-100,4,2,2,100,0,0
7052,-100,4,2,1,85,0,0
9699,-100,4,2,2,85,0,0
9876,-100,4,2,1,85,0,0
12523,-100,4,2,2,85,0,0
12699,-100,4,2,1,85,0,0
15346,-100,4,1,1,70,0,0
16228,-100,4,1,1,65,0,0
17111,-100,4,2,2,70,0,0
18170,-100,4,2,2,80,0,0
28934,-100,4,1,2,60,0,0
29464,-100,4,1,2,80,0,0
29993,-100,4,2,2,80,0,0
30170,-100,4,1,2,80,0,0
30699,-100,4,2,2,80,0,0
30876,-100,4,1,2,80,0,0
31405,-100,4,2,2,80,0,0
31581,-100,4,1,2,60,0,0
32287,-100,4,2,2,80,0,0
35111,-100,4,1,2,80,0,0
35640,-100,4,2,2,80,0,0
35817,-100,4,1,2,80,0,0
36346,-100,4,2,2,80,0,0
36523,-100,4,1,2,80,0,0
37052,-100,4,2,2,80,0,0
37228,-100,4,1,2,60,0,0
37934,-100,4,2,2,80,0,0
40758,-100,4,1,2,80,0,0
43228,-100,4,2,1,90,0,0
43581,-100,4,2,2,90,0,1
52052,-100,4,1,2,80,0,1
53287,-100,4,1,2,90,0,1
54170,-100,4,1,2,70,0,1
54876,-100,4,2,2,90,0,1
63346,-100,4,1,2,80,0,1
64581,-100,4,1,2,80,0,0
64934,-100,4,2,2,90,0,0
67405,-100,4,1,2,80,0,0
80287,-100,4,2,2,80,0,0
91052,-100,4,1,2,60,0,0
91581,-100,4,1,2,80,0,0
92111,-100,4,2,2,80,0,0
92287,-100,4,1,2,80,0,0
92817,-100,4,2,2,80,0,0
92993,-100,4,1,2,80,0,0
93523,-100,4,2,2,80,0,0
93699,-100,4,1,2,80,0,0
94405,-100,4,2,2,80,0,0
97228,-100,4,1,2,80,0,0
97758,-100,4,2,2,80,0,0
97934,-100,4,1,2,80,0,0
98464,-100,4,2,2,80,0,0
98640,-100,4,1,2,80,0,0
99170,-100,4,2,2,80,0,0
99346,-100,4,1,2,60,0,0
100052,-100,4,2,2,80,0,0
102876,-100,4,1,2,80,0,0
105346,-100,4,2,1,90,0,0
105699,-100,4,2,2,90,0,1
114170,-100,4,1,2,80,0,1
115405,-100,4,1,2,90,0,1
116287,-100,4,1,2,70,0,1
116993,-100,4,2,2,90,0,1
125464,-100,4,1,2,80,0,1
126699,-100,4,1,2,80,0,0
127052,-100,4,2,2,90,0,0
129523,-100,4,1,2,70,0,0
130758,-100,4,2,2,80,0,0
131111,-100,4,2,2,60,0,0
135170,-100,4,2,2,80,0,0
135523,-100,4,1,2,50,0,0
136405,-100,4,2,1,80,0,0
136758,-100,4,2,2,80,0,0
143993,-100,4,1,2,5,0,0
144170,-100,4,2,2,80,0,0
148052,-100,4,1,2,60,0,0
150876,-100,4,1,2,80,0,0
153346,-100,4,2,1,80,0,0
153699,-100,4,1,1,80,0,0
155993,-100,4,2,1,80,0,0
156346,-100,4,1,1,80,0,0
159170,-100,4,2,2,80,0,0
162170,-100,4,1,2,80,0,0
163758,-100,4,1,2,60,0,0
164993,-100,4,2,2,90,0,1
173464,-100,4,1,2,80,0,1
174699,-100,4,1,2,80,0,0
175052,-100,4,2,2,90,0,0
177523,-100,4,1,2,80,0,0
179111,-100,4,2,2,85,0,0
179287,-100,4,2,1,85,0,0
181934,-100,4,2,2,85,0,0
182111,-100,4,2,1,85,0,0
184758,-100,4,2,2,85,0,0
184934,-100,4,2,1,85,0,0
187581,-100,4,1,1,70,0,0
188464,-100,4,1,1,65,0,0
188993,-100,4,2,2,85,0,0
190052,-100,4,2,2,60,0,0
190405,-100,4,2,2,85,0,0
191640,-100,4,1,2,60,0,0

[Colours]
Combo1 : 0,160,247
Combo2 : 255,227,98
Combo3 : 106,11,170

[HitObjects]
256,192,1229,12,0,5287
136,48,5640,5,0
408,152,5993,1,0
472,224,6170,2,0,B|384:232|352:328,2,160,0|8|4
288,272,7052,5,0
248,344,7228,1,8
208,272,7405,1,0
168,344,7581,1,0
128,272,7758,1,0
88,344,7934,1,8
168,200,8111,6,0,B|136:112|48:112,1,160
16,136,8552,1,0
16,176,8640,2,0,B|32:216|80:224,1,80,8|0
200,96,8993,2,0,B|184:56|136:48,1,80
128,272,9346,2,0,B|168:296|208:272,1,80,8|0
264,144,9699,5,4
272,64,9876,1,0
344,32,10052,1,8
408,80,10228,1,0
400,160,10405,1,0
328,192,10581,1,0
336,112,10758,1,8
464,200,10934,6,0,B|480:288|424:352,1,160
384,360,11376,1,0
352,336,11464,2,0,B|328:296|352:256,1,80,8|0
392,176,11817,1,2
256,96,11993,1,2
120,176,12170,1,10
120,176,12523,5,4
56,128,12699,1,0
104,64,12876,1,8
168,112,13052,1,0
120,176,13228,1,0
184,224,13405,1,0
232,160,13581,1,8
112,256,13758,6,0,B|144:336|240:344,1,160
272,328,14199,1,0
272,288,14287,2,0,B|256:248|208:240,1,80,8|0
40,288,14640,2,0,B|56:328|104:336,1,80
168,112,14993,2,0,B|128:88|88:104,1,80,8|0
120,176,15346,5,0
208,272,15523,1,0
208,272,15699,1,8
256,136,15876,1,0
368,48,16052,1,0
480,136,16228,1,0
480,160,16317,1,0
480,184,16405,1,0
480,208,16493,1,0
480,232,16581,1,4
416,352,17111,5,0
400,352,17464,1,0
384,352,17817,1,8
368,352,18170,5,4
288,352,18346,1,0
216,320,18523,2,0,B|176:304|168:256,1,80,8|0
280,176,18876,2,0,B|320:192|328:240,1,80
248,248,19228,1,8
312,104,19405,6,0,B|392:136|408:224,1,160
200,184,19934,2,0,B|200:136|232:112,1,80,8|0
360,288,20287,2,0,B|328:320|288:312,1,80
168,256,20640,1,8
168,256,20817,1,0
56,112,20993,5,0
24,184,21170,1,0
104,176,21346,2,0,B|184:136|200:56,1,160,8|0
120,64,21876,1,0
168,128,22052,1,8
248,136,22228,6,0,B|328:136|384:64,1,160
308,36,22758,1,8
332,112,22934,1,0
404,148,23111,2,0,B|484:180,1,80,2|0
472,336,23464,2,0,B|392:304,1,80,10|0
264,160,23817,5,4
192,192,23993,1,0
176,272,24170,2,0,B|184:320|224:336,1,80,8|0
256,264,24523,1,0
320,216,24699,2,0,B|344:256|328:296,1,80,0|8
128,352,25052,6,0,B|80:280|112:200,1,160
144,40,25581,2,0,B|160:88|120:128,1,80,8|0
56,144,25934,1,0
68,64,26111,1,0
144,40,26287,1,8
208,88,26464,1,0
272,136,26640,6,0,B|344:184|432:152,1,160,0|8
472,88,27170,1,0
400,56,27346,2,0,B|360:40|320:48,2,80,0|0|8
472,224,27876,2,0,B|400:264|304:240,1,160
160,208,28405,2,0,B|200:288|296:312,1,160,8|0
386,317,28934,5,0
410,313,29023,1,0
431,302,29111,1,0
450,288,29199,1,0
466,271,29287,1,0
473,248,29376,1,0
473,224,29464,1,0
472,128,29640,1,0
200,32,29993,5,0
178,42,30081,1,0
156,52,30170,1,0
32,112,30346,1,0
312,352,30699,1,0
272,216,30876,1,0
168,320,31052,1,0
440,64,31405,5,0
368,128,31581,1,0
304,56,31758,1,0
288,76,31846,1,0
275,96,31934,1,0
270,119,32023,1,0
270,142,32111,1,0
277,164,32199,1,0
287,185,32287,6,0,B|309:220|356:224,1,80,4|0
436,168,32640,2,0,B|408:132|368:128,1,80,8|0
320,296,32993,2,0,B|360:316|408:288,1,80
488,112,33346,1,8
408,56,33523,6,0,B|328:24|248:56,1,160
48,160,34052,1,8
40,256,34228,1,0
104,328,34405,2,0,B|184:360|264:328,1,160,0|8
256,112,34934,5,0
236,100,35023,1,0
216,88,35111,1,0
128,40,35287,1,0
256,272,35640,1,0
276,284,35729,1,0
296,296,35817,1,0
384,344,35993,1,0
176,192,36346,5,0
164,212,36435,1,0
152,232,36523,1,0
104,320,36699,1,0
408,64,37052,1,0
408,64,37228,1,0
360,152,37405,1,0
348,172,37493,1,0
336,192,37582,1,0
324,212,37670,1,0
312,232,37758,1,0
300,252,37847,1,0
288,272,37934,6,0,B|256:312|208:304,1,80,4|0
128,272,38287,1,8
88,184,38464,2,0,B|72:96|144:40,1,160
216,16,38993,1,8
288,48,39170,1,0
304,128,39346,2,0,B|256:144|224:96,1,80
364,76,39699,2,0,B|400:104|396:192|320:208,2,160,8|0|8
256,344,40758,5,4
32,32,41287,1,0
32,160,41464,1,0
384,312,41993,1,0
128,312,42346,1,0
480,160,42699,1,0
480,32,42876,1,0
256,192,43228,6,0,B|224:264|288:272|256:352,1,160,4|4
328,232,43758,1,0
320,136,43934,2,0,B|296:100|248:104,1,80,8|0
176,164,44287,1,0
168,260,44464,1,0
164,284,44552,1,0
155,306,44640,1,8
64,344,44817,6,0,B|16:272|40:192,1,160
96,112,45346,2,0,B|132:88|129:45,2,80,8|0|0
48,48,45876,1,8
208,40,46052,1,8
256,192,46228,6,0,B|240:104|304:48,1,160,4|0
336,176,46758,2,0,B|344:224|304:256,1,80,8|0
216,264,47111,1,0
128,224,47287,1,0
121,247,47376,1,0
121,270,47464,1,8
172,352,47640,6,0,B|256:384|336:328,1,160
360,244,48170,1,8
300,168,48346,2,0,B|272:136|228:152,1,80
252,228,48699,1,8
376,328,48876,1,8
488,216,49052,6,0,B|504:120|440:64,1,160,4|0
408,56,49493,1,0
368,64,49581,2,0,B|328:80|328:136,1,80,8|0
448,280,49934,2,0,B|488:264|488:208,2,80,0|0|8
288,312,50464,6,0,B|224:264|232:168,1,160
248,136,50905,1,0
280,120,50993,2,0,B|328:104|352:144,1,80,8|0
368,312,51346,2,0,B|368:360|320:384,2,80,0|0|8
472,112,52052,5,4
368,184,52228,1,0
256,128,52405,1,0
360,56,52581,1,0
432,168,52758,1,0
376,300,52934,1,0
304,176,53111,1,0
408,104,53287,6,0,B|464:80|524:140|492:204,2,160
352,224,54170,1,0
280,288,54346,1,0
256,293,54434,1,0
232,292,54523,1,0
208,285,54611,1,0
187,272,54699,1,0
171,255,54787,1,0
162,232,54876,6,0,B|136:184|164:116|220:100,1,160,4|8
250,194,55405,1,0
336,240,55581,2,0,B|368:276|344:328,2,80,0|0|8
256,292,56111,6,0,B|216:248|240:164|304:152,1,160
336,240,56640,1,8
312,336,56817,2,0,B|280:376|232:360,1,80
148,340,57170,1,8
24,240,57346,1,8
40,80,57523,6,0,B|88:8|184:32,1,160,4|0
184,164,58052,2,0,B|152:196|104:184,1,80,8|0
128,108,58405,1,0
224,96,58581,1,0
244,108,58670,1,0
256,128,58758,1,8
248,224,58934,6,0,B|184:288|96:268,1,160
20,216,59464,1,8
96,156,59640,2,0,B|140:144|184:164,1,80
248,224,59993,1,8
352,344,60170,1,8
488,264,60346,6,0,B|512:168|464:104,1,160,4|0
440,80,60787,1,0
400,72,60876,2,0,B|356:68|328:104,1,80,8|0
384,280,61228,2,0,B|424:256|424:208,2,80,0|0|8
200,272,61758,6,0,B|136:208|168:112,1,160
184,88,62199,1,0
224,72,62287,2,0,B|272:64|296:104,1,80,8|0
272,288,62640,2,0,B|256:336|208:344,1,80
120,328,62993,1,8
40,120,63346,5,4
112,32,63523,1,0
200,104,63699,1,0
128,192,63876,1,0
48,52,64052,1,0
180,40,64228,1,0
192,172,64405,1,0
60,184,64581,1,0
312,256,64934,6,0,B|336:296,2,40,2|0|0
200,256,65287,2,0,B|176:296,2,40,2|0|0
256,160,65640,1,0
256,48,65817,1,0
456,188,66170,6,0,B|424:108|348:76,1,160,2|0
256,48,66699,1,0
163,75,66876,2,0,B|88:108|56:188,1,160,2|0
124,256,67405,1,0
388,256,67758,1,0
304,304,67934,1,0
208,304,68111,1,0
180,212,68287,2,0,B|256:168|332:212,2,160,0|8|4
220,112,80287,6,0,B|268:112|284:156,1,80,4|0
350,196,80640,2,0,B|326:237|279:229,1,80,8|0
210,263,80993,2,0,B|189:220|216:185,2,80,0|0|8
376,272,81523,6,0,B|432:252|448:180|404:140,1,160
350,196,82052,1,8
296,256,82228,1,0
324,332,82405,2,0,B|352:368|396:352,1,80
424,208,82758,2,0,B|392:176|348:196,1,80,8|0
296,256,83111,5,0
232,304,83287,1,0
160,340,83464,2,0,B|72:360|8:308,1,160,8|0
4,228,83993,1,0
76,264,84170,1,8
156,264,84346,6,0,B|240:264|296:184,1,160
368,168,84876,2,0,B|352:120|304:112,1,80,0|0
120,48,85228,1,2
128,128,85405,1,0
192,80,85581,2,0,B|256:24|344:48,1,160,8|4
416,80,86111,5,0
464,144,86287,2,0,B|428:176|384:152,1,80,8|0
320,116,86640,1,0
328,196,86817,1,0
400,232,86993,1,8
256,164,87170,6,0,B|168:144|96:192,1,160
40,240,87699,2,0,B|64:276|120:272,1,80,8|0
92,108,88052,2,0,B|48:110|24:161,1,80
176,216,88405,2,0,B|195:177|163:130,1,80,8|0
156,60,88758,5,0
224,16,88934,1,0
304,24,89111,2,0,B|352:40|352:88,1,80,8|0
336,160,89464,1,0
258,178,89640,1,0
275,99,89817,1,8
412,136,89993,6,0,B|436:184|384:252|328:240,1,160
252,260,90523,2,0,B|260:308|308:320,1,80,8|0
396,316,90876,1,0
480,272,91052,5,0
480,248,91140,1,0
480,224,91228,1,0
480,200,91317,1,0
480,176,91405,1,0
480,152,91493,1,0
480,128,91581,1,0
480,32,91758,1,0
256,208,92111,5,0
256,232,92199,1,0
256,256,92287,1,0
256,352,92464,1,0
32,176,92817,1,0
32,152,92905,1,0
32,128,92993,1,0
32,32,93170,1,0
304,56,93523,5,0
208,56,93699,1,0
256,136,93876,1,0
256,160,93964,1,0
256,184,94052,1,0
256,208,94140,1,0
256,232,94228,1,0
256,256,94317,1,0
256,280,94405,6,0,B|256:328|216:348,1,80,4|0
136,352,94758,1,8
96,280,94934,1,0
141,211,95111,2,0,B|176:232|176:280,2,80,0|0|8
56,352,95640,6,0,B|4:328|-4:244|48:212,1,160
88,152,96170,1,8
40,88,96346,1,0
104,40,96523,2,0,B|184:40,2,80,0|0|8
296,160,97052,5,0
296,136,97140,1,0
296,112,97228,1,0
296,16,97405,1,0
288,232,97758,1,0
312,232,97846,1,0
336,232,97934,1,0
432,232,98111,1,0
216,224,98464,5,0
216,296,98640,1,0
216,368,98817,1,0
80,152,99170,1,0
80,152,99346,1,0
176,152,99523,1,0
200,152,99611,1,0
224,152,99699,1,0
248,152,99787,1,0
272,152,99876,1,0
296,152,99964,1,0
320,152,100052,6,0,B|376:152|392:104,1,80,4|0
320,72,100405,1,8
392,36,100581,2,0,B|444:36|488:96|456:160,1,160
408,216,101111,1,8
328,232,101287,1,0
248,232,101464,6,0,B|248:288|296:304,1,80
168,232,101817,2,0,B|168:320|240:368,2,160,8|0|8
256,40,102876,5,4
480,352,103405,1,0
480,224,103582,1,0
128,72,104111,1,0
384,72,104464,1,0
32,224,104817,1,0
32,352,104994,1,0
256,192,105346,6,0,B|288:120|224:112|256:32,1,160,4|4
184,156,105876,1,0
200,248,106052,2,0,B|228:284|272:272,1,80,8|0
352,220,106405,1,0
432,272,106581,1,0
443,293,106670,1,0
443,316,106758,1,8
348,304,106934,6,0,B|376:220|312:152,1,160
232,108,107464,1,8
254,201,107640,2,0,B|298:193|318:151,1,80
308,60,107993,1,8
464,96,108170,1,8
480,256,108346,6,0,B|440:336|352:344,1,160,4|0
260,320,108876,1,8
248,224,109052,1,0
336,260,109228,1,0
260,320,109405,1,0
243,336,109493,1,0
220,344,109581,1,8
124,352,109758,6,0,B|48:320|32:224,1,160
36,132,110287,2,0,B|80:136|104:176,1,80,8|0
140,260,110640,1,0
272,352,110817,1,8
424,304,110993,1,8
472,152,111170,6,0,B|456:64|368:32,1,160,4|0
336,32,111611,1,0
312,64,111699,2,0,B|288:104|312:144,1,80,8|0
472,152,112052,2,0,B|456:112|408:112,1,80
328,240,112405,2,0,B|376:248|400:200,1,80,8|0
136,344,112934,5,0
176,360,113023,1,0
216,344,113111,2,0,B|256:320|248:272,1,80,8|0
112,208,113464,2,0,B|112:254|160:276,1,80
248,128,113817,2,0,B|247:174|201:191,1,80,8|0
40,152,114170,5,4
164,120,114346,1,0
248,24,114523,1,0
104,16,114699,1,0
104,144,114876,1,0
228,220,115052,1,0
216,80,115228,1,0
88,76,115405,6,0,B|32:84|12:168|64:200,2,160
168,128,116287,1,0
264,128,116464,1,0
304,40,116640,1,0
328,32,116728,1,0
352,28,116817,1,0
376,32,116905,1,0
400,36,116993,6,0,B|480:64|504:160,1,160,4|8
496,248,117523,2,0,B|448:248|424:200,1,80
396,120,117876,1,0
375,131,117964,1,0
358,147,118052,1,8
336,240,118228,6,0,B|368:320|464:344,1,160
412,200,118758,2,0,B|396:152|356:148,1,80,8|0
264,172,119111,1,0
200,320,119287,1,8
40,344,119464,1,8
88,192,119640,6,0,B|96:104|32:48,1,160,4|0
160,112,120170,2,0,B|160:64|208:40,1,80,8|0
256,124,120523,1,0
336,176,120699,1,0
356,188,120787,1,0
380,192,120876,1,8
416,104,121052,6,0,B|464:116|492:192|460:240,1,160
484,332,121581,2,0,B|444:348|404:316,1,80,8|0
280,224,121934,1,0
296,64,122111,1,8
452,32,122287,1,8
464,192,122464,6,0,B|408:256|312:236,1,160,4|0
280,224,122905,1,0
256,192,122993,2,0,B|240:152|256:112,1,80,8|0
416,120,123346,2,0,B|392:160|344:152,2,80,0|0|8
280,32,123876,6,0,B|192:24|128:96,1,160
120,124,124317,1,0
136,160,124405,2,0,B|176:184|224:168,1,80,8|0
304,136,124758,1,0
360,216,124934,1,0
288,280,125111,1,8
432,32,125464,5,4
480,136,125640,1,0
376,184,125817,1,0
328,80,125993,1,0
488,68,126170,1,0
444,192,126346,1,0
320,148,126523,1,0
364,24,126699,1,0
128,240,127052,6,0,B|96:272,2,40,2|0|0
128,144,127405,2,0,B|96:112,2,40,2|0|0
212,192,127758,1,0
308,192,127934,1,0
456,368,128287,6,0,B|360:360|320:272,1,160,2|0
308,192,128817,1,0
392,144,128993,1,2
392,240,129170,1,0
308,192,129346,1,0
326,98,129523,6,0,B|360:24|456:16,1,160
505,97,130052,1,0
512,192,130228,1,0
505,287,130405,1,0
308,192,130758,2,0,B|240:160|216:216|152:192,1,160,0|4
64,192,135170,6,0,B|80:28|256:-34|432:28|448:192,1,560,8|4
184,328,136758,6,0,B|120:256,1,80,4|0
256,144,137111,2,0,B|256:240,1,80,8|0
328,328,137464,2,0,B|392:256,1,80
448,192,137817,1,8
396,112,137993,6,0,B|344:48|256:48,1,160
256,144,138523,2,0,B|256:224,1,80,8|0
160,224,138876,1,0
172,320,139052,1,0
256,368,139228,1,8
340,320,139405,1,0
352,224,139581,6,0,B|304:240,2,40,4|0|0
256,144,139934,2,0,B|256:88,2,40,8|0|0
160,224,140287,2,0,B|208:240,2,40
64,192,140640,1,8
116,112,140816,6,0,B|168:48|256:48,1,160
352,64,141346,2,0,B|344:112|296:136,1,80,8|0
216,152,141699,2,0,B|224:200|272:216,1,80
440,72,142052,2,0,B|424:168|344:208,1,160,8|4
316,288,142581,5,0
220,296,142758,2,0,B|220:340|260:368,1,80,8|0
352,376,143111,1,0
416,304,143287,2,0,B|424:256|392:224,1,80,0|8
360,88,143640,6,0,B|304:200|168:224,1,240,0|8
133,214,144258,1,0
120,176,144346,2,0,B|128:96|208:48,1,160,0|0
297,16,144876,1,8
360,88,145052,6,0,B|384:120|376:168,1,80,0|4
256,352,145581,1,8
32,192,145934,1,0
256,32,146287,1,8
480,192,146640,6,0,B|480:256,2,53.3333333333333
436,160,146993,2,0,B|436:96,2,53.3333333333333,8|0|0
392,192,147346,2,0,B|392:256,2,53.3333333333333
348,160,147699,2,0,B|348:96,1,53.3333333333333,8|0
327,57,147934,1,0
276,40,148052,6,0,B|184:40,2,80,4|0|0
88,112,148581,2,0,B|168:112,2,80
256,192,149111,2,0,B|176:192,2,80,8|0|0
96,232,149640,5,0
132,296,149817,1,0
196,332,149993,1,0
268,344,150170,1,0
340,340,150346,1,0
408,312,150523,1,0
460,260,150699,1,0
480,192,150876,5,4
128,32,151405,1,0
32,116,151581,1,0
416,64,152111,1,0
416,320,152464,1,0
32,268,152817,1,0
128,352,152993,1,0
328,192,153346,2,0,B|400:160|416:216|488:192,1,160,4|4
120,152,155993,6,0,B|136:192|120:232,1,80,2|2
32,192,156346,1,0
304,44,157758,5,0
212,212,158111,1,0
300,172,158287,1,0
208,340,158640,1,0
480,192,159170,6,0,B|456:104|360:88,1,160,4|0
330,101,159611,1,0
324,140,159699,2,0,B|336:184|384:192,1,80,8|0
512,88,160052,2,0,B|496:48|448:40,2,80,0|0|8
480,272,160581,6,0,B|400:304|320:256,1,160
296,232,161023,1,0
264,208,161111,2,0,B|224:184|176:208,1,80,8|0
104,252,161464,1,0
148,336,161640,1,0
240,364,161817,1,8
304,112,162170,5,4
176,144,162346,1,0
208,272,162523,1,0
336,240,162699,1,0
256,88,162876,1,0
152,192,163052,1,0
256,296,163228,1,0
360,192,163404,1,0
232,160,163758,6,0,B|192:240|320:240|280:160,1,160
96,72,164287,1,2
416,72,164640,1,2
436,84,164728,1,0
452,100,164817,1,0
464,120,164905,1,0
472,144,164993,6,0,B|488:224|448:304,1,160,4|8
360,336,165523,1,0
304,256,165699,2,0,B|336:224|384:240,1,80
360,336,166052,1,8
248,192,166228,6,0,B|312:128|400:152,1,160
272,344,166758,2,0,B|224:328|216:280,1,80,8|0
248,192,167111,1,0
320,48,167287,1,8
472,104,167464,1,8
444,260,167640,6,0,B|396:332|304:344,1,160,4|0
272,344,168081,1,0
232,336,168170,2,0,B|192:320|176:272,1,80,8|0
176,184,168523,1,0
136,96,168699,1,0
124,76,168787,1,0
104,64,168876,1,8
52,144,169052,6,0,B|16:216|40:304,1,160
96,376,169581,1,8
136,288,169758,1,0
120,192,169934,1,0
208,56,170111,1,8
368,32,170287,1,8
488,140,170464,6,0,B|480:232|400:264,1,160,4|0
360,268,170905,1,0
321,257,170993,2,0,B|280:232|280:184,1,80,8|0
280,152,171258,1,0
296,116,171346,2,0,B|320:80|368:80,1,80
368,176,171699,1,8
344,352,171876,6,0,B|256:352|216:272,1,160
208,232,172317,1,0
200,192,172405,2,0,B|192:144|144:128,1,80,8|0
60,112,172758,1,0
24,200,172934,1,0
120,208,173111,1,8
368,144,173464,5,4
256,208,173640,1,0
144,144,173817,1,0
256,80,173993,1,0
320,192,174170,1,0
256,328,174346,1,0
192,192,174523,1,0
256,32,174699,1,0
344,272,175052,6,0,B|384:312,2,40,2|0|0
168,272,175405,2,0,B|128:312,2,40,2|0|0
256,168,175758,1,0
256,32,175934,1,0
492,256,176287,6,0,B|436:312|352:328,1,160,2|0
256,336,176817,1,0
160,328,176993,2,0,B|76:312|20:256,1,160,2|0
176,112,177523,2,0,B|256:72|336:112,1,160
304,260,178052,1,0
208,260,178228,1,0
256,176,178405,2,0,B|256:336,2,160,0|8|4
256,96,179287,5,0
292,24,179464,1,8
360,64,179640,1,0
324,136,179817,1,0
392,176,179993,1,0
428,104,180170,1,8
324,216,180346,6,0,B|328:304|416:344,1,160
450,341,180787,1,0
468,304,180876,2,0,B|456:256|420:240,1,80,8|0
248,208,181228,2,0,B|240:256|280:280,1,80
368,120,181581,2,0,B|304:64|216:88,1,160,8|4
144,120,182111,5,0
96,184,182287,1,8
128,256,182464,1,0
208,264,182640,1,0
256,200,182817,1,0
224,128,182993,1,8
64,112,183170,6,0,B|4:132|0:212|44:244,1,160
80,256,183611,1,0
120,248,183699,2,0,B|160:236|168:188,1,80,8|0
152,112,184052,1,2
288,32,184228,1,2
440,72,184405,1,10
440,72,184758,5,4
488,136,184934,1,0
408,144,185111,1,8
456,208,185287,1,0
376,216,185464,1,0
424,280,185640,1,0
344,288,185817,1,8
504,272,185993,6,0,B|512:336|448:376|396:356,1,160
362,343,186434,1,0
340,308,186523,2,0,B|328:264|352:232,1,80,8|0
488,144,186876,2,0,B|472:184|424:184,1,80
264,92,187228,2,0,B|344:60|424:108,1,160,8|0
344,168,187758,5,0
344,168,187934,1,0
256,240,188111,1,0
168,168,188287,1,0
256,48,188464,1,0
256,72,188552,1,0
256,96,188640,1,0
256,120,188728,1,0
256,144,188817,1,4
256,192,188993,12,8,190052
336,296,190405,6,0,B|256:328|176:296,1,160,2|0
256,192,190934,1,2
144,128,191111,2,0,B|200:64,1,80,2|0
368,128,191464,2,0,B|312:64,1,80,2|0
328,312,191993,5,0
256,352,192169,1,0
184,312,192346,1,0
256,272,192523,2,0,B|256:112,1,160
256,32,193052,1,4
