osu file format v14

[General]
AudioFilename: Hey World.mp3
AudioLeadIn: 0
PreviewTime: 47119
Countdown: 0
SampleSet: Normal
StackLeniency: 0.7
Mode: 0
LetterboxInBreaks: 0
WidescreenStoryboard: 0

[Editor]
DistanceSpacing: 1.2
BeatDivisor: 4
GridSize: 4
TimelineZoom: 2

[Metadata]
Title:Hey World (TV Size)
TitleUnicode:Hey World (TV Size)
Artist:Iguchi Yuka
ArtistUnicode:井口裕香
Creator:-TakoYaki-
Version:Normal
Source:ダンジョンに出会いを求めるのは間違っているだろうか?
Tags:opening anime is it wrong to try to pick up girls in a dungeon ni Deai wo Motomeru no wa Machigatteiru Darou ka Nardoxyribonucleic Lazer
BeatmapID:677908
BeatmapSetID:301497

[Difficulty]
HPDrainRate:4
CircleSize:3.5
OverallDifficulty:4
ApproachRate:5
SliderMultiplier:0.9
SliderTickRate:1

[Events]
//Background and Video events
0,0,"dungeon.jpg",0,0
Video,0,"dungeon2.avi"
//Break Periods
//Storyboard Layer 0 (Background)
//Storyboard Layer 1 (Fail)
//Storyboard Layer 2 (Pass)
//Storyboard Layer 3 (Foreground)
//Storyboard Sound Samples

[TimingPoints]
578,333.333333333333,4,2,0,100,1,0
578,-100,4,2,0,20,0,0
2577,-100,4,1,1,40,0,0
3077,-100,4,1,1,80,0,0
8577,-133.333333333333,4,1,1,80,0,0
9911,-100,4,1,1,80,0,0
47244,-100,4,1,1,80,0,1
52411,-100,4,1,1,80,0,0
57911,-100,4,1,1,80,0,1
67244,-100,4,1,1,80,0,0

[Colours]
Combo1 : 255,114,0
Combo2 : 214,3,46
Combo3 : 0,128,255
Combo4 : 0,255,0
Combo5 : 148,69,201

[HitObjects]
61,27,578,6,0,P|65:99|150:156,1,180
151,58,1577,1,0,0:0:0:0:
257,40,1911,2,0,P|310:33|365:48,2,90
151,58,2911,5,8,0:0:0:0:
247,157,3244,2,0,P|291:171|415:112,1,180
484,44,4244,1,8,0:0:0:0:
492,97,4411,2,0,P|460:177|376:233,1,180,0|2,0:0|0:0,0:0:0:0:
224,204,5577,1,8,0:0:0:0:
160,292,5911,2,0,P|204:320|256:328,1,90,0|8,0:0|0:0,0:0:0:0:
348,316,6577,5,0,0:0:0:0:
308,216,6911,1,8,0:0:0:0:
308,216,7244,2,8,P|292:152|240:107,1,135
140,72,8077,1,8,0:0:0:0:
252,24,8577,2,0,P|368:40|412:108,1,202.500007724762
35,66,9911,6,2,P|67:130|179:130,1,180,0|2,0:0|0:0,0:0:0:0:
266,96,10911,1,0,0:0:0:0:
266,96,11077,2,2,P|298:144|298:224,1,135,0|2,0:0|0:0,0:0:0:0:
312,272,11744,2,0,P|364:283|401:258,1,90
438,234,12244,1,0,0:0:0:0:
464,129,12577,6,0,P|432:81|288:65,1,180,0|2,0:0|0:0,0:0:0:0:
224,128,13577,1,0,0:0:0:0:
224,128,13744,2,0,P|203:167|204:211,1,90,0|2,0:0|0:0,0:0:0:0:
189,318,14411,2,0,P|144:315|106:291,2,90
230,282,15244,6,0,P|268:242|280:197,1,90,0|2,0:0|0:0,0:0:0:0:
236,175,15744,2,0,L|278:87,1,90
308,52,16244,1,0,0:0:0:0:
204,24,16577,2,0,P|124:56|60:40,1,135,0|2,0:0|0:0,0:0:0:0:
44,152,17411,2,0,B|103:145,1,45
151,212,17911,6,0,P|167:281|264:327,1,180,0|2,0:0|0:0,0:0:0:0:
260,220,18911,1,10,0:0:0:0:
260,220,19077,2,0,P|298:200|393:217,1,135
333,306,19911,1,10,0:0:0:0:
260,220,20244,5,8,0:0:0:0:
260,220,20577,2,0,P|260:172|164:92,1,180
60,96,21577,2,0,L|2:89,2,45,8|0|2,0:0|0:0|0:0,0:0:0:0:
80,204,22244,2,0,P|56:208|20:192,2,45,8|0|2,0:0|0:0|0:0,0:0:0:0:
152,284,22911,5,8,0:0:0:0:
240,344,23244,2,0,P|320:344|332:328,1,90,0|10,0:0|0:0,0:0:0:0:
324,236,23911,2,0,P|340:188|388:172,1,90,0|8,0:0|0:0,0:0:0:0:
468,120,24577,2,0,P|481:156|466:225,1,90,0|8,0:0|0:0,0:0:0:0:
460,312,25244,5,8,0:0:0:0:
460,312,25577,1,8,0:0:0:0:
460,312,25911,2,0,B|345:298|345:298|299:243,1,180
240,160,26911,1,8,0:0:0:0:
240,160,27244,2,0,P|244:112|212:70,2,90,0|8|0,0:0|0:0|0:0,0:0:0:0:
252,268,28244,1,8,0:0:0:0:
360,264,28577,6,0,P|376:216|344:168,1,90,0|8,0:0|0:0,0:0:0:0:
280,108,29244,1,0,0:0:0:0:
176,128,29577,2,0,P|205:187|233:201,1,90,8|8,0:0|0:0,0:0:0:0:
184,300,30244,2,0,L|140:310,1,45,0|8,0:0|0:0,0:0:0:0:
124,204,30744,1,0,0:0:0:0:
53,111,31244,6,0,P|137:97|219:139,1,180,0|8,0:0|0:0,0:0:0:0:
322,169,32244,2,0,P|370:169|413:129,2,90
223,212,33244,2,0,B|183:221|183:221|175:278,1,90,8|0,0:0|0:0,0:0:0:0:
275,316,33911,6,0,P|311:291|326:162,1,180,0|2,0:0|0:0,0:0:0:0:
223,212,34911,1,0,0:0:0:0:
223,212,35244,2,0,P|199:172|199:112,2,90,0|0|8,0:0|0:0|0:0,0:0:0:0:
134,274,36244,1,0,0:0:0:0:
223,212,36577,6,0,P|266:194|295:67,1,180,0|8,0:0|0:0,0:0:0:0:
194,104,37577,1,0,0:0:0:0:
194,104,37911,2,0,P|122:182|125:271,1,180,0|8,0:0|0:0,0:0:0:0:
205,317,38911,1,8,0:0:0:0:
288,248,39244,5,0,0:0:0:0:
293,140,39577,1,0,0:0:0:0:
155,84,40577,6,0,P|107:100|75:228,1,180,0|8,0:0|0:0,0:0:0:0:
138,296,41577,1,8,0:0:0:0:
138,296,41744,2,0,P|186:280|227:210,1,135,0|8,0:0|0:0,0:0:0:0:
188,108,42577,2,0,B|236:80|284:116,1,90,0|8,0:0|0:0,0:0:0:0:
348,188,43244,2,0,P|380:140|380:92,2,90,0|8|2,0:0|0:0|0:0,0:0:0:0:
260,252,44244,5,8,0:0:0:0:
212,276,44411,2,0,P|180:324|196:372,2,90,8|0|8,0:0|0:0|0:0,0:0:0:0:
260,252,45244,1,0,0:0:0:0:
262,144,45577,1,8,0:0:0:0:
252,92,45744,2,0,P|236:44|206:17,2,90,0|2|0,0:0|0:0|0:0,0:0:0:0:
280,196,46744,2,2,L|328:180,1,45
434,161,47244,6,0,P|402:113|258:97,1,180
184,114,48244,1,8,0:0:0:0:
184,114,48577,2,0,P|152:146|136:210,1,90,0|8,0:0|0:0,0:0:0:0:
136,240,49077,2,0,P|152:288|197:311,1,90
236,320,49577,1,8,0:0:0:0:
344,308,49911,6,0,P|412:286|430:180,1,180,0|2,0:0|0:0,0:0:0:0:
316,159,50911,2,0,P|268:175|220:159,2,90,8|0|8,0:0|0:0|0:0,0:0:0:0:
338,109,51744,2,0,L|337:13,1,90
239,65,52411,2,0,B|196:49|143:66,1,90
115,104,52911,6,0,P|118:151|136:192,2,90,8|0|8,0:0|0:0|0:0,0:0:0:0:
5,96,53911,2,0,P|39:33|139:5,1,180
240,41,54911,1,8,0:0:0:0:
280,140,55244,2,0,P|275:190|239:221,1,90
244,272,55744,2,0,P|285:311|368:312,1,135,0|8,0:0|0:0,0:0:0:0:
400,276,56411,6,0,P|437:201|426:144,1,135,8|8,0:0|0:0,0:0:0:0:
380,68,57244,2,0,P|352:70|275:52,1,90,8|8,0:0|0:0,0:0:0:0:
189,47,57911,6,4,P|141:47|82:157,1,180
132,244,58911,1,8,0:0:0:0:
199,327,59244,2,0,P|232:292|235:243,1,90,0|8,0:0|0:0,0:0:0:0:
233,197,59744,2,0,P|198:164|149:161,1,90
105,173,60244,1,8,0:0:0:0:
139,275,60577,6,0,P|209:277|301:215,1,180
356,126,61577,2,0,P|356:78|324:46,1,90,8|0,0:0|0:0,0:0:0:0:
225,16,62244,1,8,0:0:0:0:
135,75,62577,6,0,P|87:123|87:171,2,90,2|0|0,0:0|0:0|0:0,0:0:0:0:
192,168,63577,1,8,0:0:0:0:
272,92,63911,6,0,P|320:140|336:268,1,180
296,344,64911,1,8,0:0:0:0:
188,340,65244,2,0,P|140:340|92:276,1,90,0|8,0:0|0:0,0:0:0:0:
92,208,65911,6,0,P|111:153|156:132,1,90,0|8,0:0|0:0,0:0:0:0:
180,167,66411,2,0,P|224:163|301:103,1,135,0|8,0:0|0:0,0:0:0:0:
199,62,67244,5,0,0:0:0:0:
299,17,67577,1,0,0:0:0:0:
351,111,67911,1,0,0:0:0:0:
255,161,68244,1,0,0:0:0:0:
199,62,68577,6,0,B|128:144|208:208|171:232,1,180
252,285,69577,1,8,0:0:0:0:
353,246,69911,2,0,P|381:216|381:166,1,90,0|8,0:0|0:0,0:0:0:0:
334,142,70411,1,0,0:0:0:0:
327,88,70577,2,0,P|361:70|380:79,2,45,0|0|8,0:0|0:0|0:0,0:0:0:0:
163,137,71244,6,0,P|179:185|227:201,2,90
225,48,72244,1,8,0:0:0:0:
307,117,72577,2,0,P|355:101|371:37,2,90
248,208,73577,1,8,0:0:0:0:
209,106,73911,6,0,P|177:74|51:94,1,180
17,192,74911,1,8,0:0:0:0:
51,294,75244,1,0,0:0:0:0:
134,226,75577,2,0,L|230:264,1,90
277,169,76244,1,8,0:0:0:0:
292,62,76577,6,0,P|325:35|384:38,1,90,0|8,0:0|0:0,0:0:0:0:
452,103,77244,1,0,0:0:0:0:
402,198,77577,1,8,0:0:0:0:
354,295,77911,2,0,P|386:327|450:327,2,90,0|8|0,0:0|0:0|0:0,0:0:0:0:
279,216,78911,1,8,0:0:0:0:
275,110,79244,6,8,P|323:94|387:126,2,90
170,136,80244,1,8,0:0:0:0:
62,123,80577,2,0,P|62:59|30:11,2,90,8|8|8,0:0|0:0|0:0,0:0:0:0:
64,231,81577,6,8,P|96:263|176:247,1,90,0|8,0:0|0:0,0:0:0:0:
248,264,82244,1,0,0:0:0:0:
301,265,82411,2,0,P|349:265|381:233,2,90
195,141,83577,2,0,P|179:93|195:45,2,90,8|2|0,0:0|0:0|0:0,0:0:0:0:
258,228,84577,1,0,0:0:0:0:
256,192,84911,12,2,89078,0:0:0:0:
