osu file format v14

[General]
AudioFilename: Hey World.mp3
AudioLeadIn: 0
PreviewTime: 47119
Countdown: 0
SampleSet: Normal
StackLeniency: 0.7
Mode: 0
LetterboxInBreaks: 0
WidescreenStoryboard: 0

[Editor]
DistanceSpacing: 1.4
BeatDivisor: 4
GridSize: 8
TimelineZoom: 2

[Metadata]
Title:Hey World (TV Size)
TitleUnicode:Hey World (TV Size)
Artist:Iguchi Yuka
ArtistUnicode:井口裕香
Creator:-TakoYaki-
Version:Insane
Source:ダンジョンに出会いを求めるのは間違っているだろうか?
Tags:opening anime is it wrong to try to pick up girls in a dungeon ni Deai wo Motomeru no wa Machigatteiru Darou ka Nardoxyribonucleic Lazer
BeatmapID:676057
BeatmapSetID:301497

[Difficulty]
HPDrainRate:7
CircleSize:4
OverallDifficulty:8
ApproachRate:9
SliderMultiplier:1.6
SliderTickRate:1

[Events]
//Background and Video events
0,0,"dungeon.jpg",0,0
Video,0,"dungeon2.avi"
//Break Periods
//Storyboard Layer 0 (Background)
//Storyboard Layer 1 (Fail)
//Storyboard Layer 2 (Pass)
//Storyboard Layer 3 (Foreground)
//Storyboard Sound Samples

[TimingPoints]
578,333.333333333333,4,2,0,100,1,0
578,-100,4,2,0,20,0,0
2577,-100,4,1,1,40,0,0
3077,-100,4,1,1,80,0,0
7744,-100,4,1,1,80,0,0
9911,-117.647058823529,4,1,1,60,0,0
18577,-100,4,1,1,80,0,0
30077,-100,4,1,1,80,0,0
31244,-133.333333333333,4,1,1,80,0,0
40417,-100,4,1,1,80,0,0
46744,-66.6666666666667,4,1,1,80,0,0
47244,-100,4,1,1,80,0,1
52411,-100,4,1,1,80,0,0
57911,-100,4,1,1,80,0,1
67244,-100,4,1,1,80,0,0

[Colours]
Combo1 : 255,114,0
Combo2 : 214,3,46
Combo3 : 0,128,255
Combo4 : 0,255,0
Combo5 : 148,69,201

[HitObjects]
56,192,578,5,0,0:0:0:0:
56,192,911,2,0,P|99:227|146:220,1,80
185,299,1244,2,0,P|220:256|213:209,1,80
250,167,1577,6,0,P|288:174|315:203,2,80
167,109,2077,2,0,P|210:74|257:81,1,80
315,36,2411,1,0,0:0:0:0:
250,167,2577,6,0,L|294:182,1,40,8|8,0:0|0:0,0:0:0:0:
331,290,2744,2,0,L|286:276,1,40
232,110,2911,6,0,L|280:124,1,40,8|2,0:0|0:0,0:0:0:0:
284,326,3077,2,0,L|242:315,1,40,8|8,0:0|0:0,0:0:0:0:
339,115,3244,2,0,P|372:185|347:259,1,160,0|8,0:0|0:0,0:0:0:0:
347,260,3911,6,0,L|239:236,1,80
186,84,4244,1,8,0:0:0:0:
319,174,4411,1,0,0:0:0:0:
200,272,4577,2,0,P|168:296|104:288,2,80,0|0|8,0:0|0:0|0:0,0:0:0:0:
274,184,5077,2,0,P|344:164|405:221,1,160
228,332,5577,1,8,0:0:0:0:
95,306,5744,5,0,0:0:0:0:
59,282,5827,1,0,0:0:0:0:
51,238,5911,2,0,P|71:158|163:142,1,160,0|8,0:0|0:0,0:0:0:0:
324,227,6577,1,0,0:0:0:0:
161,137,6744,1,0,0:0:0:0:
228,332,6911,1,8,0:0:0:0:
300,141,7077,1,0,0:0:0:0:
228,54,7244,5,8,0:0:0:0:
364,285,7411,1,0,0:0:0:0:
110,286,7577,1,0,0:0:0:0:
215,155,7744,6,0,L|223:239,1,80,8|0,0:0|0:0,0:0:0:0:
384,128,8077,2,0,L|373:43,1,80,8|2,0:0|0:0,2:0:0:0:
256,192,8577,12,0,9577,0:0:0:0:
194,102,9911,6,2,P|154:102|122:134,1,68.0000012969971,0|2,0:1|0:0,0:0:0:0:
120,224,10244,2,6,P|160:224|192:192,1,68.0000012969971,4|2,0:1|0:0,0:0:0:0:
288,232,10577,2,2,L|320:312,1,68.0000012969971,6|2,0:0|0:0,0:0:0:0:
376,208,10911,2,2,L|344:136,1,68.0000012969971,6|2,0:0|0:0,0:0:0:0:
248,64,11244,5,0,0:0:0:0:
248,64,11411,1,2,0:0:0:0:
248,64,11577,2,2,P|196:100|184:128,1,68.0000012969971,4|0,0:0|0:0,0:0:0:0:
120,184,11911,1,4,0:0:0:0:
194,102,12077,1,0,0:0:0:0:
288,176,12244,1,6,0:0:0:0:
352,88,12411,1,0,0:0:0:0:
388,144,12577,6,0,P|412:184|416:216,2,68.0000012969971,0|2|6,0:0|0:0|0:0,0:0:0:0:
292,72,13077,1,2,0:0:0:0:
292,72,13244,2,2,L|216:104,1,68.0000012969971,6|2,0:0|0:0,0:0:0:0:
57,171,13577,2,2,P|81:207|121:239,1,68.0000012969971,4|2,0:0|0:0,0:0:0:0:
99,224,13911,5,0,0:0:0:0:
244,256,14077,1,2,0:0:0:0:
172,140,14244,1,6,0:0:0:0:
192,344,14411,1,0,0:0:0:0:
244,256,14577,5,2,0:0:0:0:
272,112,14744,1,6,0:0:0:0:
156,184,14911,1,2,0:0:0:0:
360,164,15077,1,0,0:0:0:0:
186,47,15244,6,2,P|121:66|78:140,1,136.000002593994,0|6,0:0|0:0,0:0:0:0:
144,284,15744,1,2,0:0:0:0:
156,184,15911,2,0,P|187:143|224:144,1,68.0000012969971,4|0,0:0|0:0,0:0:0:0:
308,286,16244,2,0,P|288:313|257:327,1,68.0000012969971,4|0,0:0|0:0,0:0:0:0:
144,284,16577,6,0,P|79:255|62:184,1,136.000002593994,0|4,0:0|0:0,0:0:0:0:
156,184,17077,2,0,L|232:184,2,68.0000012969971,0|2|0,0:0|0:0|0:0,0:0:0:0:
231,45,17577,1,2,0:0:0:0:
231,45,17744,5,2,0:0:0:0:
231,45,17911,2,2,B|278:85|334:77|334:77|321:98,1,136.000002593994,0|0,0:0|0:0,0:0:0:0:
161,247,18411,1,0,0:0:0:0:
331,274,18577,5,8,0:0:0:0:
391,188,18744,1,0,0:0:0:0:
382,149,18827,1,0,0:0:0:0:
357,116,18911,1,8,0:0:0:0:
169,26,19077,6,0,B|232:34|221:100|221:100|252:158,1,160
331,274,19577,1,8,0:0:0:0:
161,247,19744,1,0,0:0:0:0:
357,116,19911,1,8,0:0:0:0:
177,98,20077,1,0,0:0:0:0:
331,274,20244,5,8,0:0:0:0:
432,246,20411,1,8,0:0:0:0:
432,246,20494,1,8,0:0:0:0:
432,246,20577,2,0,P|428:202|342:109,1,160,0|8,0:0|0:0,0:0:0:0:
177,98,21077,2,0,P|194:56|237:27,2,80,2|0|0,0:0|0:0|0:0,0:0:0:0:
161,247,21577,1,8,0:0:0:0:
359,106,21744,1,0,0:0:0:0:
255,332,21911,1,0,0:0:0:0:
254,75,22077,1,2,0:0:0:0:
369,196,22244,6,0,P|386:236|382:284,1,80,8|0,0:0|0:0,0:0:0:0:
187,184,22577,1,2,0:0:0:0:
359,106,22744,1,0,0:0:0:0:
307,299,22911,1,8,0:0:0:0:
187,184,23077,1,0,0:0:0:0:
307,299,23244,6,0,B|336:264|304:224|304:224|272:184|304:144,1,160,0|8,0:0|0:0,0:0:0:0:
260,19,23744,1,2,0:0:0:0:
128,64,23911,2,0,P|141:103|185:128,1,80
350,195,24244,1,8,0:0:0:0:
178,262,24411,1,0,0:0:0:0:
178,262,24577,6,0,P|137:280|92:277,2,80,2|0|8,0:0|0:0|0:0,0:0:0:0:
336,156,25077,1,0,0:0:0:0:
129,155,25244,2,0,P|157:115|209:99,1,80,2|0,0:0|0:0,0:0:0:0:
236,289,25577,1,8,0:0:0:0:
204,175,25744,1,2,0:0:0:0:
336,156,25911,6,0,B|421:192|452:236|452:236|433:257,1,160,0|8,0:0|0:0,0:0:0:0:
316,328,26411,1,2,0:0:0:0:
104,266,26577,1,0,0:0:0:0:
220,359,26744,1,0,0:0:0:0:
204,175,26911,2,0,P|216:125|246:108,1,80,8|0,0:0|0:0,0:0:0:0:
331,31,27244,6,0,B|408:48|440:17|440:17|476:71,1,160,0|8,0:0|0:0,0:0:0:0:
458,146,27744,1,0,0:0:0:0:
391,215,27911,2,0,P|375:165|290:101,1,160,2|8,0:0|0:0,0:0:0:0:
204,175,28411,1,0,0:0:0:0:
196,214,28494,1,0,0:0:0:0:
197,253,28577,2,0,P|186:305|85:325,1,160,0|8,0:0|0:0,0:0:0:0:
75,200,29077,1,0,0:0:0:0:
94,330,29244,5,2,0:0:0:0:
165,77,29411,1,0,0:0:0:0:
197,253,29577,2,0,P|228:253|290:201,1,80,8|0,0:0|0:0,0:0:0:0:
297,145,29911,1,8,0:0:0:0:
426,120,30077,5,0,0:0:0:0:
431,75,30161,1,0,0:0:0:0:
408,32,30244,2,8,P|329:17|295:33,1,80
165,77,30744,2,0,L|98:17,1,80,8|2,0:0|0:0,0:0:0:0:
180,151,31244,6,0,P|156:179|172:279,1,120.000004577637,0|2,0:0|0:0,0:0:0:0:
224,216,31744,1,0,0:0:0:0:
88,144,31911,1,10,0:0:0:0:
80,240,32244,6,0,P|118:270|144:272,1,60.0000022888184
213,238,32577,1,0,0:0:0:0:
279,298,32744,2,0,L|351:306,1,60.0000022888184,8|0,0:0|0:0,0:0:0:0:
422,292,33077,1,0,0:0:0:0:
381,211,33244,1,8,0:0:0:0:
232,40,33911,6,0,P|176:40|120:88,1,120.000004577637
100,150,34411,1,0,0:0:0:0:
102,227,34577,1,8,0:0:0:0:
151,287,34744,1,2,0:0:0:0:
222,320,34911,2,0,L|296:321,1,60.0000022888184
349,280,35244,5,0,0:0:0:0:
396,217,35411,1,8,0:0:0:0:
392,139,35577,2,0,P|373:105|346:86,1,60.0000022888184
289,52,35911,1,8,0:0:0:0:
288,51,36244,2,0,P|264:68|250:95,1,60.0000022888184
104,292,36577,6,0,P|120:244|184:212,1,120.000004577637
274,211,37077,1,0,0:0:0:0:
310,93,37244,2,0,L|250:94,1,60.0000022888184,8|2,0:0|0:0,0:0:0:0:
128,104,37577,2,0,L|192:152,1,60.0000022888184
320,220,37911,5,0,0:0:0:0:
512,248,38078,1,8,0:0:0:0:
426,137,38245,1,0,0:0:0:0:
411,337,38411,1,0,0:0:0:0:
307,113,38577,2,0,P|266:82|182:77,1,120.000004577637,8|2,0:0|0:0,0:0:0:0:
52,92,39244,5,0,0:0:0:0:
176,264,39577,1,0,0:0:0:0:
71,209,40577,5,8,0:0:0:0:
168,160,40744,1,0,0:0:0:0:
264,312,40911,1,0,0:0:0:0:
176,264,41077,1,0,0:0:0:0:
320,104,41244,1,8,0:0:0:0:
368,112,41411,2,0,L|408:120,1,40,8|0,0:0|0:0,0:0:0:0:
387,192,41577,2,0,L|335:210,1,40
265,39,41744,1,0,0:0:0:0:
150,135,42077,6,0,P|156:96|204:58,1,80,0|8,0:0|0:0,0:0:0:0:
304,117,42411,1,0,0:0:0:0:
150,135,42577,1,8,0:0:0:0:
275,20,42744,1,0,0:0:0:0:
387,192,42911,1,8,0:0:0:0:
150,135,43077,6,0,P|146:213|205:278,1,160
295,196,43577,2,0,L|305:107,1,80,8|0,0:0|0:0,0:0:0:0:
417,219,43911,2,0,L|382:302,1,80,8|0,0:0|0:0,0:0:0:0:
247,186,44244,1,8,0:0:0:0:
149,315,44411,5,0,0:0:0:0:
149,315,44744,2,0,P|131:350|96:369,2,80,0|8|0,0:0|0:0|0:0,0:0:0:0:
175,218,45244,1,8,0:0:0:0:
175,218,45327,1,8,0:0:0:0:
175,218,45411,2,0,P|150:151|117:124,1,80,8|8,0:0|0:0,0:0:0:0:
29,40,45744,5,0,0:0:0:0:
404,93,46077,1,0,0:0:0:0:
175,218,46411,1,0,0:0:0:0:
423,226,46744,2,2,P|386:262|297:294,1,120.000004577637
68,40,47244,6,0,P|92:88|212:104,1,160,0|8,0:0|0:0,0:0:0:0:
256,40,47744,1,2,0:0:0:0:
352,96,47911,2,0,P|360:144|344:192,1,80
326,291,48244,1,8,0:0:0:0:
464,242,48411,1,2,0:0:0:0:
352,96,48577,6,0,L|376:200,1,80
326,291,48911,1,8,0:0:0:0:
464,242,49077,2,0,P|488:186|456:66,1,160
352,96,49577,2,0,P|313:85|276:98,1,80,8|0,0:0|0:0,0:0:0:0:
200,208,49911,6,0,B|272:272|347:208,1,160,0|8,0:0|0:0,0:0:0:0:
201,124,50411,1,0,0:0:0:0:
352,96,50577,2,0,P|358:57|341:21,2,80,0|0|8,0:0|0:0|0:0,0:0:0:0:
201,124,51077,1,2,0:0:0:0:
326,217,51244,6,0,P|357:168|355:118,2,80,0|0|8,0:0|0:0|0:0,0:0:0:0:
201,124,51744,1,0,0:0:0:0:
72,56,51911,1,0,0:0:0:0:
80,200,52077,2,0,L|5:234,1,80,0|8,0:0|0:0,0:0:0:0:
68,288,52411,6,0,P|132:272|148:160,1,160
123,123,52911,2,0,P|169:114|209:128,1,80,8|0,0:0|0:0,0:0:0:0:
236,141,53161,1,0,0:0:0:0:
262,170,53244,1,0,0:0:0:0:
452,262,53411,1,0,0:0:0:0:
347,291,53577,2,0,B|335:201,1,80,8|0,0:0|0:0,0:0:0:0:
301,95,53911,6,0,L|221:151,1,80
99,214,54244,1,8,0:0:0:0:
347,291,54411,1,0,0:0:0:0:
123,124,54577,1,2,0:0:0:0:
271,343,54744,1,0,0:0:0:0:
301,95,54911,2,0,P|335:66|376:62,1,80,8|0,0:0|0:0,0:0:0:0:
347,291,55244,6,0,P|343:350|350:372,2,80,0|0|8,0:0|0:0|0:0,0:0:0:0:
432,192,55744,1,0,0:0:0:0:
352,104,55911,1,0,0:0:0:0:
301,95,55994,1,0,0:0:0:0:
256,104,56077,1,0,0:0:0:0:
207,262,56244,1,8,0:0:0:0:
286,301,56411,2,0,P|280:220|202:179,1,160
122,207,56911,6,0,P|114:163|138:123,1,80,8|0,0:0|0:0,0:0:0:0:
216,60,57244,1,8,0:0:0:0:
216,60,57327,1,0,0:0:0:0:
216,60,57411,1,0,0:0:0:0:
313,170,57577,1,8,0:0:0:0:
288,192,57661,1,0,0:0:0:0:
264,216,57744,1,0,0:0:0:0:
240,240,57827,1,0,0:0:0:0:
207,262,57911,5,0,0:0:0:0:
128,132,58077,1,2,0:0:0:0:
263,115,58244,2,0,P|307:147|311:187,1,80,8|2,0:0|0:0,0:0:0:0:
207,262,58577,2,0,L|163:342,2,80,0|0|8,0:0|0:0|0:0,0:0:0:0:
338,248,59077,5,0,0:0:0:0:
338,248,59161,1,0,0:0:0:0:
338,248,59244,2,0,P|379:203|334:111,1,160,0|8,0:0|0:0,0:0:0:0:
263,115,59744,2,0,L|201:197,1,80,0|2,0:0|0:0,0:0:0:0:
122,52,60077,1,0,0:0:0:0:
146,214,60244,2,0,L|234:274,1,80,8|0,0:0|0:0,0:0:0:0:
334,298,60577,6,0,P|379:273|403:158,1,160,0|8,0:0|0:0,0:0:0:0:
387,27,61077,1,2,0:0:0:0:
449,116,61244,1,0,0:0:0:0:
449,116,61411,2,0,P|399:102|358:126,1,80,0|8,0:0|0:0,0:0:0:0:
146,214,61744,1,0,0:0:0:0:
217,235,61911,6,0,P|217:194|122:141,1,160,0|8,0:0|0:0,0:0:0:0:
120,48,62411,2,0,P|48:88|40:184,2,160
217,235,63244,6,0,P|249:271|369:251,1,160,0|8,0:0|0:0,0:0:0:0:
447,221,63744,1,0,0:0:0:0:
477,189,63827,1,0,0:0:0:0:
467,144,63911,1,0,0:0:0:0:
338,61,64077,1,0,0:0:0:0:
297,207,64244,1,8,0:0:0:0:
137,263,64411,5,0,0:0:0:0:
137,263,64494,1,0,0:0:0:0:
137,263,64577,2,0,B|65:211,2,80,0|0|8,0:0|0:0|0:0,0:0:0:0:
131,344,65077,2,0,B|239:328|213:219,1,160
352,256,65577,2,0,L|416:176,1,80,8|0,0:0|0:0,0:0:0:0:
433,73,65911,6,0,L|269:29,1,160,0|8,0:0|0:0,0:0:0:0:
217,161,66410,1,0,0:0:0:0:
217,161,66494,1,0,0:0:0:0:
217,161,66577,2,0,L|143:216,2,80,0|0|8,0:0|0:0|0:0,0:0:0:0:
433,73,67077,1,0,0:0:0:0:
320,143,67411,5,8,0:0:0:0:
320,143,67494,1,8,0:0:0:0:
320,143,67577,1,8,0:0:0:0:
420,269,67744,1,0,0:0:0:0:
439,191,67911,2,0,P|393:192|350:231,1,80,8|0,0:0|0:0,0:0:0:0:
336,232,68161,1,8,0:0:0:0:
301,256,68244,1,0,0:0:0:0:
168,312,68411,1,0,0:0:0:0:
301,256,68577,6,0,B|333:220|333:220|297:152|321:88,1,160,0|8,0:0|0:0,0:0:0:0:
312,16,69077,1,2,0:0:0:0:
416,80,69244,2,0,P|368:96|352:128,1,80
253,165,69577,1,8,0:0:0:0:
387,246,69744,1,2,0:0:0:0:
253,165,69911,6,0,P|181:169|157:157,2,80,0|0|8,0:0|0:0|0:0,0:0:0:0:
320,216,70411,2,0,P|336:144|264:82,1,160
263,296,70911,1,8,0:0:0:0:
427,156,71077,1,2,0:0:0:0:
253,165,71244,6,0,P|221:213|277:301,1,160,0|8,0:0|0:0,0:0:0:0:
294,227,71744,2,0,P|258:263|150:275,1,160
68,307,72244,2,0,L|94:397,2,80,8|2|0,0:0|0:0|0:0,0:0:0:0:
68,128,72744,5,0,0:0:0:0:
190,251,72911,2,0,P|234:265|286:242,1,80,8|0,0:0|0:0,0:0:0:0:
294,227,73161,1,0,0:0:0:0:
315,193,73244,1,0,0:0:0:0:
335,45,73411,1,0,0:0:0:0:
315,193,73577,2,0,P|260:194|229:166,1,80,8|0,0:0|0:0,0:0:0:0:
193,71,73911,6,0,P|109:71|65:151,1,160,0|8,0:0|0:0,0:0:0:0:
150,141,74411,1,0,0:0:0:0:
150,141,74494,1,2,0:0:0:0:
150,141,74577,2,0,L|187:217,1,80
377,137,74911,1,8,0:0:0:0:
193,71,75077,1,2,0:0:0:0:
235,261,75244,6,0,P|283:257|319:213,1,80
377,137,75577,1,8,0:0:0:0:
446,330,75744,1,0,0:0:0:0:
252,193,75911,1,2,0:0:0:0:
377,137,76077,1,0,0:0:0:0:
351,303,76244,2,0,B|298:225,1,80,8|0,0:0|0:0,0:0:0:0:
176,152,76577,5,0,0:0:0:0:
294,79,76911,1,8,0:0:0:0:
289,290,77077,1,2,0:0:0:0:
355,187,77244,1,0,0:0:0:0:
208,288,77411,2,0,P|241:353|261:360,2,80,0|8|0,0:0|0:0|0:0,0:0:0:0:
252,193,77911,2,0,B|314:180|337:121|337:121|395:146,1,160
414,150,78327,1,0,0:0:0:0:
444,176,78411,1,0,0:0:0:0:
466,304,78577,6,0,P|446:347|398:366,2,80,0|0|8,0:0|0:0|0:0,0:0:0:0:
444,176,79077,1,0,0:0:0:0:
320,144,79244,6,0,P|272:112|224:112,1,80,8|0,0:0|0:0,0:0:0:0:
192,240,79577,2,0,P|240:272|288:272,1,80,8|0,0:0|0:0,0:0:0:0:
371,298,79911,6,0,P|384:245|357:202,1,80,8|0,0:0|0:3,0:3:0:0:
140,94,80244,2,0,P|125:146|153:189,1,80,8|0,0:0|0:0,0:0:0:0:
448,176,80577,6,0,P|407:145|373:137,1,80,8|0,0:0|0:0,0:0:0:0:
67,217,80911,2,0,P|106:248|141:256,1,80,8|0,0:0|0:0,0:0:0:0:
264,349,81244,1,8,0:0:0:0:
304,192,81411,1,0,0:0:0:0:
168,280,81577,1,8,0:0:0:0:
160,64,81744,5,0,0:0:0:0:
160,64,81827,1,0,0:0:0:0:
160,64,81911,2,0,P|224:96|256:192,1,160,0|8,0:0|0:0,0:0:0:0:
264,349,82411,1,0,0:0:0:0:
398,183,82744,1,0,0:0:0:0:
172,261,83077,1,0,0:0:0:0:
239,214,83411,6,0,L|190:150,2,80,8|0|0,0:0|0:0|0:0,0:0:0:0:
172,261,83911,2,0,P|242:293|309:256,1,160,8|0,0:0|0:0,0:0:0:0:
240,116,84577,1,8,0:0:0:0:
256,192,84744,12,2,88911,0:0:0:0:
