osu file format v14

[General]
AudioFilename: Hey World.mp3
AudioLeadIn: 0
PreviewTime: 47119
Countdown: 0
SampleSet: Normal
StackLeniency: 0.7
Mode: 0
LetterboxInBreaks: 0
WidescreenStoryboard: 0

[Editor]
DistanceSpacing: 1.2
BeatDivisor: 4
GridSize: 16
TimelineZoom: 2

[Metadata]
Title:Hey World (TV Size)
TitleUnicode:Hey World (TV Size)
Artist:Iguchi Yuka
ArtistUnicode:井口裕香
Creator:-TakoYaki-
Version:Easy
Source:ダンジョンに出会いを求めるのは間違っているだろうか?
Tags:opening anime is it wrong to try to pick up girls in a dungeon ni Deai wo Motomeru no wa Machigatteiru Darou ka Nardoxyribonucleic Lazer
BeatmapID:678542
BeatmapSetID:301497

[Difficulty]
HPDrainRate:4
CircleSize:2
OverallDifficulty:2
ApproachRate:3
SliderMultiplier:0.8
SliderTickRate:1

[Events]
//Background and Video events
0,0,"dungeon.jpg",0,0
Video,0,"dungeon2.avi"
//Break Periods
//Storyboard Layer 0 (Background)
//Storyboard Layer 1 (Fail)
//Storyboard Layer 2 (Pass)
//Storyboard Layer 3 (Foreground)
//Storyboard Sound Samples

[TimingPoints]
578,333.333333333333,4,1,1,100,1,0
578,-100,4,1,1,20,0,0
2577,-100,4,1,1,40,0,0
3077,-100,4,1,1,80,0,0
7744,-100,4,1,1,80,0,0
30077,-100,4,1,1,80,0,0
40417,-100,4,1,1,80,0,0
47244,-100,4,1,1,80,0,1
52411,-100,4,1,1,80,0,0
57911,-100,4,1,1,80,0,1
67244,-100,4,1,1,80,0,0

[Colours]
Combo1 : 255,114,0
Combo2 : 214,3,46
Combo3 : 0,128,255
Combo4 : 0,255,0
Combo5 : 148,69,201

[HitObjects]
80,144,578,6,2,P|130:63|237:75,1,160
305,205,1911,2,2,P|255:286|148:274,1,160
96,132,3244,6,0,B|170:84|250:116|250:116|346:148|410:100,1,320
400,272,5911,2,0,B|326:320|246:288|246:288|150:256|86:304,1,320
96,256,9577,5,0,0:0:0:0:
64,165,9911,2,2,P|109:88|209:79,1,160,0|2,0:0|0:0,0:0:0:0:
269,67,10911,1,0,0:0:0:0:
362,89,11244,2,0,P|421:136|465:216,1,160,0|2,0:0|0:0,0:0:0:0:
498,298,12244,5,0,0:0:0:0:
416,347,12577,2,2,B|365:305|322:384|255:328,1,160,0|2,0:0|0:0,0:0:0:0:
181,286,13577,1,0,0:0:0:0:
91,320,13911,2,2,P|18:201|20:178,1,160,0|2,0:0|0:0,0:0:0:0:
78,112,14911,1,0,0:0:0:0:
160,63,15244,6,2,P|243:27|319:67,1,160
236,119,16244,1,0,0:0:0:0:
208,211,16577,1,0,0:0:0:0:
304,201,16911,2,0,P|322:276|283:344,1,160
92,219,17911,6,0,P|74:296|122:369,1,160
168,283,18911,1,0,0:0:0:0:
216,200,19244,2,0,L|208:79,2,80,0|0|8,0:0|0:0|0:0,0:0:0:0:
300,245,20244,1,0,0:0:0:0:
372,172,20577,6,0,P|392:266|338:353,1,160
300,245,21577,1,8,0:0:0:0:
213,202,21911,2,0,P|266:124|332:108,1,160
322,214,22911,2,0,L|322:296,2,80,8|0|8,0:0|0:0|0:0,0:0:0:0:
411,174,23911,1,0,0:0:0:0:
492,113,24244,2,0,L|419:64,2,80,8|0|8,0:0|0:0|0:0,0:0:0:0:
481,214,25244,2,0,L|404:171,1,80,0|8,0:0|0:0,0:0:0:0:
316,197,25911,6,0,B|230:236|230:236|162:199,1,160
233,129,26911,2,0,P|218:49|202:40,2,80,8|0|8,0:0|0:0|0:0,0:0:0:0:
140,103,27911,2,0,P|155:183|171:192,1,80,0|8,0:0|0:0,0:0:0:0:
233,129,28577,6,0,P|296:173|380:177,1,160
472,166,29577,1,0,0:0:0:0:
440,257,29911,2,8,P|377:271|308:268,1,120
233,231,30744,1,8,0:0:0:0:
293,133,31244,6,0,P|190:93|116:184,1,240
212,187,32577,2,0,P|240:218|292:233,2,80,0|0|8,0:0|0:0|0:0,0:0:0:0:
152,111,33577,1,0,0:0:0:0:
58,88,33911,6,0,P|40:175|132:283,1,240
223,291,35244,2,0,L|320:307,2,80,0|0|8,0:0|0:0|0:0,0:0:0:0:
131,282,36244,1,0,0:0:0:0:
80,200,36577,6,0,P|147:106|268:130,1,240
352,145,37911,2,0,L|411:72,2,80,0|0|8,0:0|0:0|0:0,0:0:0:0:
258,121,38911,1,0,0:0:0:0:
166,93,39244,6,4,L|169:187,1,80
389,357,40577,6,8,P|472:361|509:292,1,160
466,164,41744,2,8,P|359:117|285:142,1,200
265,284,43077,2,8,P|371:330|453:305,1,200
443,163,44411,6,0,P|379:145|249:173,1,200,0|8,0:0|0:0,0:0:0:0:
163,286,45744,2,8,P|213:341|369:320,1,240
357,181,47244,6,0,P|257:119|145:150,1,240,0|8,0:0|0:0,0:0:0:0:
60,194,48577,2,0,P|61:115|115:57,1,160
201,19,49577,1,8,0:0:0:0:
214,114,49911,6,0,P|261:159|370:163,1,160
421,102,50911,1,8,0:0:0:0:
456,190,51244,2,0,P|442:248|415:259,1,80,0|8,0:0|0:0,0:0:0:0:
360,323,51911,2,0,P|394:358|429:385,2,80,0|8|0,0:0|0:0|0:0,0:0:0:0:
300,247,52911,5,8,0:0:0:0:
243,169,53244,1,0,0:0:0:0:
163,114,53577,2,0,P|86:185|79:253,1,160,8|8,0:0|0:0,0:0:0:0:
108,326,54577,1,2,0:0:0:0:
196,288,54911,6,0,P|218:373|186:396,2,80,8|0|0,0:0|0:0|0:0,0:0:0:0:
167,196,55911,2,0,P|246:141|329:165,1,160
372,217,56911,2,8,P|415:291|438:287,2,80
407,127,57911,6,0,P|308:57|255:48,1,160
176,44,58911,1,8,0:0:0:0:
130,127,59244,2,0,P|169:153|196:191,2,80,0|8|0,0:0|0:0|0:0,0:0:0:0:
38,96,60244,1,8,0:0:0:0:
37,191,60577,6,0,P|110:240|128:338,1,160
206,367,61577,1,8,0:0:0:0:
288,318,61911,1,0,0:0:0:0:
378,348,62244,2,0,L|415:272,1,80
417,180,62911,2,0,P|366:117|361:115,1,80,8|0,0:0|0:0,0:0:0:0:
275,102,63577,2,0,P|235:104|207:131,1,80,8|0,0:0|0:0,0:0:0:0:
231,239,64244,6,0,L|154:281,2,80,8|0|8,0:0|0:0|0:0,0:0:0:0:
166,167,65244,1,0,0:0:0:0:
88,224,65577,1,8,0:0:0:0:
76,319,65911,2,0,P|104:351|221:346,1,160
281,292,66911,1,8,0:0:0:0:
363,243,67244,2,0,P|385:152|204:124,1,320
290,177,68911,5,8,0:0:0:0:
224,247,69244,2,0,P|253:284|291:288,2,80,0|8|0,0:0|0:0|0:0,0:0:0:0:
175,330,70244,1,8,0:0:0:0:
85,363,70577,2,0,L|49:275,1,80,0|8,0:0|0:0,0:0:0:0:
30,195,71244,6,0,P|63:83|169:36,1,240,0|8,0:0|0:0,0:0:0:0:
160,131,72577,2,0,P|157:215|186:258,2,80,0|8|0,0:0|0:0|0:0,0:0:0:0:
160,32,73577,1,8,0:0:0:0:
240,96,73911,6,0,P|337:151|436:84,1,240,0|8,0:0|0:0,0:0:0:0:
480,176,75244,1,0,0:0:0:0:
464,272,75577,2,0,P|448:304|336:304,1,160,0|8,0:0|0:0,0:0:0:0:
352,208,76577,2,0,P|268:148|173:217,1,160
160,240,77577,1,8,0:0:0:0:
80,176,77911,2,0,P|99:126|261:46,1,240,0|8,0:0|0:0,0:0:0:0:
336,96,79244,5,8,0:0:0:0:
400,176,79577,1,8,0:0:0:0:
352,256,79911,2,0,L|352:346,1,80,8|8,0:0|0:0,0:0:0:0:
256,352,80577,6,0,L|256:255,1,80,8|8,0:0|0:0,0:0:0:0:
256,176,81244,2,8,L|256:75,1,80
160,64,81911,6,0,P|102:69|58:117,1,120
48,208,82744,1,0,0:0:0:0:
96,288,83077,2,0,P|201:303|225:298,1,120
304,272,83911,1,0,0:0:0:0:
384,224,84244,1,8,0:0:0:0:
256,192,84577,12,2,89244,0:0:0:0:
