osu file format v12

[General]
AudioFilename: Grow Slowly.mp3
AudioLeadIn: 2000
PreviewTime: 52922
Countdown: 0
SampleSet: Soft
StackLeniency: 0.7
Mode: 0
LetterboxInBreaks: 0

[Editor]
DistanceSpacing: 1
BeatDivisor: 4
GridSize: 4

[Metadata]
Title:Grow Slowly (TV Size)
TitleUnicode:Grow Slowly (TV Size)
Artist:Iguchi Yuka
ArtistUnicode:井口裕香
Creator:xChippy
Version:Insane
Source:Toaru Kagaku no Railgun S
Tags:Ending yanlu Sun Rainbow a certain scientific とある科学の超電磁砲 s ReySHeL
BeatmapID:247794
BeatmapSetID:91504

[Difficulty]
HPDrainRate:7
CircleSize:4
OverallDifficulty:7
ApproachRate:8
SliderMultiplier:1.6
SliderTickRate:1

[Events]
//Background and Video events
Video,0,"To Aru Kagaku no Railgun S ED.avi"
0,0,"To aru railgun.jpg",0,0
//Break Periods
//Storyboard Layer 0 (Background)
//Storyboard Layer 1 (Fail)
//Storyboard Layer 2 (Pass)
//Storyboard Layer 3 (Foreground)
//Storyboard Sound Samples
//Background Colour Transformations
3,100,163,162,255

[TimingPoints]
1468.00525445979,363.636363636364,4,2,0,75,1,0
10195,-100,4,2,1,80,0,0
12740,-100,4,2,1,70,0,0
21831,-100,4,2,1,70,0,0
23286,-100,4,2,1,65,0,0
36377,-100,4,2,1,80,0,0
45104,-100,4,2,1,75,0,0
52922,-100,4,2,0,75,0,0
53831,-100,4,2,1,80,0,1
62195,-100,4,2,1,90,0,1
65468,-100,4,2,1,80,0,1
77104,-100,4,2,1,80,0,0
82922,-133.333333333333,4,2,0,30,0,0
88740,-100,4,2,0,15,0,0

[Colours]
Combo1 : 255,150,0
Combo2 : 0,255,255
Combo3 : 255,128,255
Combo4 : 0,128,255
Combo5 : 128,0,255

[HitObjects]
49,114,1468,2,0,P|74:188|140:244,1,160,4|0,1:0|0:0,0:0:0:0:
199,286,2013,2,0,P|271:308|354:285,1,160,4|0,1:0|0:0,0:0:0:0:
408,220,2558,5,2,0:0:0:0:
477,100,2740,1,2,0:0:0:0:
338,99,2922,1,2,0:0:0:0:
477,180,3104,1,0,0:0:0:0:
408,60,3286,1,2,0:0:0:0:
338,180,3468,1,2,0:0:0:0:
260,204,3649,6,0,L|180:228,1,80,0|2,0:0|0:0,0:0:0:0:
27,158,4013,2,0,L|104:180,1,80,2|0,0:0|0:0,0:0:0:0:
64,368,4377,6,0,P|141:384|220:373,1,160,4|0,1:0|0:0,0:0:0:0:
294,354,4922,2,0,P|360:311|401:243,1,160,4|0,1:0|0:0,0:0:0:0:
424,168,5468,6,0,L|449:56,1,80,2|2,0:0|0:0,0:0:0:0:
315,62,5831,2,0,L|288:169,1,80,0|2,0:0|0:0,0:0:0:0:
220,168,6195,1,0,0:0:0:0:
129,294,6377,1,2,0:0:0:0:
276,246,6558,1,0,0:0:0:0:
129,198,6740,1,2,0:0:0:0:
220,323,6922,1,2,0:0:0:0:
380,348,7104,1,0,0:0:0:0:
380,348,7195,1,0,0:0:0:0:
380,348,7286,6,0,P|376:260|403:172,1,160,4|0,1:0|0:0,0:0:0:0:
337,134,7831,2,0,P|249:138|161:111,1,160,4|0,1:0|0:0,0:0:0:0:
123,176,8377,5,2,0:0:0:0:
24,312,8558,1,2,0:0:0:0:
184,260,8740,1,0,0:0:0:0:
24,208,8922,1,2,0:0:0:0:
123,345,9104,1,0,0:0:0:0:
280,266,9286,5,2,0:0:0:0:
322,180,9468,1,4,0:0:0:0:
184,260,9649,2,0,L|96:224,1,80,2|0,0:0|0:0,0:0:0:0:
90,60,10195,5,4,0:0:0:0:
153,165,10377,1,2,0:0:0:0:
210,60,10558,1,2,0:0:0:0:
273,165,10740,1,2,0:0:0:0:
331,60,10922,2,0,P|381:99|387:190,1,160,8|0,0:0|0:0,0:0:0:0:
220,363,11649,6,0,L|180:208,1,160,4|0,0:0|0:0,0:0:0:0:
180,208,12377,1,4,0:0:0:0:
334,246,12740,5,0,0:0:0:0:
334,246,12922,1,0,0:0:0:0:
271,184,13104,6,0,P|258:136|279:79,1,80,4|0,0:0|0:0,0:0:0:0:
340,63,13468,2,0,P|347:111|333:159,1,80,0|0,0:0|0:0,0:0:0:0:
334,246,13831,2,0,P|360:252|411:242,1,80,2|2,0:0|0:0,0:0:0:0:
399,167,14195,6,0,P|476:200|471:293,1,160,8|0,0:0|0:0,0:0:0:0:
400,252,14740,1,0,0:0:0:0:
371,335,14922,2,0,P|333:342|293:333,1,80,0|0,0:0|0:0,0:0:0:0:
141,335,15286,2,0,P|179:342|219:333,1,80,2|2,0:0|0:0,0:0:0:0:
257,252,15649,1,8,0:0:0:0:
81,252,16013,6,0,L|59:144,1,80
131,72,16377,2,0,L|153:180,1,80,0|0,0:0|0:0,0:0:0:0:
231,175,16740,1,2,0:0:0:0:
310,137,16922,1,2,0:0:0:0:
280,255,17104,1,8,0:0:0:0:
356,212,17286,1,0,0:0:0:0:
356,212,17468,6,0,P|367:235|367:288,1,80
113,263,17831,1,2,0:0:0:0:
198,288,18013,1,0,0:0:0:0:
356,212,18195,5,2,0:0:0:0:
258,157,18377,1,4,0:0:0:0:
31,291,18922,6,0,L|19:184,1,80,4|0,0:0|0:0,0:0:0:0:
11,124,19286,1,0,0:0:0:0:
90,162,19468,2,0,P|152:144|190:121,1,80,0|8,0:0|0:0,0:0:0:0:
240,91,19831,1,0,0:0:0:0:
383,162,20013,2,0,P|321:144|307:137,1,80,0|0,0:0|0:0,0:0:0:0:
208,208,20377,6,0,L|173:305,1,80
156,368,20740,1,0,0:0:0:0:
242,352,20922,1,0,0:0:0:0:
304,289,21104,1,8,0:0:0:0:
392,289,21286,1,0,0:0:0:0:
444,215,21468,2,0,L|352:142,1,80
319,102,21831,6,0,P|281:91|221:111,2,80,4|0|0,0:0|0:0|0:0,0:0:0:0:
208,276,22377,2,0,P|193:247|198:202,1,80,0|4,0:0|0:0,0:0:0:0:
280,167,22739,1,0,0:0:0:0:
343,230,22922,1,0,0:0:0:0:
293,304,23104,1,0,0:0:0:0:
256,192,23286,12,8,24377,3:0:0:0:
44,110,24740,6,0,P|32:164|58:209,1,80,4|0,0:0|0:0,0:0:0:0:
81,264,25104,1,8,0:0:0:0:
159,223,25286,1,0,0:0:0:0:
221,285,25468,1,0,0:0:0:0:
282,223,25649,1,0,0:0:0:0:
344,285,25831,2,0,L|397:226,1,80,8|0,0:0|0:0,0:0:0:0:
397,136,26195,5,0,0:0:0:0:
397,136,26377,1,0,0:0:0:0:
323,88,26558,1,8,0:0:0:0:
323,88,26740,1,0,0:0:0:0:
234,88,26922,1,0,0:0:0:0:
234,88,27104,1,0,0:0:0:0:
153,124,27286,1,8,0:0:0:0:
153,124,27468,1,0,0:0:0:0:
193,201,27649,6,0,P|193:286|165:331,1,120,0|0,0:0|0:0,0:0:0:0:
160,352,28013,1,8,0:0:0:0:
288,286,28195,1,0,0:0:0:0:
468,267,28377,1,0,0:0:0:0:
311,177,28558,1,0,0:0:0:0:
385,342,28740,1,8,0:0:0:0:
423,165,28922,1,0,0:0:0:0:
288,286,29104,5,0,0:0:0:0:
199,323,29286,1,0,0:0:0:0:
111,286,29468,1,8,0:0:0:0:
111,286,29649,2,0,P|81:220|125:142,1,160
166,220,30195,1,8,0:0:0:0:
241,61,30558,6,0,P|161:92|88:59,1,160,4|8,0:0|0:0,0:0:0:0:
165,12,31104,2,0,L|165:171,1,160
227,234,31649,1,8,0:0:0:0:
289,171,31831,1,0,0:0:0:0:
338,97,32013,6,0,P|375:161|337:246,1,160,0|8,0:0|0:0,0:0:0:0:
227,234,32558,1,0,0:0:0:0:
227,234,32649,1,0,0:0:0:0:
227,234,32740,2,0,P|199:157|236:93,1,160,0|8,0:0|0:0,0:0:0:0:
289,171,33286,1,0,0:0:0:0:
289,171,33468,6,0,L|174:171|119:171,1,160,4|8,0:0|0:0,0:0:0:0:
168,91,34013,1,0,0:0:0:0:
168,91,34195,1,0,0:0:0:0:
87,126,34377,1,0,0:0:0:0:
87,126,34558,1,8,0:0:0:0:
80,215,34740,1,0,0:0:0:0:
142,277,34922,6,0,P|192:303|306:298,1,160,4|0,0:0|0:0,0:0:0:0:
356,239,35468,2,0,L|318:50,1,160,4|0,0:0|0:0,0:0:0:0:
208,54,36013,2,0,L|246:243,1,160,12|4,0:0|0:0,0:0:0:0:
412,246,36740,5,0,0:0:0:0:
412,246,37104,1,8,0:0:0:0:
252,318,37468,2,0,P|259:258|241:219,1,80,0|0,0:0|0:0,0:0:0:0:
175,200,37831,6,0,P|170:218|177:278,1,80,2|2,0:0|0:0,0:0:0:0:
253,240,38195,1,0,0:0:0:0:
175,200,38377,1,2,0:0:0:0:
253,160,38558,2,0,P|309:103|385:101,1,160,8|0,0:0|0:0,0:0:0:0:
385,277,39286,5,4,0:0:0:0:
385,277,39649,1,0,0:0:0:0:
212,239,40013,2,0,P|257:230|305:254,1,80,8|0,0:0|0:0,0:0:0:0:
288,329,40377,2,0,P|243:338|195:314,1,80,0|0,0:0|0:0,0:0:0:0:
132,289,40740,5,2,0:0:0:0:
53,329,40922,2,0,L|33:251,1,80,2|0,0:0|0:0,0:0:0:0:
51,164,41286,1,2,0:0:0:0:
132,196,41468,2,0,P|208:222|281:199,1,160,8|0,0:0|0:0,0:0:0:0:
344,137,42013,1,0,0:0:0:0:
344,137,42104,1,0,0:0:0:0:
344,137,42195,1,4,0:0:0:0:
184,63,42558,5,2,0:0:0:0:
184,63,42922,1,8,0:0:0:0:
308,187,43286,2,0,P|312:227|300:291,1,80
226,301,43649,6,0,P|140:321|49:293,2,160,0|0|8,0:0|0:0|0:0,0:0:0:0:
89,190,44740,1,0,0:0:0:0:
89,101,44922,5,0,0:0:0:0:
89,101,45013,1,0,0:0:0:0:
89,101,45104,2,0,P|161:102|190:127,1,80,4|0,0:0|0:0,0:0:0:0:
203,210,45468,1,2,0:0:0:0:
264,114,45649,1,0,0:0:0:0:
410,199,45831,2,0,P|365:212|333:211,1,80,2|0,0:0|0:0,0:0:0:0:
264,383,46195,2,0,P|254:332|259:305,1,80,4|0,0:0|0:0,0:0:0:0:
263,113,46558,6,0,P|268:141|258:192,1,80,2|0,0:0|0:0,0:0:0:0:
202,256,46922,1,2,0:0:0:0:
202,256,47104,1,0,0:0:0:0:
174,340,47286,1,2,0:0:0:0:
174,340,47468,1,0,0:0:0:0:
95,300,47649,6,0,P|44:249|44:210,1,80,8|0,0:0|0:0,0:0:0:0:
125,223,48013,1,0,0:0:0:0:
83,119,48195,1,0,0:0:0:0:
187,77,48376,1,8,0:0:0:0:
229,181,48558,1,0,0:0:0:0:
81,181,48740,5,0,0:0:0:0:
123,77,48922,1,0,0:0:0:0:
226,119,49104,1,8,0:0:0:0:
184,222,49286,1,0,0:0:0:0:
184,222,49468,5,0,0:0:0:0:
335,258,49740,1,0,0:0:0:0:
195,329,50013,1,0,0:0:0:0:
195,329,50195,5,0,0:0:0:0:
57,255,50468,1,0,0:0:0:0:
120,112,50740,1,0,0:0:0:0:
220,84,50922,6,0,P|308:75|400:89,1,160,4|0,0:0|0:0,0:0:0:0:
486,173,51468,1,0,0:0:0:0:
378,259,51649,2,0,P|290:268|198:254,1,160,4|0,0:0|0:0,0:0:0:0:
219,259,52377,1,4,0:0:0:0:
299,180,52922,5,0,0:0:0:0:
407,211,53104,1,2,0:0:0:0:
272,78,53286,1,2,0:0:0:0:
219,259,53468,1,2,0:0:0:0:
69,86,53831,6,0,P|32:156|77:226,1,160,4|8,0:0|0:0,0:0:0:0:
130,283,54377,1,0,0:0:0:0:
204,328,54558,2,0,P|272:339|298:341,1,80,2|2,0:0|0:0,0:0:0:0:
372,347,54922,1,8,0:0:0:0:
451,267,55104,5,0,0:0:0:0:
451,267,55195,1,0,0:0:0:0:
451,267,55286,1,2,0:0:0:0:
344,211,55468,1,2,0:0:0:0:
427,183,55649,2,0,L|470:93,1,80,8|0,0:0|0:0,0:0:0:0:
398,48,56013,2,0,P|315:69|242:52,1,160,2|8,0:0|0:0,0:0:0:0:
166,10,56558,1,0,0:0:0:0:
104,73,56740,6,0,L|83:155,1,80,2|2,0:0|0:0,0:0:0:0:
28,219,57104,1,8,0:0:0:0:
65,298,57286,1,0,0:0:0:0:
143,337,57468,2,0,P|182:346|231:335,1,80,0|2,0:0|0:0,0:0:0:0:
295,291,57831,1,8,0:0:0:0:
383,297,58013,1,4,0:0:0:0:
440,192,58195,5,0,0:0:0:0:
383,297,58377,1,0,0:0:0:0:
271,340,58558,1,8,0:0:0:0:
192,182,58922,1,0,0:0:0:0:
81,201,59104,1,2,0:0:0:0:
4,281,59286,1,12,0:0:0:0:
228,270,59649,6,0,P|289:254|321:166,1,160,4|8,0:0|0:0,0:0:0:0:
321,81,60195,1,0,0:0:0:0:
244,36,60377,2,0,L|151:25,1,80,2|2,0:0|0:0,0:0:0:0:
84,62,60740,1,8,0:0:0:0:
40,138,60922,1,0,0:0:0:0:
68,221,61104,6,0,L|90:297,1,80,0|2,0:0|0:0,0:0:0:0:
188,354,61468,1,8,0:0:0:0:
199,246,61649,1,0,0:0:0:0:
91,298,61831,1,0,0:0:0:0:
297,202,62013,1,2,0:0:0:0:
107,189,62195,2,0,P|81:158|74:121,1,80,8|0,0:0|0:0,0:0:0:0:
252,132,62558,6,0,P|212:120|161:128,1,80,8|2,0:0|0:0,0:0:0:0:
174,236,62922,2,0,L|186:320,1,80,8|2,0:0|0:0,0:0:0:0:
295,293,63286,2,0,L|283:213,1,80,8|2,0:0|0:0,0:0:0:0:
252,132,63649,1,8,0:0:0:0:
311,36,63831,5,2,0:0:0:0:
311,36,63922,1,2,0:0:0:0:
311,36,64013,1,12,0:0:0:0:
422,53,64195,1,0,0:0:0:0:
450,81,64286,1,0,0:0:0:0:
466,117,64377,1,0,0:0:0:0:
466,157,64468,1,0,0:0:0:0:
457,195,64558,1,4,0:0:0:0:
377,274,64740,5,0,0:0:0:0:
264,274,64922,1,0,0:0:0:0:
184,353,65104,2,0,P|99:328|58:275,1,120,4|8,0:0|0:0,0:0:0:0:
61,280,65468,6,0,P|37:204|74:121,1,160,4|8,0:0|0:0,0:0:0:0:
149,110,66013,1,0,0:0:0:0:
149,110,66103,1,0,0:0:0:0:
149,110,66195,2,0,P|216:149|293:136,1,160,2|8,0:0|0:0,0:0:0:0:
356,198,66741,1,0,0:0:0:0:
320,303,66922,5,2,0:0:0:0:
210,329,67104,1,0,0:0:0:0:
107,265,67286,2,0,P|99:215|112:178,1,80,8|0,0:0|0:0,0:0:0:0:
182,140,67650,2,0,P|256:159|353:129,1,160,0|8,0:0|0:0,0:0:0:0:
252,65,68195,1,0,0:0:0:0:
163,65,68377,6,0,P|122:90|105:127,1,80,2|2,0:0|0:0,0:0:0:0:
45,179,68740,1,8,0:0:0:0:
107,241,68922,2,0,P|148:216|162:188,1,80,0|2,0:0|0:0,0:0:0:0:
162,100,69286,1,2,0:0:0:0:
343,67,69468,1,8,0:0:0:0:
259,102,69649,5,4,0:0:0:0:
364,158,69831,1,0,0:0:0:0:
364,278,70013,1,0,0:0:0:0:
258,339,70195,1,4,0:0:0:0:
258,219,70377,1,0,0:0:0:0:
148,337,70558,5,6,0:0:0:0:
119,308,70649,1,8,0:0:0:0:
104,270,70740,1,8,0:0:0:0:
94,231,70831,1,8,0:0:0:0:
94,190,70922,1,8,0:0:0:0:
98,104,71104,1,0,0:0:0:0:
98,104,71195,1,0,0:0:0:0:
98,104,71286,6,0,P|174:77|248:111,1,160,4|8,0:0|0:0,0:0:0:0:
319,151,71831,1,0,0:0:0:0:
392,236,72013,2,0,P|322:265|246:238,1,160,0|8,0:0|0:0,0:0:0:0:
39,325,72740,6,0,L|127:289,1,80,4|0,0:0|0:0,0:0:0:0:
214,246,73104,1,8,0:0:0:0:
322,273,73286,1,0,0:0:0:0:
322,273,73377,1,0,0:0:0:0:
322,273,73468,1,0,0:0:0:0:
400,194,73649,1,2,0:0:0:0:
291,54,73831,1,8,0:0:0:0:
400,81,74013,1,0,0:0:0:0:
207,116,74195,6,0,P|201:160|204:196,1,80,4|0,0:0|0:0,0:0:0:0:
260,268,74558,1,8,0:0:0:0:
331,197,74740,2,0,P|333:161|327:117,1,80,4|0,0:0|0:0,0:0:0:0:
255,29,75104,5,12,0:0:0:0:
255,29,75468,1,4,0:0:0:0:
256,192,75649,12,0,76740,0:0:0:0:
78,83,77104,6,0,P|46:163|89:236,1,160,4|8,0:0|0:0,0:0:0:0:
140,286,77649,1,0,0:0:0:0:
217,329,77831,2,0,L|321:329,1,80,4|0,0:0|0:0,0:0:0:0:
372,286,78195,1,8,0:0:0:0:
436,225,78377,2,0,P|466:163|434:83,1,160,0|0,0:0|0:0,0:0:0:0:
346,42,78922,5,8,0:0:0:0:
346,42,79104,1,0,0:0:0:0:
166,42,79286,1,4,0:0:0:0:
328,109,79649,2,0,P|256:143|178:98,2,160,8|4|8,0:0|0:0|0:0,0:0:0:0:
339,285,80740,5,0,0:0:0:0:
182,365,81104,1,8,0:0:0:0:
244,302,81286,2,0,L|195:237,1,80,0|4,0:0|0:0,0:0:0:0:
149,163,81649,5,0,0:0:0:0:
63,185,81831,1,8,0:0:0:0:
85,99,82013,1,0,0:0:0:0:
167,69,82195,2,0,P|210:58|255:56,1,80
341,55,82558,1,8,0:0:0:0:
378,67,82649,1,8,0:0:0:0:
411,88,82740,1,8,0:0:0:0:
439,116,82831,1,8,0:0:0:0:
455,141,82922,6,0,P|473:201|452:262,2,120.000004577637,2|0|2,0:0|0:0|0:0,0:0:0:0:
348,196,84013,2,0,P|313:192|268:200,1,60.0000022888184
25,174,85104,1,0,0:0:0:0:
25,174,85468,1,2,0:0:0:0:
82,69,85831,6,0,P|134:48|192:67,1,120.000004577637,0|2,0:0|0:0,0:0:0:0:
256,168,86558,1,0,0:0:0:0:
324,69,86922,2,0,P|376:48|434:67,1,120.000004577637,2|0,0:0|0:0,0:0:0:0:
256,235,88013,5,0,0:0:0:0:
256,235,88377,1,2,0:0:0:0:
256,235,88740,1,2,0:0:0:0:
