osu file format v12

[General]
AudioFilename: Grow Slowly.mp3
AudioLeadIn: 2000
PreviewTime: 52922
Countdown: 0
SampleSet: Soft
StackLeniency: 0.7
Mode: 0
LetterboxInBreaks: 0

[Editor]
DistanceSpacing: 1.1
BeatDivisor: 4
GridSize: 4

[Metadata]
Title:Grow Slowly (TV Size)
TitleUnicode:Grow Slowly (TV Size)
Artist:Iguchi Yuka
ArtistUnicode:井口裕香
Creator:xChippy
Version:Hard
Source:Toaru Kagaku no Railgun S
Tags:Ending yanlu Sun Rainbow a certain scientific とある科学の超電磁砲 s ReySHeL
BeatmapID:247679
BeatmapSetID:91504

[Difficulty]
HPDrainRate:5
CircleSize:4
OverallDifficulty:6
ApproachRate:7
SliderMultiplier:1.3
SliderTickRate:2

[Events]
//Background and Video events
Video,0,"To Aru Kagaku no Railgun S ED.avi"
0,0,"To aru railgun.jpg",0,0
//Break Periods
//Storyboard Layer 0 (Background)
//Storyboard Layer 1 (Fail)
//Storyboard Layer 2 (Pass)
//Storyboard Layer 3 (Foreground)
//Storyboard Sound Samples
//Background Colour Transformations
3,100,163,162,255

[TimingPoints]
1468.00525445979,363.636363636364,4,2,1,70,1,0
2558,-100,4,2,1,50,0,0
4377,-100,4,2,1,70,0,0
5468,-100,4,2,1,50,0,0
7286,-100,4,2,1,70,0,0
8377,-100,4,2,1,50,0,0
10195,-100,4,2,1,60,0,0
12740,-100,4,2,1,40,0,0
17104,-100,4,2,1,40,0,0
23286,-100,4,2,0,40,0,0
24377,-100,4,2,1,70,0,0
29831,-100,4,2,1,70,0,0
49104,-100,4,2,1,80,0,0
53831,-100,4,2,1,80,0,1
77104,-100,4,2,1,80,0,0
82922,-133.333333333333,4,2,0,30,0,0
88740,-100,4,2,0,5,0,0

[Colours]
Combo1 : 255,150,0
Combo2 : 0,255,255
Combo3 : 255,128,255
Combo4 : 0,128,255
Combo5 : 128,0,255

[HitObjects]
86,65,1468,6,0,P|81:131|128:172,1,130,4|0,0:0|0:0,0:0:0:0:
147,103,2013,2,0,P|237:103|260:127,1,130,4|0,0:0|0:0,0:0:0:0:
300,187,2558,1,2,0:0:0:0:
350,136,2740,1,0,0:0:0:0:
400,85,2922,2,0,P|422:142|383:198,1,130,2|2,0:0|0:0,0:0:0:0:
289,300,3649,1,2,0:0:0:0:
151,264,4013,1,2,0:0:0:0:
209,133,4377,6,0,P|277:123|326:176,1,130,4|0,0:0|0:0,0:0:0:0:
255,191,4922,2,0,P|223:224|250:318,1,130,4|0,0:0|0:0,0:0:0:0:
287,256,5468,1,2,0:0:0:0:
337,205,5649,1,0,0:0:0:0:
387,255,5831,2,0,P|408:191|358:137,2,130,2|2|2,0:0|0:0|0:0,0:0:0:0:
387,255,6922,1,2,0:0:0:0:
257,311,7286,6,0,P|189:321|119:309,1,130,4|0,0:0|0:0,0:0:0:0:
67,275,7831,2,0,P|77:207|68:146,1,130,4|0,0:0|0:0,0:0:0:0:
91,78,8377,2,0,P|126:81|159:78,1,65,2|0,0:0|0:0,0:0:0:0:
174,147,8740,2,0,P|165:207|175:275,2,130,2|2|2,0:0|0:0|0:0,0:0:0:0:
208,84,9649,1,0,0:0:0:0:
258,135,9831,2,0,P|318:189|376:179,1,130,2|4,0:0|0:0,0:0:0:0:
333,117,10377,5,0,0:0:0:0:
409,101,10558,2,0,P|337:44|290:55,2,130,0|8|8,0:0|0:0|0:0,0:0:0:0:
389,170,11468,1,0,0:0:0:0:
338,220,11649,2,0,P|290:220|225:171,1,130,4|0,0:0|0:0,0:0:0:0:
97,108,12377,1,4,0:0:0:0:
97,108,12740,2,0,P|105:144|135:182,1,65
94,234,13104,6,0,P|160:228|192:172,2,130,4|0|2,0:0|0:0|0:0,0:0:0:0:
167,110,14195,1,2,0:0:0:0:
267,210,14558,1,2,0:0:0:0:
369,110,14922,1,2,0:0:0:0:
368,251,15286,2,0,P|307:296|233:297,1,130,2|2,0:0|0:0,0:0:0:0:
122,355,16013,6,0,P|137:289|116:200,1,130,0|2,0:0|0:0,0:0:0:0:
81,92,16740,1,2,0:0:0:0:
210,31,17104,1,2,0:0:0:0:
210,31,17286,1,0,0:0:0:0:
248,91,17468,2,0,L|208:151,1,65,2|0,0:0|0:0,0:0:0:0:
187,212,17831,2,0,L|220:299,1,65,2|0,0:0|0:0,0:0:0:0:
259,326,18195,1,2,0:0:0:0:
259,326,18377,2,0,P|325:325|380:288,1,130,4|0,0:0|0:0,0:0:0:0:
420,234,18922,6,0,P|439:163|426:105,1,130,4|2,0:0|0:0,0:0:0:0:
376,58,19468,1,0,0:0:0:0:
305,51,19649,1,10,0:0:0:0:
154,85,20013,6,0,P|135:156|148:214,1,130
183,271,20559,1,0,0:0:0:0:
253,254,20740,1,2,0:0:0:0:
338,105,21104,2,0,P|386:111|406:106,2,65,10|0|0,0:0|0:0|0:0,0:0:0:0:
204,60,21831,6,0,L|177:140,1,65,6|0,0:0|0:0,0:0:0:0:
162,190,22195,1,0,0:0:0:0:
162,190,22377,1,0,0:0:0:0:
102,242,22558,2,0,P|154:265|225:239,1,130,8|0,0:0|0:0,0:0:0:0:
254,179,23104,1,0,0:0:0:0:
280,112,23286,1,2,0:0:0:0:
119,198,24377,5,8,3:0:0:0:
65,65,24740,6,0,P|129:37|193:89,1,130,4|8,0:0|0:0,0:0:0:0:
119,198,25468,1,0,0:0:0:0:
176,324,25831,2,0,P|135:350|60:318,2,130,8|0|8,0:0|0:0|0:0,0:0:0:0:
120,280,26740,1,0,0:0:0:0:
185,250,26922,2,0,P|233:217|285:155,1,130,0|8,0:0|0:0,0:0:0:0:
318,102,27468,1,0,0:0:0:0:
400,81,27649,6,0,P|353:33|271:30,1,130,0|8,0:0|0:0,0:0:0:0:
222,38,28195,1,0,0:0:0:0:
156,66,28377,1,0,0:0:0:0:
107,119,28558,1,0,0:0:0:0:
90,189,28740,2,0,L|114:261,1,65,8|0,0:0|0:0,0:0:0:0:
132,319,29104,2,0,P|209:333|270:313,1,130,0|8,0:0|0:0,0:0:0:0:
258,320,29649,1,0,0:0:0:0:
383,250,30013,1,0,0:0:0:0:
383,250,30195,1,8,0:0:0:0:
483,149,30558,6,0,P|437:111|365:102,1,130,4|8,0:0|0:0,0:0:0:0:
297,101,31104,1,0,0:0:0:0:
246,151,31286,1,0,0:0:0:0:
195,201,31468,2,0,P|156:188|118:187,2,65,0|8|0,0:0|0:0|0:0,0:0:0:0:
221,267,32013,1,0,0:0:0:0:
221,267,32195,1,0,0:0:0:0:
271,317,32377,1,8,0:0:0:0:
271,317,32558,1,0,0:0:0:0:
321,266,32740,2,0,P|339:193|314:129,1,130,0|8,0:0|0:0,0:0:0:0:
193,82,33468,6,0,P|292:53|316:57,2,130,4|8|0,0:0|0:0|0:0,0:0:0:0:
155,142,34377,1,0,0:0:0:0:
155,213,34558,2,0,L|215:273,2,65,8|0|4,0:0|0:0|0:0,0:0:0:0:
357,285,35468,5,4,0:0:0:0:
357,285,36013,1,4,0:0:0:0:
256,140,36377,5,4,0:0:0:0:
256,140,36740,2,0,P|326:164|352:212,2,130,2|8|0,0:0|0:0|0:0,0:0:0:0:
154,241,37831,2,0,P|200:303|267:304,1,130,0|2,0:0|0:0,0:0:0:0:
318,294,38377,1,2,0:0:0:0:
391,309,38558,2,0,P|439:302|485:240,1,130,8|2,0:0|0:0,0:0:0:0:
368,141,39286,5,4,0:0:0:0:
368,141,39649,2,0,P|315:88|259:88,2,130,0|8|0,0:0|0:0|0:0,0:0:0:0:
404,216,40558,1,0,0:0:0:0:
368,283,40740,2,0,P|315:336|259:336,1,130,2|0,0:0|0:0,0:0:0:0:
191,315,41286,1,0,0:0:0:0:
119,337,41468,2,0,P|67:335|14:282,1,130,8|0,0:0|0:0,0:0:0:0:
200,245,42195,5,4,0:0:0:0:
200,245,42558,2,0,P|180:203|213:132,2,130,0|12|0,0:0|0:0|0:0,0:0:0:0:
256,194,43468,1,0,0:0:0:0:
309,245,43649,2,0,P|332:199|300:132,1,130,2|0,0:0|0:0,0:0:0:0:
229,118,44195,1,0,0:0:0:0:
162,144,44377,2,0,L|21:212,1,130,8|0,0:0|0:0,0:0:0:0:
73,305,44922,1,0,0:0:0:0:
73,305,45013,1,0,0:0:0:0:
73,305,45104,6,0,L|158:274,1,65,6|0,0:0|0:0,0:0:0:0:
134,204,45468,1,0,0:0:0:0:
134,204,45649,1,0,0:0:0:0:
134,125,45831,2,0,L|202:101,1,65,10|0,0:0|0:0,0:0:0:0:
268,74,46195,1,4,0:0:0:0:
268,74,46377,1,0,0:0:0:0:
268,151,46558,2,0,L|200:175,1,65,10|0,0:0|0:0,0:0:0:0:
206,251,46922,2,0,L|274:227,1,65,10|0,0:0|0:0,0:0:0:0:
267,307,47286,1,10,0:0:0:0:
267,307,47468,1,0,0:0:0:0:
337,319,47649,6,0,P|390:331|411:329,2,65,4|0|4,0:0|0:0|0:0,0:0:0:0:
314,250,48195,1,0,0:0:0:0:
330,180,48377,2,0,P|383:168|404:170,2,65,8|0|2,0:0|0:0|0:0,0:0:0:0:
279,129,48922,1,0,0:0:0:0:
228,179,49104,2,0,P|175:167|164:167,1,65,8|0,0:0|0:0,0:0:0:0:
113,116,49468,2,0,P|94:175|116:222,2,97.5,2|0|2,0:0|0:0|0:0,0:0:0:0:
165,168,50195,2,0,P|168:237|145:264,2,97.5,2|0|2,0:0|0:0|0:0,0:0:0:0:
189,36,50922,6,0,P|283:66|369:130,1,195,4|0,0:0|0:0,0:0:0:0:
361,252,51649,2,0,P|283:310|189:340,1,195,4|0,0:0|0:0,0:0:0:0:
119,193,52377,1,4,0:0:0:0:
333,193,52922,5,0,0:0:0:0:
404,193,53104,2,0,L|470:193,2,65
264,14,53831,6,0,P|237:87|196:129,1,130,4|8,0:0|0:0,0:0:0:0:
151,175,54377,1,0,0:0:0:0:
219,195,54558,2,0,P|302:206|370:190,1,130,0|8,0:0|0:0,0:0:0:0:
346,126,55104,1,0,0:0:0:0:
408,161,55286,2,0,P|416:109|404:85,2,65,0|0|8,0:0|0:0|0:0,0:0:0:0:
306,59,56013,2,0,P|200:29|156:33,1,130,0|8,0:0|0:0,0:0:0:0:
111,46,56558,1,0,0:0:0:0:
161,96,56740,6,0,P|175:166|175:239,1,130,4|8,0:0|0:0,0:0:0:0:
125,275,57286,1,0,0:0:0:0:
194,292,57468,2,0,P|274:280|321:248,1,130,0|8,0:0|0:0,0:0:0:0:
289,186,58013,1,0,0:0:0:0:
359,202,58195,2,0,P|359:166|328:129,2,65,0|0|8,0:0|0:0|0:0,0:0:0:0:
221,159,58922,1,0,0:0:0:0:
86,125,59286,1,8,0:0:0:0:
86,125,59468,1,0,0:0:0:0:
86,125,59649,6,0,P|86:221|110:253,1,130,4|8,0:0|0:0,0:0:0:0:
103,318,60195,1,0,0:0:0:0:
167,285,60377,2,0,P|215:269|273:211,1,130,0|8,0:0|0:0,0:0:0:0:
342,214,60922,1,0,0:0:0:0:
305,152,61104,2,0,P|249:97|201:81,1,130,0|8,0:0|0:0,0:0:0:0:
150,30,61649,2,0,P|129:71|137:111,1,65
27,190,62195,6,0,P|83:245|131:261,1,130,8|8,0:0|0:0,0:0:0:0:
273,260,62922,1,8,0:0:0:0:
400,195,63286,1,8,0:0:0:0:
274,126,63649,1,8,0:0:0:0:
274,126,64013,2,0,P|209:126|134:174,1,130,4|0,0:0|0:0,0:0:0:0:
88,187,64558,1,0,0:0:0:0:
148,225,64740,2,0,P|168:281|168:313,2,65,2|0|8,0:0|0:0|0:0,0:0:0:0:
182,85,65467,6,0,P|212:148|223:218,1,130,4|8,0:0|0:0,0:0:0:0:
199,274,66013,1,0,0:0:0:0:
269,261,66194,2,0,P|352:272|420:256,1,130,0|8,0:0|0:0,0:0:0:0:
456,223,66740,1,0,0:0:0:0:
390,194,66922,2,0,P|360:168|350:135,2,65,0|0|8,0:0|0:0|0:0,0:0:0:0:
496,292,67649,2,0,P|425:329|370:307,1,130,0|8,0:0|0:0,0:0:0:0:
327,269,68194,1,0,0:0:0:0:
278,217,68376,6,0,P|220:169|154:165,1,130,4|8,0:0|0:0,0:0:0:0:
108,203,68922,2,0,P|108:271|125:288,1,65
244,120,69468,1,8,0:0:0:0:
244,120,69649,2,0,P|272:104|314:102,2,65,0|0|0,0:0|0:0|0:0,0:0:0:0:
294,170,70195,2,0,P|329:206|368:206,1,65,8|0,0:0|0:0,0:0:0:0:
392,259,70558,2,0,L|347:302|258:314,1,130,0|8,0:0|0:0,0:0:0:0:
135,311,71286,6,0,P|72:299|33:230,1,130,4|8,0:0|0:0,0:0:0:0:
35,176,71831,1,0,0:0:0:0:
102,151,72013,2,0,P|187:186|197:234,1,130,0|8,0:0|0:0,0:0:0:0:
285,329,72740,2,0,P|352:297|414:239,1,130,0|8,0:0|0:0,0:0:0:0:
430,199,73286,1,0,0:0:0:0:
430,199,73468,1,0,0:0:0:0:
364,72,73831,6,0,P|320:67|276:80,1,65,8|0,0:0|0:0,0:0:0:0:
233,98,74195,2,0,L|196:239,1,130,4|0,0:0|0:0,0:0:0:0:
235,286,74740,2,0,P|183:294|131:238,1,130,4|4,0:0|0:0,0:0:0:0:
106,101,75468,1,4,0:0:0:0:
256,192,75649,12,2,76739,0:0:0:0:
112,56,77104,6,0,P|80:144|100:180,2,130,4|8|0,0:0|0:0|0:0,0:0:0:0:
255,56,78195,2,0,L|331:92,1,65,8|0,0:0|0:0,0:0:0:0:
379,111,78558,1,0,0:0:0:0:
379,111,78740,1,8,0:0:0:0:
358,179,78922,2,0,L|417:207,1,65,0|0,0:0|0:0,0:0:0:0:
480,173,79286,2,0,P|480:242|424:277,2,130,0|8|0,0:0|0:0|0:0,0:0:0:0:
460,104,80195,5,0,0:0:0:0:
460,104,80377,1,8,0:0:0:0:
460,104,80558,1,0,0:0:0:0:
396,70,80740,2,0,P|324:54|256:75,1,130,0|8,0:0|0:0,0:0:0:0:
204,95,81286,5,0,0:0:0:0:
204,95,81468,1,4,0:0:0:0:
254,145,81649,2,0,P|258:177|254:209,1,65
237,279,82013,1,0,0:0:0:0:
173,312,82195,1,8,0:0:0:0:
109,279,82377,1,0,0:0:0:0:
91,209,82558,2,0,P|87:176|91:144,1,65
88,68,82922,5,4,0:0:0:0:
88,68,83286,1,0,0:0:0:0:
88,68,83649,1,2,0:0:0:0:
88,68,84013,2,0,P|72:125|92:176,2,97.50000371933,2|0|0,0:0|0:0|0:0,2:0:0:0:
256,68,85104,5,2,0:0:0:0:
344,192,85468,2,0,P|388:264|417:282,1,97.50000371933,0|2,0:0|0:0,2:0:0:0:
256,68,86195,5,0,0:0:0:0:
256,68,86558,1,2,0:0:0:0:
168,192,86922,2,0,P|130:262|98:278,1,97.50000371933,0|2,0:0|0:0,2:0:0:0:
256,320,87649,5,0,0:0:0:0:
256,320,88013,1,2,0:0:0:0:
344,192,88377,2,0,P|386:266|412:280,1,97.50000371933,0|2,0:0|0:0,2:0:0:0:
