osu file format v12

[General]
AudioFilename: Grow Slowly (TV Size).mp3
AudioLeadIn: 1511
PreviewTime: 52410
Countdown: 0
SampleSet: None
StackLeniency: 0.7
Mode: 3
LetterboxInBreaks: 0

[Editor]
DistanceSpacing: 2
BeatDivisor: 4
GridSize: 8

[Metadata]
Title:Grow Slowly (TV Size)
TitleUnicode:Grow Slowly (TV Size)
Artist:Iguchi Yuka
ArtistUnicode:井口裕香
Creator:woc2006
Version:Normal
Source:Toaru Kagaku no Railgun S
Tags:Ending A Certain Scientific Railgun 2nd Season
BeatmapID:252973
BeatmapSetID:93865

[Difficulty]
HPDrainRate:7
CircleSize:7
OverallDifficulty:7
ApproachRate:5
SliderMultiplier:1.60000000596046
SliderTickRate:1

[Events]
//Background and Video events
0,0,"toarukagakunorailguns-01-large08.jpg",0,0
//Break Periods
//Storyboard Layer 0 (Background)
//Storyboard Layer 1 (Fail)
//Storyboard Layer 2 (Pass)
//Storyboard Layer 3 (Foreground)
//Storyboard Sound Samples
//Background Colour Transformations
3,100,163,162,255

[TimingPoints]
1138,363.636363636364,4,3,1,70,1,0
52410,-100,4,3,1,70,0,1
76774,-100,4,3,1,70,0,0
82592,-100,4,3,1,15,0,0

[HitObjects]
182,192,410,128,0,774:0:0:0:70:
329,192,774,1,8,0:0:0:70:
475,192,1138,1,4,0:0:0:70:
329,192,1501,128,2,1865:0:0:0:70:
182,192,1865,1,0,0:0:0:70:
475,192,2228,1,2,0:0:0:70:
109,192,2410,1,0,0:0:0:70:
475,192,2592,1,2,0:0:0:70:
109,192,2774,1,0,0:0:0:70:
475,192,2956,1,2,0:0:0:70:
109,192,3138,1,0,0:0:0:70:
475,192,3319,1,2,0:0:0:70:
109,192,3501,1,0,0:0:0:70:
475,192,3683,1,2,0:0:0:70:
109,192,3865,1,0,0:0:0:0:
256,192,4047,1,0,0:0:0:70:
109,192,4410,128,0,4774:0:0:0:0:
329,192,4774,1,0,0:0:0:70:
36,192,5137,1,2,0:0:0:70:
402,192,5319,1,0,0:0:0:70:
36,192,5501,1,2,0:0:0:70:
402,192,5683,1,0,0:0:0:70:
36,192,5865,1,2,0:0:0:70:
402,192,6047,1,0,0:0:0:70:
36,192,6228,1,2,0:0:0:70:
402,192,6410,1,0,0:0:0:70:
36,192,6592,1,2,0:0:0:70:
109,192,6956,1,0,0:0:0:35:
402,192,6956,1,0,0:0:0:35:
256,192,7319,128,0,7683:0:0:0:0:
182,192,7683,1,0,0:0:0:70:
475,192,8047,1,2,0:0:0:70:
402,192,8228,1,0,0:0:0:70:
329,192,8410,1,2,0:0:0:70:
36,192,8592,1,0,0:0:0:70:
109,192,8774,1,2,0:0:0:70:
182,192,8956,1,0,0:0:0:70:
36,192,9138,1,8,0:0:0:70:
402,192,9138,1,8,0:0:0:0:
109,192,9319,1,8,0:0:0:70:
182,192,9501,1,0,0:0:0:70:
256,192,9683,1,0,0:0:0:70:
475,192,9865,1,4,0:0:0:70:
402,192,10047,1,0,0:0:0:70:
329,192,10228,1,0,0:0:0:70:
256,192,10410,1,0,0:0:0:70:
182,192,10592,128,4,11319:0:0:0:70:
109,192,11319,128,0,12047:0:0:0:35:
329,192,12047,128,4,12774:0:0:0:70:
256,192,12774,1,2,0:0:0:70:
182,192,13138,1,2,0:0:0:70:
475,192,13319,1,0,0:0:0:70:
182,192,13501,1,2,0:0:0:70:
475,192,13683,1,0,0:0:0:70:
182,192,13865,1,2,0:0:0:70:
475,192,14047,1,0,0:0:0:70:
182,192,14228,1,2,0:0:0:70:
475,192,14410,1,0,0:0:0:70:
109,192,14592,1,2,0:0:0:70:
402,192,14774,1,0,0:0:0:70:
109,192,14956,1,2,0:0:0:70:
402,192,15138,1,0,0:0:0:70:
109,192,15319,1,2,0:0:0:70:
402,192,15501,1,0,0:0:0:70:
109,192,15683,1,2,0:0:0:70:
402,192,15865,1,0,0:0:0:70:
182,192,16047,1,2,0:0:0:70:
329,192,16228,1,0,0:0:0:70:
182,192,16410,1,2,0:0:0:70:
329,192,16592,1,0,0:0:0:70:
182,192,16774,1,2,0:0:0:70:
402,192,17138,1,0,0:0:0:35:
256,192,17138,1,2,0:0:0:35:
109,192,17501,1,0,0:0:0:35:
256,192,17501,1,2,0:0:0:35:
256,192,17865,1,2,0:0:0:35:
402,192,17865,1,0,0:0:0:35:
182,192,18047,1,0,0:0:0:35:
329,192,18047,1,0,0:0:0:35:
109,192,18592,1,2,0:0:0:35:
402,192,18592,1,2,0:0:0:35:
329,192,18956,1,0,0:0:0:70:
256,192,19319,1,8,0:0:0:70:
329,192,19683,1,0,0:0:0:70:
182,192,20047,1,0,0:0:0:70:
256,192,20228,1,0,0:0:0:70:
329,192,20410,1,0,0:0:0:70:
256,192,20592,1,0,0:0:0:70:
182,192,20774,1,8,0:0:0:70:
256,192,20956,1,0,0:0:0:70:
329,192,21138,1,0,0:0:0:70:
256,192,21319,1,0,0:0:0:70:
475,192,21501,1,4,0:0:0:70:
329,192,21683,1,0,0:0:0:70:
475,192,21865,1,0,0:0:0:70:
329,192,22047,1,0,0:0:0:70:
475,192,22228,1,0,0:0:0:35:
36,192,22228,128,8,22956:0:0:0:35:
329,192,22956,128,0,24047:0:0:0:70:
109,192,24047,1,8,0:0:0:70:
182,192,24410,1,4,0:0:0:35:
329,192,24410,1,4,0:0:0:35:
36,192,24774,1,8,0:0:0:70:
256,192,24956,1,0,0:0:0:70:
36,192,25138,1,2,0:0:0:70:
256,192,25319,1,0,0:0:0:70:
36,192,25501,1,8,0:0:0:70:
256,192,25683,1,0,0:0:0:70:
402,192,25865,1,0,0:0:0:70:
182,192,26228,1,8,0:0:0:70:
329,192,26410,1,0,0:0:0:70:
182,192,26592,1,2,0:0:0:70:
329,192,26774,1,0,0:0:0:70:
182,192,26956,1,8,0:0:0:70:
329,192,27138,1,0,0:0:0:70:
182,192,27319,1,2,0:0:0:70:
329,192,27683,1,8,0:0:0:70:
475,192,27865,1,0,0:0:0:70:
329,192,28047,1,2,0:0:0:70:
475,192,28228,1,0,0:0:0:70:
256,192,28410,1,8,0:0:0:70:
182,192,28592,1,0,0:0:0:70:
109,192,28774,1,2,0:0:0:70:
182,192,28956,1,0,0:0:0:70:
256,192,29138,1,8,0:0:0:70:
329,192,29319,1,0,0:0:0:70:
256,192,29501,1,0,0:0:0:70:
182,192,29683,1,0,0:0:0:70:
329,192,30228,1,4,0:0:0:70:
182,192,30592,1,8,0:0:0:70:
36,192,30774,1,0,0:0:0:70:
256,192,30956,1,2,0:0:0:70:
109,192,31138,1,2,0:0:0:70:
329,192,31319,1,8,0:0:0:70:
182,192,31501,1,0,0:0:0:70:
402,192,31683,1,2,0:0:0:70:
329,192,31865,1,0,0:0:0:70:
256,192,32047,1,8,0:0:0:70:
182,192,32228,1,0,0:0:0:70:
36,192,32410,1,2,0:0:0:70:
109,192,32592,1,2,0:0:0:70:
182,192,32774,1,8,0:0:0:70:
256,192,32956,1,0,0:0:0:70:
329,192,33138,1,4,0:0:0:35:
109,192,33138,1,4,0:0:0:35:
256,192,33501,1,8,0:0:0:70:
475,192,33683,1,0,0:0:0:70:
182,192,33865,1,2,0:0:0:70:
402,192,34047,1,0,0:0:0:70:
109,192,34228,1,8,0:0:0:70:
329,192,34410,1,0,0:0:0:70:
256,192,34592,128,0,35138:0:0:0:70:
475,192,34592,1,4,0:0:0:0:
182,192,35138,128,0,35683:0:0:0:70:
402,192,35138,1,4,0:0:0:0:
109,192,35683,128,0,36047:0:0:0:70:
329,192,35683,1,4,0:0:0:0:
475,192,36047,1,2,0:0:0:70:
402,192,36410,1,2,0:0:0:70:
329,192,36774,1,8,0:0:0:70:
256,192,37138,1,2,0:0:0:70:
475,192,37501,1,0,0:0:0:70:
182,192,37683,1,2,0:0:0:70:
475,192,37865,1,0,0:0:0:70:
182,192,38047,1,2,0:0:0:70:
329,192,38228,1,8,0:0:0:70:
36,192,38592,1,2,0:0:0:70:
109,192,38774,1,2,0:0:0:70:
182,192,38956,1,2,0:0:0:70:
475,192,39319,1,2,0:0:0:70:
402,192,39501,1,2,0:0:0:70:
329,192,39683,1,8,0:0:0:70:
182,192,40047,1,0,0:0:0:70:
329,192,40410,1,0,0:0:0:70:
256,192,40592,1,2,0:0:0:70:
329,192,40774,1,0,0:0:0:70:
256,192,40956,1,2,0:0:0:70:
182,192,41138,1,8,0:0:0:35:
402,192,41138,128,0,41865:0:0:0:35:
256,192,41865,128,0,42592:0:0:0:70:
182,192,41865,1,4,0:0:0:0:
109,192,42592,1,8,0:0:0:70:
256,192,42956,1,0,0:0:0:70:
182,192,43319,1,0,0:0:0:70:
109,192,43501,1,2,0:0:0:70:
256,192,43683,1,0,0:0:0:70:
329,192,43865,1,2,0:0:0:70:
402,192,44047,1,8,0:0:0:70:
256,192,44410,1,0,0:0:0:70:
329,192,44774,1,2,0:0:0:35:
109,192,44774,1,4,0:0:0:35:
109,192,45138,1,2,0:0:0:0:
402,192,45319,1,0,0:0:0:70:
109,192,45501,1,2,0:0:0:70:
402,192,45683,1,0,0:0:0:70:
109,192,45865,1,2,0:0:0:70:
402,192,46047,1,0,0:0:0:70:
182,192,46228,1,2,0:0:0:70:
329,192,46410,1,0,0:0:0:0:
182,192,46592,1,2,0:0:0:70:
329,192,46774,1,0,0:0:0:70:
182,192,46956,1,2,0:0:0:70:
329,192,47138,1,0,0:0:0:70:
182,192,47319,1,2,0:0:0:70:
329,192,47501,1,0,0:0:0:70:
182,192,47683,128,2,48047:0:0:0:70:
402,192,48047,1,0,0:0:0:0:
182,192,48228,1,0,0:0:0:70:
402,192,48410,1,2,0:0:0:70:
182,192,48592,1,0,0:0:0:70:
402,192,48774,1,2,0:0:0:70:
182,192,48956,1,0,0:0:0:70:
402,192,49138,1,2,0:0:0:70:
182,192,49319,1,0,0:0:0:70:
256,192,49501,1,8,0:0:0:70:
402,192,49683,1,2,0:0:0:70:
256,192,49865,128,2,50592:0:0:0:70:
182,192,50592,128,4,51319:0:0:0:35:
329,192,50592,128,4,51319:0:0:0:35:
109,192,51319,128,4,52047:0:0:0:35:
402,192,51319,128,4,52047:0:0:0:35:
36,192,52047,128,4,52774:0:0:0:35:
475,192,52047,128,4,52774:0:0:0:35:
109,192,53501,1,2,0:0:0:35:
402,192,53501,1,4,0:0:0:35:
182,192,53865,1,8,0:0:0:35:
329,192,53865,1,8,0:0:0:35:
36,192,54228,1,2,0:0:0:70:
109,192,54410,1,2,0:0:0:70:
182,192,54592,1,8,0:0:0:35:
402,192,54592,1,8,0:0:0:35:
36,192,54956,1,2,0:0:0:70:
109,192,55138,1,2,0:0:0:70:
182,192,55319,1,8,0:0:0:35:
402,192,55319,1,8,0:0:0:35:
475,192,55683,1,2,0:0:0:70:
402,192,55865,1,2,0:0:0:70:
329,192,56047,1,8,0:0:0:35:
109,192,56047,1,8,0:0:0:35:
475,192,56410,1,2,0:0:0:70:
402,192,56592,1,2,0:0:0:70:
329,192,56774,1,8,0:0:0:35:
109,192,56774,1,8,0:0:0:35:
109,192,57138,1,2,0:0:0:70:
182,192,57319,1,2,0:0:0:70:
256,192,57501,1,8,0:0:0:35:
475,192,57501,1,8,0:0:0:35:
402,192,57683,1,2,0:0:0:35:
182,192,57683,1,2,0:0:0:35:
109,192,58047,1,2,0:0:0:35:
329,192,58047,1,2,0:0:0:35:
182,192,58228,1,8,0:0:0:35:
402,192,58228,1,8,0:0:0:35:
109,192,58592,1,2,0:0:0:70:
182,192,58774,1,2,0:0:0:70:
256,192,58956,1,8,0:0:0:70:
475,192,58956,1,0,0:0:0:0:
182,192,59319,1,2,0:0:0:70:
256,192,59501,1,2,0:0:0:70:
329,192,59683,1,8,0:0:0:70:
475,192,59683,1,0,0:0:0:0:
402,192,60047,1,2,0:0:0:70:
329,192,60228,1,2,0:0:0:70:
256,192,60410,1,8,0:0:0:70:
36,192,60410,1,0,0:0:0:0:
329,192,60774,1,2,0:0:0:70:
256,192,60956,1,2,0:0:0:70:
182,192,61138,1,8,0:0:0:70:
36,192,61138,1,0,0:0:0:0:
475,192,61501,1,2,0:0:0:70:
402,192,61683,1,2,0:0:0:70:
329,192,61865,1,8,0:0:0:70:
36,192,61865,1,0,0:0:0:0:
182,192,62228,128,8,63683:0:0:0:70:
256,192,62592,128,8,63683:0:0:0:70:
329,192,62956,128,8,63683:0:0:0:70:
402,192,63319,128,8,63683:0:0:0:70:
475,192,63683,1,8,0:0:0:70:
109,192,64228,1,0,0:0:0:23:
402,192,64228,1,0,0:0:0:23:
256,192,64228,1,0,0:0:0:23:
109,192,64774,1,0,0:0:0:23:
256,192,64774,1,0,0:0:0:23:
402,192,64774,1,0,0:0:0:23:
36,192,65138,1,4,0:0:0:23:
475,192,65138,1,4,0:0:0:23:
256,192,65138,1,4,0:0:0:23:
402,192,65501,1,8,0:0:0:70:
109,192,65865,1,2,0:0:0:70:
256,192,66047,1,2,0:0:0:70:
402,192,66228,1,8,0:0:0:70:
109,192,66592,1,2,0:0:0:70:
256,192,66774,1,2,0:0:0:70:
402,192,66956,1,8,0:0:0:70:
109,192,67319,1,2,0:0:0:70:
256,192,67501,1,2,0:0:0:70:
402,192,67683,1,8,0:0:0:70:
402,192,68047,1,2,0:0:0:70:
256,192,68228,1,2,0:0:0:70:
109,192,68410,1,8,0:0:0:70:
402,192,68774,1,2,0:0:0:70:
256,192,68955,1,2,0:0:0:70:
109,192,69137,1,8,0:0:0:70:
256,192,69319,1,0,0:0:0:0:
475,192,69501,1,4,0:0:0:70:
329,192,69683,1,8,0:0:0:70:
182,192,69865,1,2,0:0:0:70:
36,192,70047,1,0,0:0:0:70:
256,192,70228,128,0,70956:0:0:0:70:
182,192,70956,128,4,71319:0:0:0:70:
402,192,71319,1,8,0:0:0:70:
256,192,71683,1,2,0:0:0:70:
475,192,71865,1,2,0:0:0:70:
256,192,72047,1,8,0:0:0:70:
182,192,72410,1,2,0:0:0:70:
402,192,72592,1,2,0:0:0:70:
182,192,72774,1,8,0:0:0:70:
109,192,73138,1,2,0:0:0:70:
329,192,73319,1,2,0:0:0:70:
109,192,73501,1,8,0:0:0:70:
36,192,73865,1,4,0:0:0:70:
256,192,74047,1,2,0:0:0:70:
36,192,74228,1,8,0:0:0:70:
182,192,74410,1,2,0:0:0:35:
329,192,74410,1,4,0:0:0:35:
182,192,74774,1,2,0:0:0:35:
329,192,74774,1,4,0:0:0:35:
256,192,75138,128,4,76410:0:0:0:70:
182,192,76774,1,6,0:0:0:70:
475,192,77138,1,0,0:0:0:70:
109,192,77319,1,2,0:0:0:70:
475,192,77501,1,8,0:0:0:70:
109,192,77683,1,2,0:0:0:70:
475,192,77865,1,4,0:0:0:70:
109,192,78047,1,2,0:0:0:70:
475,192,78228,1,0,0:0:0:70:
109,192,78410,1,8,0:0:0:70:
475,192,78592,128,0,79683:0:0:0:35:
256,192,78956,1,8,0:0:0:70:
256,192,79319,1,2,0:0:0:70:
182,192,79683,128,0,81138:0:0:0:70:
329,192,80047,1,0,0:0:0:70:
402,192,80228,1,2,0:0:0:70:
475,192,80410,1,0,0:0:0:70:
402,192,80592,1,2,0:0:0:70:
329,192,80774,1,0,0:0:0:70:
402,192,80956,1,2,0:0:0:70:
329,192,81138,128,0,82592:0:0:0:35:
36,192,81138,1,2,0:0:0:35:
109,192,81319,1,2,0:0:0:70:
36,192,81501,5,2,0:0:0:70:
109,192,81683,1,2,0:0:0:70:
182,192,81865,1,2,0:0:0:70:
109,192,82047,1,2,0:0:0:70:
182,192,82228,1,0,0:0:0:70:
256,192,82410,1,0,0:0:0:70:
182,192,82592,5,0,0:0:0:18:
329,192,82956,1,0,0:0:0:18:
402,192,83319,1,0,0:0:0:18:
475,192,83683,1,0,0:0:0:18:
36,192,83865,1,0,0:0:0:0:
182,192,84592,1,0,0:0:0:18:
256,192,84683,1,0,0:0:0:18:
329,192,84774,1,0,0:0:0:18:
109,192,85380,1,0,0:0:0:18:
182,192,85441,1,0,0:0:0:18:
256,192,86865,1,0,0:0:0:18:
182,192,88319,1,0,0:0:0:18:
256,192,88380,1,0,0:0:0:18:
329,192,88441,1,0,0:0:0:0:
