osu file format v12

[General]
AudioFilename: Grow Slowly.mp3
AudioLeadIn: 0
PreviewTime: 52220
Countdown: 0
SampleSet: Normal
StackLeniency: 0.7
Mode: 1
LetterboxInBreaks: 0
WidescreenStoryboard: 0

[Editor]
DistanceSpacing: 1
BeatDivisor: 2
GridSize: 8
TimelineZoom: 3.499999

[Metadata]
Title:Grow Slowly (TV Size)
TitleUnicode:Grow Slowly (TV Size)
Artist:Iguchi Yuka
ArtistUnicode:井口裕香
Creator:RenKun
Version:Futsuu
Source:To Aru Kagaku no Railgun S
Tags:ending majutsu とある科学の超電磁砲 misaka kuroko uiharu saten a certain scientific
BeatmapID:274281
BeatmapSetID:104264

[Difficulty]
HPDrainRate:4
CircleSize:3
OverallDifficulty:4
ApproachRate:4
SliderMultiplier:1.4
SliderTickRate:1

[Events]
//Background and Video events
0,0,"2013y07m11d_144138282.png",0,0
//Break Periods
//Storyboard Layer 0 (Background)
//Storyboard Layer 1 (Fail)
//Storyboard Layer 2 (Pass)
//Storyboard Layer 3 (Foreground)
//Storyboard Sound Samples
//Background Colour Transformations
3,100,163,162,255

[TimingPoints]
772,363.636363636364,4,1,0,80,1,0
12408,-100,4,1,0,60,0,0
21135,-100,4,1,0,80,0,0
53135,-100,4,1,0,80,0,1
82226,-100,4,1,0,50,0,0

[Colours]
Combo1 : 32,233,255
Combo2 : 255,66,70

[HitObjects]
256,192,772,5,6,0:0:0:0:
256,192,1317,1,4,0:0:0:0:
256,192,1862,1,2,0:0:0:0:
256,192,2226,1,0,0:0:0:0:
256,192,2590,1,0,0:0:0:0:
256,192,2953,1,0,0:0:0:0:
256,192,3135,1,0,0:0:0:0:
256,192,3317,1,0,0:0:0:0:
256,192,3681,1,4,0:0:0:0:
256,192,4226,1,6,0:0:0:0:
256,192,4772,1,0,0:0:0:0:
256,192,5135,1,2,0:0:0:0:
256,192,5499,1,2,0:0:0:0:
256,192,5862,1,2,0:0:0:0:
256,192,6044,1,2,0:0:0:0:
256,192,6226,1,2,0:0:0:0:
256,192,6590,1,6,0:0:0:0:
256,192,7135,1,4,0:0:0:0:
256,192,7681,1,2,0:0:0:0:
256,192,8044,1,0,0:0:0:0:
256,192,8408,1,0,0:0:0:0:
256,192,8772,1,0,0:0:0:0:
256,192,8953,1,0,0:0:0:0:
256,192,9135,1,0,0:0:0:0:
256,192,9499,1,2,0:0:0:0:
256,192,10226,1,0,0:0:0:0:
256,192,10953,1,0,0:0:0:0:
256,192,11681,1,2,0:0:0:0:
256,192,12408,1,0,0:0:0:0:
256,192,12772,1,2,0:0:0:0:
256,192,13499,1,2,0:0:0:0:
256,192,13862,1,0,0:0:0:0:
256,192,14226,1,2,0:0:0:0:
256,192,14953,1,0,0:0:0:0:
256,192,15317,1,2,0:0:0:0:
256,192,15681,1,0,0:0:0:0:
256,192,16408,1,0,0:0:0:0:
256,192,16772,1,2,0:0:0:0:
256,192,17135,1,2,0:0:0:0:
256,192,17681,1,6,0:0:0:0:
256,192,18226,1,0,0:0:0:0:
256,192,18953,1,2,0:0:0:0:
256,192,19681,1,0,0:0:0:0:
256,192,20408,1,2,0:0:0:0:
256,192,21135,1,0,0:0:0:0:
256,192,21317,1,0,0:0:0:0:
256,192,21499,1,0,0:0:0:0:
256,192,21862,1,2,0:0:0:0:
256,192,22590,1,0,0:0:0:0:
256,192,23681,1,2,0:0:0:0:
256,192,24044,1,0,0:0:0:0:
256,192,24408,1,2,0:0:0:0:
256,192,24772,1,0,0:0:0:0:
256,192,24953,1,0,0:0:0:0:
256,192,25135,1,2,0:0:0:0:
256,192,25499,1,0,0:0:0:0:
256,192,25862,1,2,0:0:0:0:
256,192,26226,1,0,0:0:0:0:
256,192,26408,1,0,0:0:0:0:
256,192,26590,1,2,0:0:0:0:
256,192,26953,1,0,0:0:0:0:
256,192,27681,1,0,0:0:0:0:
256,192,28044,1,2,0:0:0:0:
256,192,28226,1,0,0:0:0:0:
256,192,28408,1,0,0:0:0:0:
256,192,28772,1,2,0:0:0:0:
256,192,28953,1,0,0:0:0:0:
256,192,29317,1,2,0:0:0:0:
256,192,29862,1,0,0:0:0:0:
256,192,30226,1,0,0:0:0:0:
256,192,30408,1,0,0:0:0:0:
256,192,30772,1,2,0:0:0:0:
256,192,30953,1,0,0:0:0:0:
256,192,31681,1,0,0:0:0:0:
256,192,32044,1,2,0:0:0:0:
256,192,32408,1,0,0:0:0:0:
256,192,32772,1,0,0:0:0:0:
256,192,33499,1,0,0:0:0:0:
256,192,34226,1,4,0:0:0:0:
256,192,34772,1,6,0:0:0:0:
256,192,35317,1,4,0:0:0:0:
256,192,35681,1,0,0:0:0:0:
256,192,37135,1,0,0:0:0:0:
256,192,37862,1,0,0:0:0:0:
256,192,38590,1,2,0:0:0:0:
256,192,40044,1,0,0:0:0:0:
256,192,40772,1,2,0:0:0:0:
256,192,41499,1,0,0:0:0:0:
256,192,42226,1,0,0:0:0:0:
256,192,42953,1,2,0:0:0:0:
256,192,43681,1,0,0:0:0:0:
256,192,44408,1,0,0:0:0:0:
256,192,44772,1,2,0:0:0:0:
256,192,45135,1,0,0:0:0:0:
256,192,45317,1,0,0:0:0:0:
256,192,45499,1,2,0:0:0:0:
256,192,45862,1,0,0:0:0:0:
256,192,46226,1,2,0:0:0:0:
256,192,46590,1,0,0:0:0:0:
256,192,46772,1,0,0:0:0:0:
256,192,46953,1,2,0:0:0:0:
256,192,47317,1,0,0:0:0:0:
256,192,48044,1,0,0:0:0:0:
256,192,48408,1,0,0:0:0:0:
256,192,48772,1,2,0:0:0:0:
256,192,49499,1,2,0:0:0:0:
256,192,50226,1,4,0:0:0:0:
256,192,50953,1,4,0:0:0:0:
256,192,51681,1,6,0:0:0:0:
256,192,53135,1,4,0:0:0:0:
256,192,53499,1,0,0:0:0:0:
256,192,53862,1,2,0:0:0:0:
256,192,54589,1,0,0:0:0:0:
256,192,54772,1,2,0:0:0:0:
256,192,54953,1,2,0:0:0:0:
256,192,55317,1,0,0:0:0:0:
256,192,56044,1,2,0:0:0:0:
256,192,56408,1,2,0:0:0:0:
256,192,56772,1,0,0:0:0:0:
256,192,57499,1,2,0:0:0:0:
256,192,57681,1,0,0:0:0:0:
256,192,57862,1,0,0:0:0:0:
256,192,58226,1,2,0:0:0:0:
256,192,58953,1,0,0:0:0:0:
256,192,59681,1,0,0:0:0:0:
256,192,60408,1,2,0:0:0:0:
256,192,60772,1,0,0:0:0:0:
256,192,61135,1,2,0:0:0:0:
256,192,61862,1,0,0:0:0:0:
256,192,62226,1,0,0:0:0:0:
256,192,62590,1,2,0:0:0:0:
256,192,62953,1,2,0:0:0:0:
256,192,63317,1,2,0:0:0:0:
256,192,63499,1,2,0:0:0:0:
256,192,63681,1,0,0:0:0:0:
256,192,64044,1,2,0:0:0:0:
256,192,64772,1,4,0:0:0:0:
256,192,65136,1,0,0:0:0:0:
256,192,65499,1,2,0:0:0:0:
256,192,66226,1,0,0:0:0:0:
256,192,66408,1,2,0:0:0:0:
256,192,66590,1,2,0:0:0:0:
256,192,66954,1,0,0:0:0:0:
256,192,67681,1,2,0:0:0:0:
256,192,68044,1,2,0:0:0:0:
256,192,68409,1,0,0:0:0:0:
256,192,68772,1,0,0:0:0:0:
256,192,68953,1,2,0:0:0:0:
256,192,69135,1,0,0:0:0:0:
256,192,69317,1,0,0:0:0:0:
256,192,69499,1,2,0:0:0:0:
256,192,69863,1,0,0:0:0:0:
256,192,70226,1,2,0:0:0:0:
256,192,70590,1,0,0:0:0:0:
256,192,71317,1,2,0:0:0:0:
256,192,72044,1,0,0:0:0:0:
256,192,72408,1,2,0:0:0:0:
256,192,72590,1,0,0:0:0:0:
256,192,73135,1,0,0:0:0:0:
256,192,73317,1,0,0:0:0:0:
256,192,73499,1,2,0:0:0:0:
256,192,73862,1,0,0:0:0:0:
256,192,74044,1,2,0:0:0:0:
256,192,74408,1,0,0:0:0:0:
256,192,74772,1,6,0:0:0:0:
256,192,76408,1,0,0:0:0:0:
256,192,77135,1,2,0:0:0:0:
256,192,77862,1,0,0:0:0:0:
256,192,78590,1,0,0:0:0:0:
256,192,78953,1,0,0:0:0:0:
256,192,79317,1,2,0:0:0:0:
256,192,80044,1,0,0:0:0:0:
256,192,80408,1,0,0:0:0:0:
256,192,80772,1,2,0:0:0:0:
256,192,81135,1,0,0:0:0:0:
256,192,81499,1,0,0:0:0:0:
256,192,81862,1,2,0:0:0:0:
256,192,82044,1,2,0:0:0:0:
256,192,82226,1,0,0:0:0:0:
256,192,82953,1,2,0:0:0:0:
256,192,83681,1,0,0:0:0:0:
256,192,84408,1,0,0:0:0:0:
256,192,84772,1,2,0:0:0:0:
256,192,85862,1,0,0:0:0:0:
256,192,86225,1,2,0:0:0:0:
256,192,87317,1,2,0:0:0:0:
256,192,87681,1,0,0:0:0:0:
256,192,88044,1,0,0:0:0:0:
