osu file format v13

[General]
AudioFilename: Grow Slowly.mp3
AudioLeadIn: 0
PreviewTime: 52922
Countdown: 0
SampleSet: Soft
StackLeniency: 0.7
Mode: 3
LetterboxInBreaks: 0
SpecialStyle: 0
WidescreenStoryboard: 1

[Editor]
Bookmarks: 24377,52922
DistanceSpacing: 0.8
BeatDivisor: 4
GridSize: 8
TimelineZoom: 1.8

[Metadata]
Title:Grow Slowly (TV Size)
TitleUnicode:Grow Slowly (TV Size)
Artist:Iguchi Yuka
ArtistUnicode:井口裕香
Creator:HinagikuKatsura
Version:7K SC
Source:To Aru Kagaku no Railgun S
Tags:Ending a certain scientific Bobbias victorica_db
BeatmapID:344008
BeatmapSetID:137586

[Difficulty]
HPDrainRate:9
CircleSize:7
OverallDifficulty:8
ApproachRate:5
SliderMultiplier:0.999999904632566
SliderTickRate:1

[Events]
//Background and Video events
0,0,"To aru railgun.jpg",0,0
//Break Periods
//Storyboard Layer 0 (Background)
//Storyboard Layer 1 (Fail)
//Storyboard Layer 2 (Pass)
//Storyboard Layer 3 (Foreground)
//Storyboard Sound Samples
//Background Colour Transformations
3,100,163,162,255

[TimingPoints]
13,363.636363636364,4,2,1,60,1,0
52922,-33.3333333333333,4,2,1,60,0,0
53103,-1000,4,2,1,60,0,0
53467,-100,4,2,1,60,0,0
53831,-100,4,2,1,60,0,1
77104,-100,4,2,1,60,0,0

[HitObjects]
475,192,740,5,0,0:0:0:0:
402,192,831,1,0,0:0:0:0:
329,192,922,1,0,0:0:0:0:
256,192,1013,1,0,0:0:0:0:
36,192,1103,5,0,0:0:0:70:snare.wav
182,192,1103,1,0,0:0:0:0:
109,192,1467,1,0,0:0:0:70:bassdrum.wav
256,192,1467,1,4,2:0:0:0:
402,192,1467,128,0,1831:0:0:0:0:
475,192,1467,1,0,0:0:0:0:
182,192,1831,1,0,0:0:0:70:bassdrum.wav
36,192,2013,1,0,0:0:0:70:snare.wav
256,192,2013,1,4,2:0:0:0:
329,192,2013,128,0,2558:0:0:0:0:
475,192,2013,1,0,0:0:0:0:
109,192,2194,1,0,0:0:0:70:bassdrum.wav
182,192,2376,1,0,0:0:0:0:
402,192,2558,1,0,0:0:0:70:bassdrum.wav
475,192,2558,1,0,0:0:0:0:
256,192,2740,1,0,0:0:0:0:
182,192,2922,1,0,0:0:0:70:bassdrum.wav
109,192,2922,1,0,0:0:0:0:
256,192,3103,1,0,0:0:0:0:
36,192,3103,1,0,0:0:0:0:
329,192,3285,1,0,0:0:0:70:bassdrum.wav
402,192,3285,1,0,0:0:0:0:
475,192,3467,1,0,0:0:0:0:
182,192,3467,1,0,0:0:0:0:
109,192,3649,1,0,0:0:0:70:bassdrum.wav
36,192,3649,1,0,0:0:0:0:
402,192,3831,1,0,0:0:0:0:
182,192,3831,1,0,0:0:0:0:
256,192,4013,1,0,0:0:0:70:bassdrum.wav
475,192,4013,128,0,4376:0:0:0:0:
329,192,4013,1,0,0:0:0:0:
109,192,4376,1,0,0:0:0:70:snare.wav
329,192,4376,1,0,0:0:0:70:bassdrum.wav
402,192,4376,1,4,2:0:0:0:
182,192,4376,128,0,4740:0:0:0:0:
402,192,4740,1,0,0:0:0:70:bassdrum.wav
36,192,4922,1,0,0:0:0:70:snare.wav
256,192,4922,1,4,2:0:0:0:
329,192,4922,128,0,5467:0:0:0:0:
182,192,5103,1,0,0:0:0:70:bassdrum.wav
109,192,5467,1,0,0:0:0:70:bassdrum.wav
402,192,5467,1,0,0:0:0:0:
256,192,5649,1,0,0:0:0:0:
182,192,5831,1,0,0:0:0:70:bassdrum.wav
475,192,5831,1,0,0:0:0:0:
402,192,6013,1,0,0:0:0:0:
36,192,6194,1,0,0:0:0:70:bassdrum.wav
329,192,6194,1,0,0:0:0:0:
402,192,6376,1,0,0:0:0:0:
182,192,6558,1,0,0:0:0:70:bassdrum.wav
475,192,6558,1,0,0:0:0:0:
256,192,6740,1,0,0:0:0:0:
329,192,6922,1,0,0:0:0:70:bassdrum.wav
402,192,6922,128,0,7285:0:0:0:0:
36,192,7285,1,0,0:0:0:70:snare.wav
109,192,7285,1,0,0:0:0:70:bassdrum.wav
256,192,7285,1,4,2:0:0:0:
475,192,7285,128,0,7649:0:0:0:0:
109,192,7649,1,0,0:0:0:70:bassdrum.wav
36,192,7831,1,0,0:0:0:70:snare.wav
256,192,7831,1,4,2:0:0:0:
329,192,7831,128,0,8376:0:0:0:0:
182,192,8013,1,0,0:0:0:70:bassdrum.wav
109,192,8194,1,0,0:0:0:0:
182,192,8376,1,0,0:0:0:70:bassdrum.wav
402,192,8376,1,0,0:0:0:0:
475,192,8558,1,0,0:0:0:0:
36,192,8740,1,0,0:0:0:70:bassdrum.wav
256,192,8740,1,0,0:0:0:0:
182,192,8922,1,0,0:0:0:0:
402,192,8922,1,0,0:0:0:0:
109,192,9103,1,0,0:0:0:70:bassdrum.wav
329,192,9103,1,0,0:0:0:0:
475,192,9285,1,0,0:0:0:0:
36,192,9285,128,0,10194:0:0:0:0:
256,192,9467,1,0,0:0:0:70:snare.wav
402,192,9467,1,0,0:0:0:0:
182,192,9649,1,0,0:0:0:70:snare.wav
329,192,9649,1,0,0:0:0:0:
256,192,9831,1,0,0:0:0:70:snare.wav
402,192,9831,1,0,0:0:0:0:
256,192,10194,1,4,2:0:0:0:
329,192,10194,128,0,10922:0:0:0:0:
182,192,10194,1,0,0:0:0:0:
475,192,10376,1,0,0:0:0:70:snare.wav
109,192,10376,1,0,0:0:0:0:
402,192,10558,1,0,0:0:0:70:bassdrum.wav
256,192,10740,1,0,0:0:0:70:bassdrum.wav
182,192,10922,1,0,0:0:0:70:snare.wav
36,192,10922,1,4,2:0:0:0:
402,192,10922,128,0,11649:0:0:0:0:
109,192,11285,1,0,0:0:0:70:bassdrum.wav
475,192,11649,1,0,0:0:0:70:bassdrum.wav
36,192,11649,1,4,2:0:0:0:
182,192,11649,128,0,12376:0:0:0:0:
109,192,12376,1,0,0:0:0:70:bassdrum.wav
402,192,12376,1,4,2:0:0:0:
329,192,12376,128,0,13103:0:0:0:0:
109,192,13103,1,0,0:0:0:70:bassdrum.wav
256,192,13103,1,4,2:0:0:0:
475,192,13103,1,0,0:0:0:0:
256,192,13467,1,0,0:0:0:70:bassdrum.wav
402,192,13649,1,0,0:0:0:0:
109,192,13649,1,0,0:0:0:0:
256,192,13831,1,0,0:0:0:70:bassdrum.wav
475,192,14013,1,0,0:0:0:0:
36,192,14013,1,0,0:0:0:0:
329,192,14194,1,0,0:0:0:70:bassdrum.wav
182,192,14194,1,0,0:0:0:0:
256,192,14376,1,0,0:0:0:0:
402,192,14558,1,0,0:0:0:70:bassdrum.wav
109,192,14558,1,0,0:0:0:0:
256,192,14740,1,0,0:0:0:0:
36,192,14922,1,0,0:0:0:70:bassdrum.wav
475,192,14922,1,0,0:0:0:0:
182,192,15103,1,0,0:0:0:0:
329,192,15103,1,0,0:0:0:0:
256,192,15285,1,0,0:0:0:70:bassdrum.wav
109,192,15467,1,0,0:0:0:0:
402,192,15467,1,0,0:0:0:0:
256,192,15649,1,0,0:0:0:70:bassdrum.wav
36,192,15831,1,0,0:0:0:0:
475,192,16013,1,0,0:0:0:70:bassdrum.wav
329,192,16013,1,0,0:0:0:0:
402,192,16194,1,0,0:0:0:0:
256,192,16376,1,0,0:0:0:70:bassdrum.wav
182,192,16558,1,0,0:0:0:0:
329,192,16558,1,0,0:0:0:0:
36,192,16740,1,0,0:0:0:70:bassdrum.wav
109,192,16922,1,0,0:0:0:0:
256,192,16922,1,0,0:0:0:0:
475,192,17103,1,0,0:0:0:70:bassdrum.wav
329,192,17103,1,0,0:0:0:0:
256,192,17285,1,0,0:0:0:0:
109,192,17467,1,0,0:0:0:0:
402,192,17467,128,0,17831:0:0:0:70:bassdrum.wav
256,192,17649,1,0,0:0:0:0:
36,192,17831,1,0,0:0:0:70:bassdrum.wav
109,192,18013,1,0,0:0:0:0:
329,192,18013,1,0,0:0:0:0:
182,192,18194,1,0,0:0:0:70:bassdrum.wav
402,192,18194,1,0,0:0:0:0:
109,192,18376,1,0,0:0:0:70:bassdrum.wav
256,192,18376,1,4,2:0:0:0:
475,192,18376,1,0,0:0:0:0:
182,192,18922,1,0,0:0:0:70:bassdrum.wav
402,192,18922,1,0,0:0:0:0:
109,192,19285,1,0,0:0:0:0:
329,192,19649,1,0,0:0:0:70:snare.wav
475,192,19649,1,0,0:0:0:10:snare.wav
256,192,20013,1,0,0:0:0:0:
36,192,20255,1,0,0:0:0:0:
109,192,20316,1,0,0:0:0:0:
402,192,20376,1,0,0:0:0:0:
182,192,20376,1,0,0:0:0:0:
329,192,20558,1,0,0:0:0:0:
256,192,20740,1,0,0:0:0:0:
182,192,20922,1,0,0:0:0:0:
402,192,21103,1,0,0:0:0:70:snare.wav
109,192,21103,1,0,0:0:0:0:
36,192,21285,1,0,0:0:0:0:
402,192,21467,1,0,0:0:0:70:snare.wav
109,192,21467,1,0,0:0:0:0:
329,192,21649,1,0,0:0:0:0:
475,192,21831,1,4,2:0:0:0:
109,192,21831,128,0,22013:0:0:0:70:bassdrum.wav
36,192,22013,1,0,0:0:0:0:
402,192,22013,128,0,22194:0:0:0:0:
182,192,22194,128,0,22376:0:0:0:0:
475,192,22194,1,0,0:0:0:0:
402,192,22376,1,0,0:0:0:70:bassdrum.wav
109,192,22376,1,0,0:0:0:0:
329,192,22376,128,0,22558:0:0:0:0:
182,192,22558,1,0,0:0:0:70:snare.wav
256,192,22558,128,0,23285:0:0:0:0:
475,192,22558,1,0,0:0:0:0:
109,192,22740,1,0,0:0:0:70:bassdrum.wav
402,192,22922,1,0,0:0:0:0:
475,192,23285,1,0,0:0:0:0:
36,192,24376,1,0,0:0:0:70:snare.wav
182,192,24376,1,0,0:0:0:0:
109,192,24740,1,0,0:0:0:70:bassdrum.wav
256,192,24740,1,4,2:0:0:0:
36,192,25103,1,0,0:0:0:70:snare.wav
475,192,25103,1,0,0:0:0:0:
256,192,25285,1,0,0:0:0:0:
109,192,25467,1,0,0:0:0:70:bassdrum.wav
329,192,25467,1,0,0:0:0:0:
182,192,25649,1,0,0:0:0:70:bassdrum.wav
402,192,25649,1,0,0:0:0:0:
109,192,25831,1,0,0:0:0:70:snare.wav
329,192,25831,1,0,0:0:0:0:
402,192,26013,1,0,0:0:0:0:
182,192,26194,128,0,26558:0:0:0:0:
475,192,26194,128,0,26558:0:0:0:70:bassdrum.wav
36,192,26558,1,0,0:0:0:70:snare.wav
329,192,26558,1,0,0:0:0:0:
109,192,26740,1,0,0:0:0:0:
182,192,26922,1,0,0:0:0:70:bassdrum.wav
475,192,26922,1,0,0:0:0:0:
402,192,27103,1,0,0:0:0:0:
36,192,27285,1,0,0:0:0:70:snare.wav
329,192,27285,1,0,0:0:0:0:
402,192,27467,1,0,0:0:0:0:
475,192,27649,1,0,0:0:0:70:bassdrum.wav
329,192,27649,128,0,28013:0:0:0:0:
36,192,28013,1,0,0:0:0:70:snare.wav
256,192,28013,1,0,0:0:0:0:
109,192,28194,1,0,0:0:0:0:
182,192,28376,1,0,0:0:0:70:bassdrum.wav
402,192,28376,1,0,0:0:0:0:
36,192,28558,1,0,0:0:0:70:bassdrum.wav
475,192,28558,1,0,0:0:0:0:
256,192,28558,1,0,0:0:0:0:
109,192,28740,1,0,0:0:0:70:snare.wav
182,192,28740,128,0,28922:0:0:0:0:
329,192,28740,1,0,0:0:0:0:
475,192,28922,1,0,0:0:0:0:
256,192,28922,128,0,29103:0:0:0:0:
109,192,29103,1,0,0:0:0:70:bassdrum.wav
329,192,29103,128,0,29285:0:0:0:0:
402,192,29103,1,0,0:0:0:0:
109,192,29285,128,0,29467:0:0:0:0:
475,192,29467,1,0,0:0:0:70:snare.wav
182,192,29467,128,0,29649:0:0:0:0:
36,192,29467,1,0,0:0:0:0:
256,192,29649,128,0,29831:0:0:0:0:
402,192,29649,1,0,0:0:0:0:
109,192,29831,1,0,0:0:0:70:bassdrum.wav
329,192,29831,1,0,0:0:0:0:
182,192,30013,1,0,0:0:0:70:bassdrum.wav
402,192,30013,128,0,30558:0:0:0:0:
475,192,30013,1,0,0:0:0:0:
256,192,30194,1,0,0:0:0:70:snare.wav
36,192,30558,1,0,0:0:0:70:bassdrum.wav
329,192,30558,1,4,2:0:0:0:
109,192,30922,1,0,0:0:0:70:snare.wav
402,192,30922,1,0,0:0:0:0:
256,192,31103,1,0,0:0:0:0:
109,192,31285,1,0,0:0:0:70:bassdrum.wav
402,192,31285,1,0,0:0:0:0:
182,192,31467,1,0,0:0:0:70:bassdrum.wav
329,192,31467,1,0,0:0:0:0:
36,192,31649,1,0,0:0:0:70:snare.wav
475,192,31649,1,0,0:0:0:0:
256,192,31831,1,0,0:0:0:0:
109,192,32013,1,0,0:0:0:70:bassdrum.wav
36,192,32013,128,0,32194:0:0:0:0:
402,192,32013,1,0,0:0:0:0:
182,192,32194,128,0,32376:0:0:0:0:
475,192,32194,1,0,0:0:0:0:
256,192,32376,1,0,0:0:0:70:snare.wav
402,192,32376,128,0,32558:0:0:0:0:
109,192,32558,128,0,32740:0:0:0:0:
329,192,32558,1,0,0:0:0:0:
256,192,32740,1,0,0:0:0:70:bassdrum.wav
329,192,32740,128,0,32922:0:0:0:0:
36,192,32740,1,0,0:0:0:0:
182,192,32922,1,0,0:0:0:70:bassdrum.wav
475,192,32922,128,0,33103:0:0:0:0:
109,192,33103,1,0,0:0:0:70:snare.wav
256,192,33103,128,0,33467:0:0:0:0:
402,192,33103,1,0,0:0:0:0:
36,192,33285,1,0,0:0:0:0:
182,192,33467,1,0,0:0:0:70:bassdrum.wav
475,192,33467,1,0,0:0:0:0:
36,192,33831,1,0,0:0:0:70:snare.wav
329,192,33831,1,0,0:0:0:0:
109,192,34013,1,0,0:0:0:0:
182,192,34194,1,0,0:0:0:70:bassdrum.wav
475,192,34194,1,0,0:0:0:0:
109,192,34376,1,0,0:0:0:70:bassdrum.wav
402,192,34376,1,0,0:0:0:0:
36,192,34558,1,0,0:0:0:70:snare.wav
329,192,34558,1,0,0:0:0:0:
109,192,34740,1,0,0:0:0:70:bassdrum.wav
402,192,34740,1,0,0:0:0:0:
182,192,34922,1,0,0:0:0:70:snare.wav
256,192,34922,1,4,2:0:0:0:
475,192,34922,128,0,35376:0:0:0:0:
329,192,34922,1,0,0:0:0:0:
36,192,35103,1,0,0:0:0:70:bassdrum.wav
109,192,35285,1,0,0:0:0:70:bassdrum.wav
182,192,35467,1,0,0:0:0:70:snare.wav
475,192,35467,128,0,35922:0:0:0:0:
329,192,35467,1,0,0:0:0:0:
109,192,35649,1,0,0:0:0:70:bassdrum.wav
256,192,35831,1,0,0:0:0:70:bassdrum.wav
36,192,36013,1,0,0:0:0:70:snare.wav
475,192,36013,128,0,36376:0:0:0:0:
182,192,36013,1,0,0:0:0:0:
109,192,36376,1,0,0:0:0:70:bassdrum.wav
329,192,36376,1,4,2:0:0:0:
256,192,36376,128,0,37831:0:0:0:0:
402,192,36740,1,0,0:0:0:70:bassdrum.wav
36,192,37103,1,0,0:0:0:70:snare.wav
329,192,37103,1,0,0:0:0:0:
109,192,37467,1,0,0:0:0:0:
475,192,37649,1,0,0:0:0:70:bassdrum.wav
182,192,37831,1,0,0:0:0:0:
36,192,37831,128,0,38013:0:0:0:0:
329,192,37831,1,0,0:0:0:0:
402,192,38013,1,0,0:0:0:70:snare.wav
109,192,38194,1,0,0:0:0:0:
182,192,38376,1,0,0:0:0:70:bassdrum.wav
329,192,38376,1,0,0:0:0:0:
36,192,38558,1,0,0:0:0:70:snare.wav
475,192,38558,128,0,39285:0:0:0:0:
256,192,38558,1,0,0:0:0:0:
109,192,38922,1,0,0:0:0:70:bassdrum.wav
329,192,38922,1,0,0:0:0:0:
36,192,39285,1,0,0:0:0:70:bassdrum.wav
256,192,39285,1,4,2:0:0:0:
402,192,39285,128,0,40740:0:0:0:0:
109,192,39649,1,0,0:0:0:70:bassdrum.wav
329,192,39831,1,0,0:0:0:70:bassdrum.wav
36,192,40013,1,0,0:0:0:70:snare.wav
256,192,40013,1,0,0:0:0:0:
109,192,40376,1,0,0:0:0:0:
475,192,40558,1,0,0:0:0:70:bassdrum.wav
182,192,40740,1,0,0:0:0:0:
109,192,40740,128,0,40922:0:0:0:0:
36,192,40922,1,0,0:0:0:70:snare.wav
329,192,40922,1,0,0:0:0:0:
256,192,41103,1,0,0:0:0:0:
109,192,41285,1,0,0:0:0:70:bassdrum.wav
36,192,41467,1,0,0:0:0:70:snare.wav
182,192,41467,128,0,42194:0:0:0:0:
329,192,41467,1,0,0:0:0:0:
475,192,41649,1,0,0:0:0:70:bassdrum.wav
109,192,41831,1,0,0:0:0:70:bassdrum.wav
402,192,41831,1,0,0:0:0:0:
475,192,42013,1,0,0:0:0:70:bassdrum.wav
36,192,42194,1,0,0:0:0:70:bassdrum.wav
329,192,42194,1,4,2:0:0:0:
256,192,42194,128,0,43649:0:0:0:0:
109,192,42558,1,0,0:0:0:70:bassdrum.wav
182,192,42922,1,0,0:0:0:70:snare.wav
475,192,42922,1,0,0:0:0:0:
402,192,43285,1,0,0:0:0:0:
36,192,43467,1,0,0:0:0:70:bassdrum.wav
109,192,43649,1,0,0:0:0:0:
475,192,43649,128,0,45103:0:0:0:0:
36,192,43831,1,0,0:0:0:70:snare.wav
329,192,43831,1,0,0:0:0:0:
256,192,44013,1,0,0:0:0:0:
182,192,44194,1,0,0:0:0:70:bassdrum.wav
109,192,44376,1,0,0:0:0:70:snare.wav
402,192,44376,1,0,0:0:0:0:
36,192,44740,1,0,0:0:0:0:
182,192,44922,1,0,0:0:0:70:snare.wav
402,192,45013,1,0,0:0:0:70:snare.wav
36,192,45103,1,0,0:0:0:70:bassdrum.wav
256,192,45103,1,4,2:0:0:0:
109,192,45103,128,0,48013:0:0:0:0:
329,192,45285,1,0,0:0:0:0:
402,192,45467,1,0,0:0:0:70:bassdrum.wav
182,192,45467,1,0,0:0:0:0:
329,192,45649,1,0,0:0:0:0:
475,192,45831,1,0,0:0:0:70:bassdrum.wav
256,192,45831,1,0,0:0:0:0:
329,192,46013,1,0,0:0:0:0:
36,192,46194,1,0,0:0:0:70:snare.wav
182,192,46194,1,4,2:0:0:0:
402,192,46194,1,0,0:0:0:0:
329,192,46376,1,0,0:0:0:0:
475,192,46558,1,0,0:0:0:70:bassdrum.wav
256,192,46558,1,0,0:0:0:0:
329,192,46740,1,0,0:0:0:0:
402,192,46922,1,0,0:0:0:70:bassdrum.wav
182,192,46922,1,0,0:0:0:0:
329,192,47103,1,0,0:0:0:0:
475,192,47285,1,0,0:0:0:70:bassdrum.wav
256,192,47285,1,0,0:0:0:0:
329,192,47467,1,0,0:0:0:0:
36,192,47649,1,0,0:0:0:70:snare.wav
182,192,47649,1,4,2:0:0:0:
402,192,47649,1,0,0:0:0:0:
256,192,47831,1,0,0:0:0:0:
402,192,48013,1,0,0:0:0:70:bassdrum.wav
475,192,48013,128,0,50922:0:0:0:0:
329,192,48013,1,0,0:0:0:0:
36,192,48376,1,0,0:0:0:70:snare.wav
256,192,48376,1,0,0:0:0:0:
109,192,48376,1,0,0:0:0:0:
402,192,48558,1,0,0:0:0:0:
109,192,48740,1,0,0:0:0:70:bassdrum.wav
329,192,48740,1,0,0:0:0:0:
182,192,48922,1,0,0:0:0:0:
36,192,49103,1,0,0:0:0:70:snare.wav
109,192,49103,1,0,0:0:0:0:
256,192,49103,1,0,0:0:0:0:
329,192,49285,1,0,0:0:0:0:
182,192,49467,1,0,0:0:0:70:bassdrum.wav
402,192,49467,1,0,0:0:0:0:
329,192,49649,1,0,0:0:0:0:
36,192,49831,1,0,0:0:0:70:snare.wav
256,192,49831,1,0,0:0:0:0:
109,192,49831,1,0,0:0:0:0:
182,192,50013,1,0,0:0:0:0:
109,192,50194,1,0,0:0:0:70:bassdrum.wav
256,192,50194,128,0,50922:0:0:0:0:
182,192,50558,1,0,0:0:0:70:snare.wav
329,192,50649,1,0,0:0:0:70:snare.wav
109,192,50740,1,0,0:0:0:70:snare.wav
402,192,50831,1,0,0:0:0:70:snare.wav
182,192,50922,1,0,0:0:0:70:bassdrum.wav
36,192,50922,1,4,2:0:0:0:
329,192,50922,128,0,51649:0:0:0:0:
109,192,51649,1,0,0:0:0:70:bassdrum.wav
256,192,51649,1,4,2:0:0:0:
182,192,51649,128,0,52376:0:0:0:0:
36,192,52376,1,0,0:0:0:70:bassdrum.wav
475,192,52376,1,4,2:0:0:0:
402,192,52376,128,0,52922:0:0:0:0:
36,192,53467,1,0,0:0:0:0:
109,192,53528,1,0,0:0:0:0:
182,192,53589,1,0,0:0:0:0:
256,192,53649,1,0,0:0:0:0:
329,192,53710,1,0,0:0:0:0:
402,192,53770,1,0,0:0:0:0:
475,192,53831,1,0,0:0:0:0:
36,192,53831,1,0,0:0:0:70:bassdrum.wav
256,192,53831,1,4,2:0:0:0:
109,192,53831,128,0,55285:0:0:0:0:
329,192,54194,1,0,0:0:0:70:snare.wav
402,192,54194,1,0,0:0:0:0:
182,192,54194,1,0,0:0:0:0:
475,192,54558,1,0,0:0:0:70:bassdrum.wav
329,192,54558,1,0,0:0:0:0:
402,192,54740,1,0,0:0:0:70:bassdrum.wav
256,192,54740,1,0,0:0:0:0:
36,192,54922,1,0,0:0:0:70:snare.wav
182,192,54922,1,0,0:0:0:0:
475,192,54922,1,0,0:0:0:0:
256,192,55285,1,0,0:0:0:70:bassdrum.wav
402,192,55285,128,0,56740:0:0:0:0:
182,192,55467,1,0,0:0:0:70:bassdrum.wav
329,192,55467,1,0,0:0:0:0:
36,192,55649,1,0,0:0:0:70:snare.wav
475,192,55649,1,0,0:0:0:0:
256,192,55649,1,0,0:0:0:0:
182,192,56013,1,0,0:0:0:70:bassdrum.wav
329,192,56013,1,0,0:0:0:0:
109,192,56194,1,0,0:0:0:70:bassdrum.wav
256,192,56194,1,0,0:0:0:0:
36,192,56376,1,0,0:0:0:70:snare.wav
475,192,56376,1,0,0:0:0:0:
182,192,56376,1,0,0:0:0:0:
109,192,56740,1,0,0:0:0:70:bassdrum.wav
329,192,56740,128,0,58013:0:0:0:0:
256,192,56740,1,0,0:0:0:0:
182,192,56922,1,0,0:0:0:70:bassdrum.wav
36,192,56922,1,0,0:0:0:0:
475,192,57103,1,0,0:0:0:70:snare.wav
256,192,57103,1,0,0:0:0:0:
109,192,57103,1,0,0:0:0:0:
256,192,57467,1,0,0:0:0:70:bassdrum.wav
475,192,57467,1,0,0:0:0:0:
182,192,57649,1,0,0:0:0:70:bassdrum.wav
402,192,57649,1,0,0:0:0:0:
36,192,57831,1,0,0:0:0:70:snare.wav
256,192,57831,1,0,0:0:0:0:
109,192,57831,1,0,0:0:0:0:
109,192,58013,1,0,0:0:0:70:bassdrum.wav
182,192,58013,1,4,2:0:0:0:
402,192,58013,128,0,58558:0:0:0:0:
109,192,58376,1,0,0:0:0:70:bassdrum.wav
256,192,58376,1,0,0:0:0:0:
475,192,58558,1,0,0:0:0:70:snare.wav
182,192,58558,128,0,58922:0:0:0:0:
36,192,58558,1,0,0:0:0:0:
329,192,58558,1,0,0:0:0:0:
402,192,58740,1,0,0:0:0:70:bassdrum.wav
109,192,58831,1,0,0:0:0:70:bassdrum.wav
256,192,58922,1,0,0:0:0:70:bassdrum.wav
329,192,58922,128,0,59285:0:0:0:0:
402,192,59103,1,0,0:0:0:70:bassdrum.wav
109,192,59285,1,0,0:0:0:70:snare.wav
182,192,59285,1,4,2:0:0:0:
475,192,59285,128,0,59649:0:0:0:0:
36,192,59649,1,0,0:0:0:70:bassdrum.wav
256,192,59831,1,0,0:0:0:70:bassdrum.wav
402,192,59831,1,0,0:0:0:0:
36,192,60013,1,0,0:0:0:70:snare.wav
182,192,60013,1,0,0:0:0:0:
256,192,60058,1,0,0:0:0:0:
329,192,60103,1,0,0:0:0:0:
402,192,60149,1,0,0:0:0:0:
475,192,60194,1,0,0:0:0:0:
402,192,60376,1,0,0:0:0:70:bassdrum.wav
109,192,60558,1,0,0:0:0:70:bassdrum.wav
256,192,60558,1,0,0:0:0:0:
475,192,60740,1,0,0:0:0:70:snare.wav
329,192,60740,1,0,0:0:0:0:
256,192,60785,1,0,0:0:0:0:
182,192,60831,1,0,0:0:0:0:
109,192,60876,1,0,0:0:0:0:
36,192,60922,1,0,0:0:0:0:
109,192,61103,1,0,0:0:0:70:bassdrum.wav
256,192,61285,1,0,0:0:0:70:bassdrum.wav
402,192,61285,1,0,0:0:0:0:
36,192,61467,1,0,0:0:0:70:snare.wav
182,192,61467,1,0,0:0:0:0:
256,192,61513,1,0,0:0:0:0:
329,192,61558,1,0,0:0:0:0:
402,192,61603,1,0,0:0:0:0:
109,192,61649,1,0,0:0:0:70:snare.wav
475,192,61649,1,0,0:0:0:0:
329,192,61740,1,0,0:0:0:70:snare.wav
182,192,61831,1,0,0:0:0:70:bassdrum.wav
402,192,62013,1,0,0:0:0:70:bassdrum.wav
256,192,62013,1,0,0:0:0:0:
36,192,62194,1,0,0:0:0:70:snare.wav
182,192,62194,1,0,0:0:0:0:
329,192,62194,1,0,0:0:0:0:
256,192,62558,1,0,0:0:0:70:snare.wav
109,192,62558,128,0,62922:0:0:0:0:
402,192,62558,1,0,0:0:0:0:
182,192,62740,1,0,0:0:0:70:bassdrum.wav
475,192,62740,1,0,0:0:0:0:
36,192,62922,1,0,0:0:0:70:snare.wav
329,192,62922,128,0,63285:0:0:0:0:
402,192,62922,1,0,0:0:0:0:
109,192,63103,1,0,0:0:0:70:bassdrum.wav
475,192,63103,1,0,0:0:0:0:
182,192,63285,128,0,63649:0:0:0:0:
402,192,63467,1,0,0:0:0:70:bassdrum.wav
36,192,63467,1,0,0:0:0:0:
256,192,63649,128,0,64013:0:0:0:0:
109,192,63922,1,0,0:0:0:70:snare.wav
329,192,63922,1,0,0:0:0:0:
182,192,64013,1,0,0:0:0:70:bassdrum.wav
402,192,64013,1,0,0:0:0:0:
475,192,64013,1,0,0:0:0:0:
256,192,64285,1,0,0:0:0:70:snare.wav
402,192,64285,1,0,0:0:0:0:
182,192,64376,1,0,0:0:0:70:snare.wav
329,192,64376,1,0,0:0:0:0:
256,192,64467,1,0,0:0:0:70:bassdrum.wav
109,192,64467,1,0,0:0:0:0:
36,192,64558,1,0,0:0:0:70:bassdrum.wav
182,192,64558,1,0,0:0:0:0:
402,192,64558,1,0,0:0:0:0:
109,192,64740,1,0,0:0:0:70:snare.wav
256,192,64740,1,0,0:0:0:0:
329,192,64831,1,0,0:0:0:70:bassdrum.wav
182,192,64831,1,0,0:0:0:0:
256,192,64922,1,0,0:0:0:70:bassdrum.wav
402,192,64922,1,0,0:0:0:0:
182,192,65013,1,0,0:0:0:70:bassdrum.wav
329,192,65013,1,0,0:0:0:0:
109,192,65103,1,0,0:0:0:70:snare.wav
256,192,65103,1,0,0:0:0:0:
36,192,65376,1,0,0:0:0:70:snare.wav
329,192,65376,1,0,0:0:0:0:
109,192,65467,1,0,0:0:0:70:bassdrum.wav
256,192,65467,1,4,2:0:0:0:
182,192,65467,128,0,66922:0:0:0:0:
475,192,65649,1,0,0:0:0:0:
36,192,65831,1,0,0:0:0:70:snare.wav
256,192,65831,1,0,0:0:0:0:
402,192,65831,1,0,0:0:0:0:
329,192,66194,1,0,0:0:0:70:bassdrum.wav
475,192,66194,1,0,0:0:0:0:
256,192,66376,1,0,0:0:0:70:bassdrum.wav
402,192,66376,1,0,0:0:0:0:
36,192,66558,1,0,0:0:0:70:snare.wav
109,192,66558,1,0,0:0:0:0:
329,192,66558,1,0,0:0:0:0:
109,192,66922,1,0,0:0:0:70:bassdrum.wav
329,192,66922,128,0,68376:0:0:0:0:
256,192,66922,1,0,0:0:0:0:
182,192,67103,1,0,0:0:0:70:bassdrum.wav
402,192,67103,1,0,0:0:0:0:
36,192,67285,1,0,0:0:0:70:snare.wav
256,192,67285,1,0,0:0:0:0:
475,192,67285,1,0,0:0:0:0:
182,192,67649,1,0,0:0:0:70:bassdrum.wav
402,192,67649,1,0,0:0:0:0:
36,192,67831,1,0,0:0:0:70:bassdrum.wav
256,192,67831,1,0,0:0:0:0:
109,192,68013,1,0,0:0:0:70:snare.wav
475,192,68013,1,0,0:0:0:0:
182,192,68013,1,0,0:0:0:0:
36,192,68194,1,0,0:0:0:70:snare.wav
402,192,68194,1,0,0:0:0:0:
182,192,68194,1,0,0:0:0:0:
109,192,68376,1,0,0:0:0:70:bassdrum.wav
475,192,68376,128,0,69649:0:0:0:0:
256,192,68376,1,0,0:0:0:0:
182,192,68558,1,0,0:0:0:70:bassdrum.wav
329,192,68558,1,0,0:0:0:0:
36,192,68740,1,0,0:0:0:70:snare.wav
256,192,68740,1,0,0:0:0:0:
402,192,68740,1,0,0:0:0:0:
109,192,69103,1,0,0:0:0:70:bassdrum.wav
256,192,69103,1,0,0:0:0:0:
36,192,69285,1,0,0:0:0:70:bassdrum.wav
182,192,69285,1,0,0:0:0:0:
109,192,69467,1,0,0:0:0:70:snare.wav
256,192,69467,1,0,0:0:0:0:
36,192,69649,1,0,0:0:0:70:bassdrum.wav
256,192,69649,1,4,2:0:0:0:
182,192,69649,128,0,70194:0:0:0:0:
402,192,69649,1,0,0:0:0:0:
109,192,70013,1,0,0:0:0:70:bassdrum.wav
402,192,70013,1,0,0:0:0:0:
36,192,70194,1,0,0:0:0:70:snare.wav
256,192,70194,128,0,70558:0:0:0:0:
475,192,70194,1,0,0:0:0:0:
329,192,70194,1,0,0:0:0:0:
109,192,70558,1,0,0:0:0:70:bassdrum.wav
402,192,70558,128,0,70922:0:0:0:0:
182,192,70558,1,0,0:0:0:0:
182,192,70922,1,0,0:0:0:70:snare.wav
475,192,70922,128,0,71285:0:0:0:0:
329,192,70922,1,0,0:0:0:0:
109,192,71013,1,0,0:0:0:70:snare.wav
256,192,71013,1,0,0:0:0:0:
36,192,71103,1,0,0:0:0:70:bassdrum.wav
182,192,71103,1,0,0:0:0:0:
109,192,71194,1,0,0:0:0:70:bassdrum.wav
256,192,71194,1,0,0:0:0:0:
182,192,71285,1,0,0:0:0:70:bassdrum.wav
329,192,71285,1,4,2:0:0:0:
36,192,71285,128,0,72740:0:0:0:0:
475,192,71649,1,0,0:0:0:70:snare.wav
182,192,71649,1,0,0:0:0:0:
329,192,71649,1,0,0:0:0:0:
256,192,72013,1,0,0:0:0:70:bassdrum.wav
402,192,72013,1,0,0:0:0:0:
182,192,72194,1,0,0:0:0:70:bassdrum.wav
329,192,72194,1,0,0:0:0:0:
109,192,72376,1,0,0:0:0:70:snare.wav
256,192,72376,1,0,0:0:0:0:
475,192,72376,1,0,0:0:0:0:
256,192,72740,1,0,0:0:0:70:bassdrum.wav
182,192,72740,128,0,74194:0:0:0:0:
402,192,72740,1,0,0:0:0:0:
109,192,72922,1,0,0:0:0:70:bassdrum.wav
329,192,72922,1,0,0:0:0:0:
36,192,73103,1,0,0:0:0:70:snare.wav
256,192,73103,1,0,0:0:0:0:
475,192,73103,1,0,0:0:0:0:
329,192,73467,1,0,0:0:0:70:bassdrum.wav
475,192,73467,1,0,0:0:0:0:
256,192,73649,1,0,0:0:0:70:bassdrum.wav
402,192,73649,1,0,0:0:0:0:
36,192,73831,1,0,0:0:0:70:snare.wav
109,192,73831,1,0,0:0:0:0:
329,192,73831,1,0,0:0:0:0:
256,192,74013,1,0,0:0:0:70:snare.wav
475,192,74013,1,0,0:0:0:0:
402,192,74013,1,0,0:0:0:0:
109,192,74194,1,0,0:0:0:70:bassdrum.wav
402,192,74194,1,4,2:0:0:0:
329,192,74194,128,0,74558:0:0:0:0:
36,192,74194,1,0,0:0:0:0:
109,192,74376,1,0,0:0:0:70:bassdrum.wav
256,192,74376,1,0,0:0:0:0:
36,192,74558,1,0,0:0:0:70:snare.wav
475,192,74558,1,0,0:0:0:0:
182,192,74558,128,0,74740:0:0:0:0:
109,192,74740,1,0,0:0:0:70:bassdrum.wav
256,192,74740,1,4,2:0:0:0:
475,192,74740,128,0,74922:0:0:0:0:
402,192,74740,1,0,0:0:0:0:
36,192,75103,1,0,0:0:0:70:bassdrum.wav
182,192,75103,128,0,75285:0:0:0:0:
329,192,75103,1,0,0:0:0:0:
329,192,75467,1,0,0:0:0:70:bassdrum.wav
182,192,75467,1,4,2:0:0:0:
256,192,75467,128,0,77103:0:0:0:0:
475,192,75467,1,0,0:0:0:0:
36,192,77103,1,0,0:0:0:70:bassdrum.wav
109,192,77103,1,4,2:0:0:0:
475,192,77103,1,0,0:0:0:0:
329,192,77467,1,0,0:0:0:0:
182,192,77467,1,0,0:0:0:0:
402,192,77649,1,0,0:0:0:0:
256,192,77649,1,0,0:0:0:0:
36,192,77831,1,0,0:0:0:70:snare.wav
329,192,77831,1,0,0:0:0:0:
182,192,77831,1,0,0:0:0:0:
402,192,78013,1,0,0:0:0:0:
256,192,78013,1,0,0:0:0:0:
329,192,78194,1,0,0:0:0:0:
182,192,78194,1,0,0:0:0:0:
402,192,78376,1,0,0:0:0:0:
256,192,78376,1,0,0:0:0:0:
329,192,78558,128,0,78740:0:0:0:0:
36,192,78558,128,0,78740:0:0:0:0:
182,192,78740,1,0,0:0:0:70:snare.wav
182,192,78922,128,0,80013:0:0:0:0:
256,192,79103,1,0,0:0:0:70:bassdrum.wav
402,192,79103,1,0,0:0:0:0:
36,192,79285,1,0,0:0:0:70:snare.wav
329,192,79285,1,4,2:0:0:0:
475,192,79285,1,0,0:0:0:0:
256,192,79467,1,0,0:0:0:70:bassdrum.wav
402,192,79467,1,0,0:0:0:0:
109,192,79649,1,0,0:0:0:70:snare.wav
329,192,79649,1,0,0:0:0:0:
475,192,79649,1,0,0:0:0:0:
36,192,80013,1,0,0:0:0:70:bassdrum.wav
256,192,80013,1,4,2:0:0:0:
329,192,80013,128,0,81467:0:0:0:0:
402,192,80013,1,0,0:0:0:0:
256,192,80376,1,0,0:0:0:0:
475,192,80376,1,0,0:0:0:0:
182,192,80558,1,0,0:0:0:0:
36,192,80558,1,0,0:0:0:0:
109,192,80740,1,0,0:0:0:70:bassdrum.wav
256,192,80740,1,0,0:0:0:0:
475,192,80922,1,0,0:0:0:70:snare.wav
36,192,80922,1,0,0:0:0:0:
182,192,80922,1,0,0:0:0:0:
109,192,81103,1,0,0:0:0:70:snare.wav
402,192,81103,1,0,0:0:0:0:
256,192,81103,1,0,0:0:0:0:
36,192,81285,1,0,0:0:0:70:snare.wav
475,192,81285,1,0,0:0:0:0:
182,192,81285,1,0,0:0:0:0:
36,192,81467,1,0,0:0:0:70:snare.wav
109,192,81467,1,4,2:0:0:0:
256,192,81467,128,0,82922:0:0:0:0:
402,192,81649,1,0,0:0:0:0:
182,192,81649,1,0,0:0:0:0:
329,192,81831,1,0,0:0:0:0:
109,192,81831,1,0,0:0:0:0:
36,192,82013,1,0,0:0:0:70:snare.wav
402,192,82013,1,0,0:0:0:0:
475,192,82013,1,0,0:0:0:0:
109,192,82194,1,0,0:0:0:70:snare.wav
329,192,82194,1,0,0:0:0:0:
182,192,82194,1,0,0:0:0:0:
475,192,82376,1,0,0:0:0:70:snare.wav
402,192,82376,1,0,0:0:0:0:
36,192,82376,1,0,0:0:0:0:
182,192,82558,1,0,0:0:0:70:snare.wav
329,192,82558,1,0,0:0:0:0:
109,192,82649,1,0,0:0:0:70:snare.wav
402,192,82740,1,0,0:0:0:70:snare.wav
475,192,82740,1,0,0:0:0:0:
182,192,82831,1,0,0:0:0:70:snare.wav
36,192,82922,1,0,0:0:0:70:bassdrum.wav
475,192,83285,1,0,0:0:0:0:
256,192,83649,1,0,0:0:0:0:
36,192,84013,1,0,0:0:0:0:
182,192,84922,1,0,0:0:0:0:
256,192,85013,1,0,0:0:0:0:
329,192,85103,1,0,0:0:0:0:
329,192,85740,1,0,0:0:0:0:
402,192,85831,1,0,0:0:0:0:
475,192,85876,1,0,0:0:0:0:
182,192,87194,1,0,0:0:0:0:
36,192,87285,1,0,0:0:0:0:
109,192,88649,1,0,0:0:0:0:
256,192,88740,1,0,0:0:0:0:
329,192,88785,1,0,0:0:0:0:
