osu file format v13

[General]
AudioFilename: Grow Slowly.mp3
AudioLeadIn: 0
PreviewTime: 52922
Countdown: 0
SampleSet: Soft
StackLeniency: 0.7
Mode: 3
LetterboxInBreaks: 0
SpecialStyle: 0
WidescreenStoryboard: 1

[Editor]
Bookmarks: 52922
DistanceSpacing: 0.8
BeatDivisor: 2
GridSize: 8
TimelineZoom: 0.9999998

[Metadata]
Title:Grow Slowly (TV Size)
TitleUnicode:Grow Slowly (TV Size)
Artist:Iguchi Yuka
ArtistUnicode:井口裕香
Creator:HinagikuKatsura
Version:4K EZ
Source:To Aru Kagaku no Railgun S
Tags:Ending a certain scientific Bobbias victorica_db
BeatmapID:343810
BeatmapSetID:137586

[Difficulty]
HPDrainRate:6
CircleSize:4
OverallDifficulty:6
ApproachRate:5
SliderMultiplier:0.999999904632566
SliderTickRate:1

[Events]
//Background and Video events
0,0,"To aru railgun.jpg",0,0
//Break Periods
//Storyboard Layer 0 (Background)
//Storyboard Layer 1 (Fail)
//Storyboard Layer 2 (Pass)
//Storyboard Layer 3 (Foreground)
//Storyboard Sound Samples
Sample,62318,0,"hihat01.wav",70
//Background Colour Transformations
3,100,163,162,255

[TimingPoints]
13,363.636363636364,4,2,1,60,1,0
53831,-100,4,2,1,60,0,1
77104,-100,4,2,1,60,0,0

[HitObjects]
64,192,1468,5,0,0:0:0:70:cymbol.wav
448,192,2013,1,0,0:0:0:70:cymbol.wav
320,192,4376,1,0,0:0:0:70:cymbol.wav
192,192,4922,1,0,0:0:0:70:cymbol.wav
64,192,7286,1,0,0:0:0:70:cymbol.wav
448,192,7831,1,0,0:0:0:70:cymbol.wav
448,192,10194,128,0,10922:0:0:0:70:bassdrum.wav
320,192,10922,128,0,11649:0:0:0:70:cymbol.wav
192,192,11649,128,0,12376:0:0:0:70:bassdrum.wav
64,192,12376,128,0,13103:0:0:0:70:bassdrum.wav
320,192,13103,1,0,0:0:0:70:bassdrum.wav
448,192,13468,1,0,0:0:0:70:bassdrum.wav
320,192,13831,1,0,0:0:0:0:
64,192,14195,1,0,0:0:0:70:bassdrum.wav
448,192,14558,1,0,0:0:0:70:bassdrum.wav
192,192,14922,1,0,0:0:0:70:bassdrum.wav
448,192,15286,1,0,0:0:0:70:bassdrum.wav
320,192,15649,1,0,0:0:0:70:bassdrum.wav
64,192,16013,128,0,17103:0:0:0:70:bassdrum.wav
448,192,17104,1,0,0:0:0:70:bassdrum.wav
192,192,17467,1,0,0:0:0:30:hihat01.wav
320,192,17831,1,0,0:0:0:0:
192,192,18376,1,0,0:0:0:70:cymbol.wav
448,192,18376,1,0,0:0:0:0:
64,192,18922,1,0,0:0:0:70:bassdrum.wav
448,192,19286,1,0,0:0:0:30:hihat01.wav
192,192,19649,1,0,0:0:0:30:hihat01.wav
320,192,20013,1,0,0:0:0:30:hihat01.wav
192,192,20376,1,0,0:0:0:30:hihat01.wav
64,192,21103,1,0,0:0:0:70:snare.wav
448,192,21467,1,0,0:0:0:30:hihat01.wav
192,192,21831,128,0,22558:0:0:0:70:bassdrum.wav
320,192,22558,128,0,23285:0:0:0:0:
192,192,23285,1,0,0:0:0:0:
448,192,24376,1,0,0:0:0:70:snare.wav
64,192,24740,1,0,0:0:0:70:cymbol.wav
320,192,24740,1,0,0:0:0:0:
192,192,25467,1,0,0:0:0:70:bassdrum.wav
448,192,25831,1,0,0:0:0:70:snare.wav
64,192,26194,1,0,0:0:0:70:bassdrum.wav
320,192,26558,1,0,0:0:0:70:snare.wav
192,192,26922,1,0,0:0:0:70:bassdrum.wav
320,192,27285,1,0,0:0:0:70:snare.wav
448,192,27649,128,0,28740:0:0:0:30:hihat01.wav
64,192,28740,1,0,0:0:0:70:snare.wav
192,192,29103,1,0,0:0:0:70:bassdrum.wav
320,192,29467,1,0,0:0:0:70:snare.wav
448,192,29831,128,0,30558:0:0:0:0:
320,192,30558,1,0,0:0:0:70:cymbol.wav
64,192,30922,1,0,0:0:0:70:snare.wav
448,192,31285,1,0,0:0:0:0:
64,192,31649,128,0,32376:0:0:0:30:hihat01.wav
320,192,32376,1,0,0:0:0:70:snare.wav
192,192,32740,1,0,0:0:0:0:
448,192,33104,1,0,0:0:0:70:snare.wav
64,192,33467,128,0,34558:0:0:0:70:bassdrum.wav
320,192,34558,1,0,0:0:0:70:snare.wav
448,192,34922,1,0,0:0:0:70:bassdrum.wav
64,192,34922,1,0,0:0:0:70:cymbol.wav
192,192,35468,1,0,0:0:0:70:bassdrum.wav
320,192,35468,1,0,0:0:0:70:cymbol.wav
64,192,36013,1,0,0:0:0:40:tom.wav
448,192,36013,1,0,0:0:0:0:
192,192,36376,1,0,0:0:0:70:bassdrum.wav
320,192,36377,1,0,0:0:0:70:cymbol.wav
448,192,36740,1,0,0:0:0:70:bassdrum.wav
192,192,37104,1,0,0:0:0:70:snare.wav
64,192,37468,1,0,0:0:0:30:hihat01.wav
320,192,37831,128,0,38195:0:0:0:30:hihat01.wav
192,192,38194,1,0,0:0:0:70:bassdrum.wav
64,192,38558,1,0,0:0:0:70:snare.wav
448,192,38922,1,0,0:0:0:70:bassdrum.wav
320,192,39285,1,0,0:0:0:70:cymbol.wav
192,192,39285,1,0,0:0:0:0:
64,192,39649,1,0,0:0:0:70:bassdrum.wav
448,192,40013,1,0,0:0:0:70:snare.wav
192,192,40013,1,0,0:0:0:30:cymbol.wav
64,192,40740,1,0,0:0:0:30:hihat01.wav
448,192,41103,1,0,0:0:0:70:snare.wav
320,192,41467,1,0,0:0:0:70:snare.wav
192,192,42195,1,0,0:0:0:70:bassdrum.wav
448,192,42195,1,0,0:0:0:70:cymbol.wav
64,192,42922,1,0,0:0:0:70:cymbol.wav
320,192,42922,1,0,0:0:0:70:snare.wav
448,192,43286,1,0,0:0:0:30:hihat01.wav
192,192,43649,128,0,44194:0:0:0:30:hihat01.wav
320,192,44194,128,0,45103:0:0:0:70:bassdrum.wav
64,192,45104,1,0,0:0:0:70:bassdrum.wav
448,192,45104,1,0,0:0:0:70:cymbol.wav
320,192,45468,1,0,0:0:0:70:bassdrum.wav
448,192,45831,1,0,0:0:0:70:bassdrum.wav
192,192,46194,1,0,0:0:0:70:bassdrum.wav
64,192,46558,1,0,0:0:0:70:bassdrum.wav
192,192,46922,1,0,0:0:0:70:bassdrum.wav
320,192,47649,1,0,0:0:0:40:cymbol.wav
192,192,48013,128,0,49103:0:0:0:70:bassdrum.wav
448,192,49103,1,0,0:0:0:70:snare.wav
64,192,49467,1,0,0:0:0:70:bassdrum.wav
320,192,49831,1,0,0:0:0:70:snare.wav
448,192,50194,1,0,0:0:0:70:bassdrum.wav
64,192,50558,1,0,0:0:0:50:snare.wav
320,192,50922,128,0,51649:0:0:0:70:bassdrum.wav
64,192,51649,128,0,52376:0:0:0:70:bassdrum.wav
448,192,52377,1,0,0:0:0:70:cymbol.wav
192,192,53831,1,0,0:0:0:0:
448,192,53831,1,0,0:0:0:70:bassdrum.wav
320,192,54194,1,0,0:0:0:70:bassdrum.wav
192,192,54558,1,0,0:0:0:70:bassdrum.wav
64,192,55286,1,0,0:0:0:70:bassdrum.wav
448,192,55649,1,0,0:0:0:70:snare.wav
64,192,56013,1,0,0:0:0:70:bassdrum.wav
448,192,56377,1,0,0:0:0:70:snare.wav
64,192,56740,128,0,57467:0:0:0:70:bassdrum.wav
320,192,57467,1,0,0:0:0:70:hihat.wav
448,192,58195,1,0,0:0:0:0:
192,192,58558,128,0,58922:0:0:0:70:cymbol.wav
320,192,58922,1,0,0:0:0:40:tom01.wav
448,192,59285,1,0,0:0:0:70:cymbol.wav
64,192,59286,1,0,0:0:0:70:snare.wav
320,192,59649,1,0,0:0:0:70:cymbol.wav
192,192,60013,1,0,0:0:0:70:snare.wav
320,192,60377,1,0,0:0:0:70:bassdrum.wav
64,192,60740,1,0,0:0:0:0:
448,192,61104,128,0,61468:0:0:0:70:bassdrum.wav
192,192,61468,1,0,0:0:0:70:snare.wav
320,192,61831,1,0,0:0:0:70:bassdrum.wav
192,192,62194,128,0,62558:0:0:0:70:hihat.wav
64,192,62558,1,0,0:0:0:70:hihat.wav
320,192,62922,1,0,0:0:0:70:bassdrum.wav
448,192,63285,1,0,0:0:0:70:bassdrum.wav
320,192,63649,1,0,0:0:0:70:snare.wav
192,192,64013,1,0,0:0:0:70:bassdrum.wav
64,192,64740,1,0,0:0:0:50:snare.wav
192,192,65103,1,0,0:0:0:70:cymbol.wav
320,192,65103,1,0,0:0:0:0:
448,192,65468,128,0,65831:0:0:0:70:bassdrum.wav
64,192,65831,1,0,0:0:0:0:
320,192,66195,1,0,0:0:0:70:bassdrum.wav
64,192,66558,1,0,0:0:0:70:snare.wav
192,192,66922,1,0,0:0:0:70:bassdrum.wav
64,192,67286,128,0,67649:0:0:0:70:hihat.wav
448,192,67649,1,0,0:0:0:70:bassdrum.wav
320,192,68013,1,0,0:0:0:70:hihat.wav
64,192,68376,128,0,69103:0:0:0:70:bassdrum.wav
320,192,69104,1,0,0:0:0:70:bassdrum.wav
448,192,69467,1,0,0:0:0:70:bassdrum.wav
192,192,69831,1,0,0:0:0:0:
64,192,70195,1,0,0:0:0:70:snare.wav
192,192,70558,1,0,0:0:0:70:hihat.wav
448,192,70922,1,0,0:0:0:70:snare.wav
320,192,71285,128,0,72013:0:0:0:70:bassdrum.wav
64,192,72013,1,0,0:0:0:70:bassdrum.wav
192,192,72377,1,0,0:0:0:70:snare.wav
448,192,72740,128,0,73104:0:0:0:70:bassdrum.wav
320,192,73104,1,0,0:0:0:70:snare.wav
192,192,73831,1,0,0:0:0:70:hihat.wav
448,192,74195,128,0,74558:0:0:0:70:bassdrum.wav
64,192,74558,1,0,0:0:0:70:snare.wav
192,192,75103,1,0,0:0:0:0:
320,192,75104,1,0,0:0:0:70:cymbol.wav
64,192,75467,128,0,76740:0:0:0:70:cymbol.wav
192,192,77103,1,0,0:0:0:70:cymbol.wav
320,192,77468,1,0,0:0:0:30:hihat.wav
448,192,77831,1,0,0:0:0:30:cymbol.wav
64,192,78195,1,0,0:0:0:30:hihat.wav
320,192,78558,1,0,0:0:0:30:hihat.wav
448,192,78922,1,0,0:0:0:30:hihat.wav
192,192,79286,1,0,0:0:0:30:cymbol.wav
448,192,79649,128,0,80377:0:0:0:30:hihat.wav
192,192,80377,1,0,0:0:0:30:snare.wav
64,192,80740,128,0,81468:0:0:0:30:snare.wav
448,192,81103,1,0,0:0:0:30:snare.wav
192,192,81467,1,0,0:0:0:70:bassdrum.wav
448,192,81831,1,0,0:0:0:30:snare.wav
320,192,82194,1,0,0:0:0:30:snare.wav
192,192,82558,1,0,0:0:0:40:snare.wav
64,192,82922,1,0,0:0:0:40:snare.wav
192,192,83285,1,0,0:0:0:0:
320,192,83649,1,0,0:0:0:0:
192,192,84013,1,0,0:0:0:0:
448,192,85104,1,0,0:0:0:0:
64,192,85467,128,0,86558:0:0:0:0:
192,192,86558,1,0,0:0:0:0:
448,192,86922,128,0,88013:0:0:0:0:
192,192,88013,1,0,0:0:0:0:
64,192,88376,128,0,88740:0:0:0:0:
448,192,88740,128,0,89467:0:0:0:0:
