osu file format v13

[General]
AudioFilename: natsuiro present.mp3
AudioLeadIn: 0
PreviewTime: 52970
Countdown: 1
SampleSet: Soft
StackLeniency: 0.7
Mode: 0
LetterboxInBreaks: 1
WidescreenStoryboard: 1

[Editor]
DistanceSpacing: 1
BeatDivisor: 2
GridSize: 8
TimelineZoom: 1

[Metadata]
Title:Natsuiro Present (TV Size)
TitleUnicode:夏色プレゼント (TV Size)
Artist:Iguchi Yuka , Asumi Kana , Hikasa Yoko & Ogura Yui
ArtistUnicode:井口裕香、阿澄佳奈、日笠陽子、小倉唯
Creator:-Maruk-
Version:Normal
Source:ヤマノススメ セカンドシーズン
Tags:yama no susume second season opening
BeatmapID:505289
BeatmapSetID:215106

[Difficulty]
HPDrainRate:4
CircleSize:3
OverallDifficulty:4
ApproachRate:5
SliderMultiplier:1
SliderTickRate:1

[Events]
//Background and Video events
0,0,"natsuiro present.png",0,0
Video,0,"natsuiro present.avi"
//Break Periods
//Storyboard Layer 0 (Background)
//Storyboard Layer 1 (Fail)
//Storyboard Layer 2 (Pass)
//Storyboard Layer 3 (Foreground)
//Storyboard Sound Samples
//Background Colour Transformations
3,100,163,162,255

[TimingPoints]
193,444.444444444444,4,2,1,60,1,0
2859,-100,4,2,2,60,0,0
3526,-100,4,2,1,60,0,0
4637,-100,4,2,2,60,0,0
5304,-100,4,2,1,60,0,0
9970,-100,4,2,2,60,0,0
10637,-100,4,2,1,60,0,0
53526,-100,4,2,1,60,0,1
54415,-100,4,2,2,60,0,1
55081,-100,4,2,1,60,0,1
56192,-100,4,2,2,60,0,1
56637,-100,4,2,1,60,0,1
61526,-100,4,2,2,60,0,1
62192,-100,4,2,1,60,0,1
69526,-100,4,2,1,60,0,0

[HitObjects]
256,192,193,12,4,1526,0:0:0:0:
344,288,1970,6,0,P|392:296|448:280,2,100,10|0|8,0:0|0:0|0:0,0:0:0:0:
272,224,3081,1,8,0:0:0:0:
272,224,3526,2,0,P|208:232|184:288,1,100,10|0,0:0|0:0,0:0:0:0:
160,304,4192,2,0,L|160:160,1,100,2|8,0:0|0:0,0:0:0:0:
160,104,4859,1,8,0:0:0:0:
224,24,5304,6,0,P|296:112|232:144,2,200,10|2|10,0:0|0:0|0:0,0:0:0:0:
152,96,7526,2,0,B|112:160|112:160|128:240,1,150,2|4,0:0|0:0,0:0:0:0:
156,328,8637,1,4,0:0:0:0:
224,248,9081,6,0,P|272:232|320:248,2,100,10|2|8,0:0|0:0|0:0,0:0:0:0:
176,264,10192,1,8,0:0:0:0:
216,176,10637,2,0,B|208:96|216:24|216:24,1,150,4|2,0:0|0:0,0:0:0:0:
304,64,11748,2,0,B|304:60|304:164,1,100,2|10,0:0|0:0,0:0:0:0:
320,264,12637,6,0,P|368:280|416:264,2,100,10|2|10,0:0|0:0|0:0,0:0:0:0:
240,208,13970,2,0,L|240:144,1,50,0|8,0:0|0:0,0:0:0:0:
192,72,14637,2,0,P|240:56|288:72,1,100,8|0,0:0|0:0,0:0:0:0:
368,128,15526,6,0,L|344:264,1,100,10|0,0:0|0:0,0:0:0:0:
312,320,16415,2,0,P|258:364|201:324,1,150,8|0,0:0|0:0,0:0:0:0:
158,234,17526,1,4,0:0:0:0:
224,152,17970,5,10,0:0:0:0:
224,152,18415,2,0,L|224:40,2,100,8|2|8,0:0|0:0|0:0,0:0:0:0:
296,224,19748,1,10,0:0:0:0:
296,320,20192,6,0,P|344:336|400:320,2,100,8|2|8,0:0|0:0|0:0,0:0:0:0:
224,248,21526,1,10,0:0:0:0:
136,304,21970,2,0,L|48:360,2,100,10|2|8,0:0|0:0|0:0,0:0:0:0:
216,240,23304,2,0,P|312:248|424:232,2,200,10|10|4,0:0|0:0|0:0,0:0:0:0:
120,208,25526,6,0,P|72:168|160:120,1,200,2|8,0:0|0:0,0:0:0:0:
248,160,26859,1,10,0:0:0:0:
160,216,27304,2,0,P|248:256|336:208,1,200,2|2,0:0|0:0,0:0:0:0:
384,120,28637,5,8,0:0:0:0:
312,48,29081,1,0,0:0:0:0:
208,48,29526,1,8,0:0:0:0:
136,120,29970,1,0,0:0:0:0:
256,192,30415,12,0,31304,0:0:0:0:
256,192,32192,5,4,0:0:0:0:
168,248,32637,2,0,P|184:296|240:320,2,100,2|8|2,0:0|0:0|0:0,0:0:0:0:
160,152,33970,1,2,0:0:0:0:
208,64,34415,2,0,P|296:88|416:64,1,200,2|10,0:0|0:0,0:0:0:0:
448,160,35748,6,0,L|408:280,1,100,2|2,0:0|0:0,0:0:0:0:
336,192,36637,2,0,L|296:312,1,100,2|2,0:0|0:0,0:0:0:0:
272,384,37526,2,0,P|208:376|176:344,1,100,10|0,0:0|0:0,0:0:0:0:
152,320,38192,2,0,B|120:240|72:264|72:264|56:176|72:128,1,250,10|4,0:0|0:0,0:0:0:0:
200,48,39970,5,2,0:0:0:0:
200,48,40192,2,0,L|216:216,1,150,8|0,0:0|0:0,0:0:0:0:
216,248,41081,2,0,P|304:192|376:248,1,200,8|8,0:0|0:0,0:0:0:0:
208,352,42859,6,0,L|184:128,1,200,2|2,0:0|0:0,0:0:0:0:
176,56,44192,1,2,0:0:0:0:
96,120,44637,2,0,P|168:160|272:104,1,200,6|4,0:0|0:0,0:0:0:0:
312,24,45970,1,2,0:0:0:0:
400,72,46415,6,0,L|400:280,1,200,2|2,0:0|0:0,0:0:0:0:
288,368,47970,2,0,P|168:344|128:272,1,200,2|0,0:0|0:0,0:0:0:0:
128,232,49081,2,0,L|128:176,1,50,10|4,0:0|0:0,0:0:0:0:
184,40,49970,5,10,0:0:0:0:
248,120,50415,1,2,0:0:0:0:
344,120,50859,1,8,0:0:0:0:
432,168,51304,1,2,0:0:0:0:
504,232,51748,6,0,P|456:296|376:224,1,200,4|4,0:0|0:0,0:0:0:0:
368,136,53081,1,2,0:0:0:0:
312,48,53526,6,0,P|264:64|216:48,2,100,10|2|8,0:0|0:0|0:0,0:0:0:0:
360,24,54637,1,8,0:0:0:0:
424,104,55081,2,0,L|408:288,1,150,4|2,0:0|0:0,0:0:0:0:
392,352,56192,2,0,P|336:352|296:312,1,100,8|10,0:0|0:0,0:0:0:0:
288,280,56859,6,0,P|304:184|272:80,2,200,4|4|4,0:0|0:0|0:0,0:0:0:0:
224,352,59081,2,0,P|168:312|152:232,1,150,2|4,0:0|0:0,0:0:0:0:
152,136,60192,1,4,0:0:0:0:
64,88,60637,6,0,P|144:48|256:104,1,200,10|8,0:0|0:0,0:0:0:0:
280,120,61748,1,8,0:0:0:0:
376,120,62192,2,0,P|384:216|256:216,1,250,4|4,0:0|0:0,0:0:0:0:
56,216,64192,5,10,0:0:0:0:
128,288,64637,1,2,0:0:0:0:
224,288,65081,1,8,0:0:0:0:
296,216,65526,2,0,L|296:136,1,50,2|0,0:0|0:0,0:0:0:0:
344,80,66192,2,0,P|296:64|240:88,1,100,12|0,0:0|0:0,0:0:0:0:
168,144,67081,6,0,P|144:208|168:272,1,100,10|0,0:0|0:0,0:0:0:0:
200,328,67970,2,0,P|256:352|352:320,1,150,10|8,0:0|0:0,0:0:0:0:
408,264,69081,1,4,0:0:0:0:
448,176,69526,5,2,0:0:0:0:
480,80,69970,2,0,P|384:96|272:80,1,200,10|2,0:0|0:0,0:0:0:0:
192,40,71304,2,2,P|176:136|192:248,1,200
272,296,72637,2,0,L|400:280,2,100,2|8|2,0:0|0:0|0:0,0:0:0:0:
176,304,73970,5,2,0:0:0:0:
112,232,74415,2,0,L|112:112,1,100,10|0,0:0|0:0,0:0:0:0:
168,48,75304,1,8,0:0:0:0:
264,88,75748,2,0,L|264:208,1,100,2|0,0:0|0:0,0:0:0:0:
264,288,76637,5,4,0:0:0:0:
312,376,77081,2,0,P|408:352|448:232,1,200,2|2,0:0|0:0,0:0:0:0:
448,168,78415,2,0,P|384:160|304:56,1,200,4|2,0:0|0:0,0:0:0:0:
208,32,79748,2,0,L|104:64,2,100,2|8|2,0:0|0:0|0:0,0:0:0:0:
304,24,81081,5,10,0:0:0:0:
304,24,81304,2,0,L|304:104,1,50
304,176,81970,2,0,P|256:192|208:176,1,100,10|0,0:0|0:0,0:0:0:0:
136,112,82859,2,0,P|96:144|96:208,1,100,2|0,0:0|0:0,0:0:0:0:
96,288,83748,6,0,B|192:304|192:304|320:288,1,200,10|4,0:0|0:0,0:0:0:0:
440,328,85304,2,0,L|440:168,1,150,2|10,0:0|0:0,0:0:0:0:
440,80,86415,1,2,0:0:0:0:
352,24,86859,1,4,0:0:0:0:
352,128,87304,2,0,L|352:240,2,100,10|2|10,0:0|0:0|0:0,0:0:0:0:
