osu file format v13

[General]
AudioFilename: natsuiro present.mp3
AudioLeadIn: 0
PreviewTime: 52970
Countdown: 1
SampleSet: Soft
StackLeniency: 0.7
Mode: 0
LetterboxInBreaks: 1
WidescreenStoryboard: 1

[Editor]
DistanceSpacing: 1
BeatDivisor: 4
GridSize: 8
TimelineZoom: 1

[Metadata]
Title:Natsuiro Present (TV Size)
TitleUnicode:夏色プレゼント (TV Size)
Artist:Iguchi Yuka , Asumi Kana , Hikasa Yoko & Ogura Yui
ArtistUnicode:井口裕香、阿澄佳奈、日笠陽子、小倉唯
Creator:-Maruk-
Version:Hard
Source:ヤマノススメ セカンドシーズン
Tags:yama no susume second season opening
BeatmapID:505287
BeatmapSetID:215106

[Difficulty]
HPDrainRate:6
CircleSize:4
OverallDifficulty:6
ApproachRate:7.5
SliderMultiplier:1.5
SliderTickRate:1

[Events]
//Background and Video events
0,0,"natsuiro present.png",0,0
Video,0,"natsuiro present.avi"
//Break Periods
//Storyboard Layer 0 (Background)
//Storyboard Layer 1 (Fail)
//Storyboard Layer 2 (Pass)
//Storyboard Layer 3 (Foreground)
//Storyboard Sound Samples
//Background Colour Transformations
3,100,163,162,255

[TimingPoints]
193,444.444444444444,4,2,1,60,1,0
3081,-100,4,2,2,60,0,0
3526,-100,4,2,1,60,0,0
4859,-100,4,2,2,60,0,0
5304,-100,4,2,1,60,0,0
10192,-100,4,2,2,60,0,0
10637,-100,4,2,1,60,0,0
17526,-83.3333333333333,4,2,1,60,0,0
17970,-100,4,2,1,60,0,0
53081,-133.333333333333,4,2,1,60,0,0
53526,-100,4,2,1,60,0,1
54415,-100,4,2,2,60,0,1
55081,-100,4,2,1,60,0,1
56192,-100,4,2,2,60,0,1
56859,-100,4,2,1,60,0,1
61526,-100,4,2,2,60,0,1
62192,-100,4,2,1,60,0,1
69526,-100,4,2,1,60,0,0
84637,-100,4,2,2,60,0,0
85304,-100,4,2,1,60,0,0

[HitObjects]
424,96,193,6,0,L|456:144,3,37.5,10|0|0|0,0:0|0:0|0:0|0:0,0:0:0:0:
464,160,637,2,0,L|464:216,3,37.5,8|0|0|0,0:0|0:0|0:0|0:0,0:0:0:0:
464,232,1081,1,10,0:0:0:0:
344,296,1526,2,0,P|304:288|264:296,1,75,4|0,0:0|0:0,0:0:0:0:
144,344,1970,5,10,0:0:0:0:
80,304,2192,1,0,0:0:0:0:
32,240,2415,2,0,P|72:232|112:240,1,75,2|0,0:0|0:0,0:0:0:0:
152,296,2859,2,0,P|184:272|200:240,1,75,2|8,0:0|0:0,0:0:0:0:
232,136,3304,1,8,0:0:0:0:
144,64,3526,6,0,P|176:56|224:64,1,75,10|0,0:0|0:0,0:0:0:0:
288,88,3970,1,0,0:0:0:0:
288,160,4192,2,0,L|272:256,1,75,2|0,0:0|0:0,0:0:0:0:
208,272,4637,2,0,L|224:176,1,75,2|8,0:0|0:0,0:0:0:0:
232,88,5081,1,8,0:0:0:0:
136,152,5304,6,0,P|176:184|216:176,1,75,10|0,0:0|0:0,0:0:0:0:
272,168,5748,1,0,0:0:0:0:
344,136,5970,1,0,0:0:0:0:
408,96,6192,2,0,P|424:136|416:176,1,75,10|0,0:0|0:0,0:0:0:0:
392,240,6637,2,0,B|336:272|336:272|312:272,1,75
272,328,7081,2,0,P|224:328|200:312,1,75,10|0,0:0|0:0,0:0:0:0:
152,256,7526,2,0,B|168:208|144:144|144:144|184:160,1,150,2|0,0:0|0:0,0:0:0:0:
280,112,8192,6,0,L|360:96,1,75,4|0,0:0|0:0,0:0:0:0:
320,208,8637,2,0,L|400:192,1,75,4|0,0:0|0:0,0:0:0:0:
464,280,9081,5,10,0:0:0:0:
392,248,9304,1,0,0:0:0:0:
320,280,9526,2,0,P|288:304|248:304,1,75,2|0,0:0|0:0,0:0:0:0:
192,256,9970,2,0,L|192:224|192:176,1,75,2|8,0:0|0:0,0:0:0:0:
192,72,10415,1,8,0:0:0:0:
80,96,10637,6,0,P|104:128|144:136,1,75,10|0,0:0|0:0,0:0:0:0:
208,144,11081,1,0,0:0:0:0:
272,96,11304,2,0,L|288:176,1,75,2|0,0:0|0:0,0:0:0:0:
312,240,11748,2,0,L|336:160,1,75,2|0,0:0|0:0,0:0:0:0:
360,56,12192,2,0,L|392:16,2,37.5,10|0|0,0:0|0:0|0:0,0:0:0:0:
304,152,12637,5,10,0:0:0:0:
224,72,12859,1,0,0:0:0:0:
200,184,13081,2,0,L|232:264,2,75,8|0|10,0:0|0:0|0:0,0:0:0:0:
120,104,13748,1,0,0:0:0:0:
120,216,13970,1,8,0:0:0:0:
192,304,14192,2,0,L|224:224,1,75,0|0,0:0|0:0,0:0:0:0:
256,192,14637,12,0,15304,0:0:0:0:
368,136,15526,5,10,0:0:0:0:
368,136,15748,1,0,0:0:0:0:
368,136,15970,2,0,L|368:240,1,75
368,320,16415,5,10,0:0:0:0:
312,368,16637,1,8,0:0:0:0:
256,320,16859,1,0,0:0:0:0:
208,264,17081,2,0,L|176:352,1,75,10|0,0:0|0:0,0:0:0:0:
120,368,17526,2,0,L|136:272,1,89.9999972534181,4|0,0:0|0:0,0:0:0:0:
88,152,17970,6,0,P|128:136|160:96,1,75,10|0,0:0|0:0,0:0:0:0:
208,64,18415,2,0,L|240:16,3,37.5,2|0|0|0,0:0|0:0|0:0|0:0,0:0:0:0:
264,32,18859,2,0,B|304:48|304:48|328:112|392:128,2,150,8|8|8,0:0|0:0|0:0,0:0:0:0:
192,64,19970,1,0,0:0:0:0:
192,160,20192,6,0,L|168:224,3,37.5,2|0|0|0,0:0|0:0|0:0|0:0,0:0:0:0:
152,224,20637,2,0,B|152:272|152:272|208:280|240:320,2,150,8|8|8,0:0|0:0|0:0,0:0:0:0:
224,200,21748,1,0,0:0:0:0:
288,168,21970,6,0,L|312:104,3,37.5,2|0|0|0,0:0|0:0|0:0|0:0,0:0:0:0:
320,88,22415,2,0,B|344:32|344:32|400:64|464:48,1,150,8|8,0:0|0:0,0:0:0:0:
440,200,23304,6,0,B|376:240|376:240|344:176|264:192|264:192|224:176,1,225,10|0,0:0|0:0,0:0:0:0:
200,128,24192,2,0,L|184:48,1,75,10|0,0:0|0:0,0:0:0:0:
120,24,24637,2,0,B|128:88|128:88|136:152|152:192,1,150,2|4,0:0|0:0,0:0:0:0:
96,272,25304,5,10,0:0:0:0:
56,336,25526,1,0,0:0:0:0:
128,360,25748,1,0,0:0:0:0:
200,336,25970,2,0,B|240:328|240:328|280:352|320:344,1,112.5,8|0,0:0|0:0,0:0:0:0:
336,328,26415,2,0,B|329:299|353:259|353:259|345:219,1,112.5,8|0,0:0|0:0,0:0:0:0:
336,184,26859,1,10,0:0:0:0:
416,112,27081,5,8,0:0:0:0:
456,176,27304,1,2,0:0:0:0:
400,224,27526,1,0,0:0:0:0:
328,200,27748,2,0,B|288:184|288:184|256:216|208:200,1,112.5,8|0,0:0|0:0,0:0:0:0:
192,184,28192,2,0,B|176:224|176:224|208:256|192:304,1,112.5,10|0,0:0|0:0,0:0:0:0:
216,320,28637,2,0,B|280:376|280:376|224:352|184:376|184:376|162:354|136:376,1,225,8|0,0:0|0:0,0:0:0:0:
80,344,29526,2,0,B|104:256,1,75,8|0,0:0|0:0,0:0:0:0:
120,200,29970,2,0,B|144:112,1,75,8|0,0:0|0:0,0:0:0:0:
256,192,30415,12,0,31970,0:0:0:0:
256,192,32192,5,4,0:0:0:0:
320,104,32415,1,2,0:0:0:0:
296,32,32637,1,0,0:0:0:0:
224,64,32859,1,0,0:0:0:0:
160,96,33081,2,0,P|88:112|8:96,1,150,8|2,0:0|0:0,0:0:0:0:
48,168,33748,1,0,0:0:0:0:
64,240,33970,1,2,0:0:0:0:
136,152,34192,5,2,0:0:0:0:
208,184,34415,1,0,0:0:0:0:
232,256,34637,1,0,0:0:0:0:
168,296,34859,2,0,B|152:336|152:336|176:368|208:352,1,75,10|0,0:0|0:0,0:0:0:0:
248,368,35304,2,0,L|256:272,1,75,2|0,0:0|0:0,0:0:0:0:
336,216,35748,6,0,L|368:128,1,75,10|0,0:0|0:0,0:0:0:0:
256,168,36192,2,0,L|256:72,1,75,2|0,0:0|0:0,0:0:0:0:
168,216,36637,2,2,L|136:128,1,75,10|0,0:0|0:0,0:0:0:0:
96,40,37081,2,0,L|96:136,1,75,2|0,0:0|0:0,0:0:0:0:
96,224,37526,6,0,B|104:184|104:184|160:232|216:232,1,150,4|0,0:0|0:0,0:0:0:0:
272,240,38192,2,0,L|304:288,2,37.5,10|0|0,0:0|0:0|0:0,0:0:0:0:
224,184,38637,2,0,B|208:168|192:129|192:129|256:121|264:81,1,150,10|0,0:0|0:0,0:0:0:0:
315,34,39304,2,0,B|331:-6|331:-6|363:42|411:74,1,150,12|0,0:0|0:0,0:0:0:0:
456,152,39970,5,10,0:0:0:0:
456,152,40192,2,0,P|400:216|320:224,1,150
280,176,40859,1,2,0:0:0:0:
224,120,41081,2,0,P|144:144|88:200,1,150
56,256,41748,2,0,L|40:344,1,75,2|0,0:0|0:0,0:0:0:0:
152,296,42192,5,2,0:0:0:0:
216,256,42415,2,0,L|240:216,2,37.5,0|0|0,0:0|0:0|0:0,0:0:0:0:
216,328,42859,2,0,P|288:344|368:328,1,150,10|0,0:0|0:0,0:0:0:0:
424,288,43526,2,0,L|440:200,1,75,10|0,0:0|0:0,0:0:0:0:
448,104,43970,5,0,0:0:0:0:
360,40,44192,1,2,0:0:0:0:
360,40,44637,2,0,B|344:104|344:104|344:128|344:128|328:192,1,150,10|0,0:0|0:0,0:0:0:0:
304,256,45304,1,2,0:0:0:0:
272,328,45526,2,0,B|216:336|216:336|176:320|128:288,1,150,0|4,0:0|0:0,0:0:0:0:
104,144,46415,6,0,P|144:128|240:64,1,150,4|0,0:0|0:0,0:0:0:0:
288,16,47081,1,2,0:0:0:0:
344,72,47304,2,0,P|405:115|473:146,1,150,0|0,0:0|0:0,0:0:0:0:
480,224,47970,2,0,L|448:272,1,37.5,2|0,0:0|0:0,0:0:0:0:
440,288,48192,2,0,P|384:248|320:296,1,150,0|0,0:0|0:0,0:0:0:0:
272,344,48859,5,10,0:0:0:0:
216,248,49081,1,0,0:0:0:0:
104,272,49304,2,0,L|104:112,1,150,4|0,0:0|0:0,0:0:0:0:
104,48,49970,5,10,0:0:0:0:
176,16,50192,1,0,0:0:0:0:
240,56,50415,1,0,0:0:0:0:
240,128,50637,1,0,0:0:0:0:
184,176,50859,2,0,L|200:264,1,75,2|0,0:0|0:0,0:0:0:0:
224,320,51304,2,0,L|240:232,1,75,2|0,0:0|0:0,0:0:0:0:
256,176,51748,6,0,P|288:144|328:224,1,150,6|0,0:0|0:0,0:0:0:0:
344,280,52415,1,0,0:0:0:0:
408,240,52637,2,0,L|424:160,1,75,10|0,0:0|0:0,0:0:0:0:
424,80,53081,6,0,P|384:80|344:48,1,84.3750032186509,8|0,0:0|0:0,0:0:0:0:
296,32,53526,6,0,L|224:72,1,75,4|0,0:0|0:0,0:0:0:0:
160,104,53970,1,2,0:0:0:0:
232,128,54192,1,0,0:0:0:0:
192,192,54415,2,0,L|168:272,1,75,10|0,0:0|0:0,0:0:0:0:
144,336,54859,1,8,0:0:0:0:
256,336,55081,6,0,P|288:328|336:336,1,75,4|0,0:0|0:0,0:0:0:0:
400,360,55526,1,0,0:0:0:0:
472,336,55748,2,0,L|472:256,1,75,2|0,0:0|0:0,0:0:0:0:
464,184,56192,2,0,P|424:184|392:144,1,75,8|0,0:0|0:0,0:0:0:0:
352,104,56637,1,8,0:0:0:0:
288,200,56859,6,0,L|288:112,1,75,4|0,0:0|0:0,0:0:0:0:
288,48,57304,1,2,0:0:0:0:
232,104,57526,1,0,0:0:0:0:
168,200,57748,2,0,L|168:104,1,75,4|0,0:0|0:0,0:0:0:0:
168,48,58192,1,2,0:0:0:0:
112,104,58415,1,0,0:0:0:0:
56,152,58637,2,0,L|120:216,1,75,4|0,0:0|0:0,0:0:0:0:
168,248,59081,2,0,P|224:264|264:192,1,150,2|0,0:0|0:0,0:0:0:0:
304,88,59748,6,0,L|328:176,1,75,4|0,0:0|0:0,0:0:0:0:
408,88,60192,2,0,L|392:168,1,75,4|0,0:0|0:0,0:0:0:0:
400,272,60637,6,0,L|312:240,1,75,10|0,0:0|0:0,0:0:0:0:
256,224,61081,2,0,B|216:248|216:248|176:248,1,75,2|0,0:0|0:0,0:0:0:0:
120,216,61526,2,0,L|112:128,1,75,8|0,0:0|0:0,0:0:0:0:
104,64,61970,1,8,0:0:0:0:
208,104,62192,6,0,P|272:96|360:136,1,150,4|0,0:0|0:0,0:0:0:0:
400,184,62859,2,0,P|408:232|376:264,1,75,2|0,0:0|0:0,0:0:0:0:
328,296,63304,2,0,P|254:302|186:272,1,150,2|8,0:0|0:0,0:0:0:0:
80,168,64192,5,10,0:0:0:0:
48,232,64415,1,0,0:0:0:0:
16,296,64637,2,0,L|40:376,2,75,8|0|8,0:0|0:0|0:0,0:0:0:0:
48,232,65304,1,0,0:0:0:0:
120,232,65526,1,2,0:0:0:0:
168,288,65748,2,0,P|200:304|248:280,1,75
256,192,66192,12,0,66859,0:0:0:0:
384,96,67081,5,2,0:0:0:0:
384,168,67304,1,0,0:0:0:0:
376,240,67526,2,0,P|312:192|312:184,1,75,10|0,0:0|0:0,0:0:0:0:
248,168,67970,1,8,0:0:0:0:
200,224,68192,1,2,0:0:0:0:
128,200,68415,1,0,0:0:0:0:
104,128,68637,1,10,0:0:0:0:
104,128,69081,2,0,L|104:288,1,150,4|10,0:0|0:0,0:0:0:0:
192,344,69970,6,0,L|208:392,2,37.5,2|0|0,0:0|0:0|0:0,0:0:0:0:
168,272,70415,2,0,P|208:216|296:200,1,150,2|8,0:0|0:0,0:0:0:0:
360,208,71081,1,0,0:0:0:0:
424,248,71304,1,2,0:0:0:0:
464,184,71526,6,0,L|496:120,4,37.5,2|0|0|0|0,0:0|0:0|0:0|0:0|0:0,0:0:0:0:
424,248,72192,2,0,P|384:240|352:192,1,75,10|0,0:0|0:0,0:0:0:0:
352,144,72637,2,0,L|352:72,2,37.5,2|0|0,0:0|0:0|0:0,0:0:0:0:
320,216,73081,5,2,0:0:0:0:
272,272,73304,1,0,0:0:0:0:
200,256,73526,1,2,0:0:0:0:
128,272,73748,1,0,0:0:0:0:
104,344,73970,1,2,0:0:0:0:
176,368,74192,2,0,L|176:293,1,75,10|0,0:0|0:0,0:0:0:0:
200,224,74637,2,0,L|224:280,2,37.5,2|0|0,0:0|0:0|0:0,0:0:0:0:
184,152,75081,5,2,0:0:0:0:
216,88,75304,1,0,0:0:0:0:
280,48,75526,1,0,0:0:0:0:
352,56,75748,2,0,P|384:88|384:120,1,75,10|0,0:0|0:0,0:0:0:0:
376,192,76192,2,0,L|376:272,1,75,10|0,0:0|0:0,0:0:0:0:
296,352,76637,5,4,0:0:0:0:
296,352,77081,2,0,L|360:360,2,37.5,2|0|0,0:0|0:0|0:0,0:0:0:0:
232,312,77526,2,0,B|176:312|176:312|152:288,1,75,2|0,0:0|0:0,0:0:0:0:
128,232,77970,2,0,L|104:184,2,37.5,2|0|0,0:0|0:0|0:0,0:0:0:0:
200,264,78415,6,0,P|240:272|280:264,1,75,10|0,0:0|0:0,0:0:0:0:
344,240,78859,2,0,L|368:280,2,37.5,2|0|0,0:0|0:0|0:0,0:0:0:0:
312,176,79304,2,0,L|312:80,1,75,2|0,0:0|0:0,0:0:0:0:
352,40,79748,2,0,L|383:19,2,37.5,2|0|0,0:0|0:0|0:0,0:0:0:0:
288,80,80192,5,10,0:0:0:0:
216,104,80415,1,0,0:0:0:0:
144,80,80637,1,2,0:0:0:0:
104,144,80859,1,0,0:0:0:0:
104,216,81081,1,10,0:0:0:0:
72,288,81304,2,0,B|88:320|88:320|112:352,1,75
224,328,81748,6,0,L|248:272,1,37.5,10|0,0:0|0:0,0:0:0:0:
256,256,81970,2,0,B|288:200|280:128|280:128|312:152,1,150,2|0,0:0|0:0,0:0:0:0:
376,224,82637,2,0,L|376:176,1,37.5,10|0,0:0|0:0,0:0:0:0:
376,152,82859,2,0,B|344:112|344:112|280:136|224:112|224:112|184:152,1,225,2|0,0:0|0:0,0:0:0:0:
104,224,83748,5,2,0:0:0:0:
128,296,83970,1,0,0:0:0:0:
192,256,84192,2,0,P|232:248|272:256,1,75,2|0,0:0|0:0,0:0:0:0:
328,296,84637,2,0,P|344:256|344:216,1,75,10|0,0:0|0:0,0:0:0:0:
336,152,85081,1,8,0:0:0:0:
288,48,85304,6,0,P|256:80|248:112,1,75,2|0,0:0|0:0,0:0:0:0:
240,184,85748,1,0,0:0:0:0:
176,224,85970,2,0,L|184:304,1,75,10|0,0:0|0:0,0:0:0:0:
112,272,86415,2,0,L|120:352,1,75,2|0,0:0|0:0,0:0:0:0:
232,360,86859,6,0,L|232:280,1,75,4|0,0:0|0:0,0:0:0:0:
232,176,87304,1,10,0:0:0:0:
136,120,87452,1,0,0:0:0:0:
232,64,87600,1,0,0:0:0:0:
328,120,87748,1,10,0:0:0:0:
232,176,87896,2,0,L|232:248,2,50,0|0|10,0:0|0:0|0:0,0:0:0:0:
