osu file format v14

[General]
AudioFilename: 01_igorrr_tout_petit_moineau.mp3
AudioLeadIn: 0
PreviewTime: 96061
Countdown: 0
SampleSet: Normal
StackLeniency: 0.7
Mode: 1
LetterboxInBreaks: 0
WidescreenStoryboard: 0

[Editor]
Bookmarks: 24811,55378,92736,96132,109717,123302,136887,164057,191227,218396
DistanceSpacing: 2
BeatDivisor: 4
GridSize: 32
TimelineZoom: 1.5

[Metadata]
Title:Tout Petit Moineau
TitleUnicode:Tout Petit Moineau
Artist:Igorrr
ArtistUnicode:Igorrr
Creator:fergas
Version:Ono's Muzukashii
Source:
Tags:hallelujah breakcore baroque baroquecore black death metal adn165 ad noiseam Laure Le Prunenec OnosakiHito
BeatmapID:655753
BeatmapSetID:212180

[Difficulty]
HPDrainRate:5
CircleSize:4.1
OverallDifficulty:4
ApproachRate:5
SliderMultiplier:1.3
SliderTickRate:1

[Events]
//Background and Video events
0,0,"Taiko_BG.jpg",0,0
//Break Periods
//Storyboard Layer 0 (Background)
//Storyboard Layer 1 (Fail)
//Storyboard Layer 2 (Pass)
//Storyboard Layer 3 (Foreground)
//Storyboard Sound Samples

[TimingPoints]
24812,283.018867924528,6,1,0,80,1,0
96132,-100,6,1,0,80,0,1
102925,-100,6,1,0,80,0,0
109717,-100,6,1,0,80,0,1
113113,-100,6,1,0,80,0,0
116510,-100,6,1,0,80,0,1
125000,-100,6,1,0,80,0,0
126698,-100,6,1,0,80,0,1
136887,-100,6,1,0,80,0,0

[Colours]
Combo1 : 64,128,128
Combo2 : 0,128,64

[HitObjects]
256,192,24811,5,0,0:0:0:0:
256,192,26227,1,0,0:0:0:0:
256,192,26368,5,8,0:0:0:0:
256,192,26510,1,8,0:0:0:0:
256,192,26651,5,0,0:0:0:0:
256,192,26793,1,0,0:0:0:0:
256,192,27076,1,0,0:0:0:0:
256,192,27925,1,0,0:0:0:0:
256,192,28208,1,0,0:0:0:0:
256,192,28349,1,0,0:0:0:0:
256,192,28632,5,8,0:0:0:0:
256,192,28774,5,0,0:0:0:0:
256,192,29340,1,0,0:0:0:0:
256,192,29481,1,0,0:0:0:0:
256,192,29764,5,8,0:0:0:0:
256,192,29906,5,0,0:0:0:0:
256,192,30472,5,8,0:0:0:0:
256,192,30613,1,8,0:0:0:0:
256,192,30896,1,8,0:0:0:0:
256,192,31321,1,8,0:0:0:0:
256,192,31604,5,4,0:0:0:0:
256,192,32028,5,8,0:0:0:0:
256,192,32453,1,8,0:0:0:0:
256,192,32736,5,4,0:0:0:0:
256,192,33868,5,0,0:0:0:0:
256,192,34151,5,8,0:0:0:0:
256,192,34293,5,0,0:0:0:0:
256,192,34859,1,0,0:0:0:0:
256,192,35000,1,0,0:0:0:0:
256,192,35283,5,8,0:0:0:0:
256,192,35425,5,0,0:0:0:0:
256,192,35566,1,0,0:0:0:0:
256,192,35991,5,0,0:0:0:0:
256,192,36132,1,0,0:0:0:0:
256,192,36415,5,8,0:0:0:0:
256,192,36557,5,0,0:0:0:0:
256,192,38396,5,0,0:0:0:0:
256,192,38679,5,8,0:0:0:0:
256,192,38821,1,8,0:0:0:0:
256,192,38963,1,8,0:0:0:0:
256,192,39104,1,8,0:0:0:0:
256,192,39246,5,0,0:0:0:0:
256,192,39528,1,0,0:0:0:0:
256,192,39811,1,0,0:0:0:0:
256,192,40095,1,0,0:0:0:0:
256,192,40944,5,8,0:0:0:0:
256,192,41227,1,8,0:0:0:0:
256,192,41510,1,8,0:0:0:0:
256,192,41793,5,0,0:0:0:0:
256,192,41934,1,0,0:0:0:0:
256,192,42217,1,0,0:0:0:0:
256,192,42642,1,0,0:0:0:0:
256,192,42783,1,0,0:0:0:0:
256,192,43066,1,0,0:0:0:0:
256,192,43491,5,8,0:0:0:0:
256,192,43774,1,8,0:0:0:0:
256,192,44057,1,8,0:0:0:0:
256,192,44340,1,8,0:0:0:0:
256,192,44623,5,0,0:0:0:0:
256,192,45189,5,8,0:0:0:0:
256,192,46321,5,4,0:0:0:0:
256,192,47453,1,0,0:0:0:0:
256,192,47736,5,8,0:0:0:0:
256,192,47878,5,0,0:0:0:0:
256,192,48161,5,8,0:0:0:0:
256,192,48585,1,8,0:0:0:0:
256,192,49576,5,0,0:0:0:0:
256,192,49717,1,0,0:0:0:0:
256,192,50000,5,8,0:0:0:0:
256,192,50283,1,8,0:0:0:0:
256,192,50566,1,8,0:0:0:0:
256,192,50849,1,8,0:0:0:0:
256,192,51132,5,0,0:0:0:0:
256,192,51415,5,8,0:0:0:0:
256,192,51981,5,0,0:0:0:0:
256,192,52264,5,8,0:0:0:0:
256,192,52406,1,0,0:0:0:0:
256,192,52547,1,0,0:0:0:0:
256,192,52689,1,0,0:0:0:0:
256,192,53113,5,8,0:0:0:0:
256,192,53679,1,8,0:0:0:0:
256,192,54245,1,8,0:0:0:0:
256,192,55378,5,0,0:0:0:0:
256,192,55661,1,0,0:0:0:0:
256,192,55944,1,0,0:0:0:0:
256,192,56085,1,0,0:0:0:0:
256,192,56227,1,0,0:0:0:0:
256,192,56793,5,12,0:0:0:0:
256,192,57217,1,12,0:0:0:0:
256,192,57642,1,12,0:0:0:0:
256,192,58066,1,12,0:0:0:0:
256,192,58208,5,4,0:0:0:0:
256,192,58774,1,0,0:0:0:0:
256,192,59906,1,0,0:0:0:0:
256,192,61038,1,0,0:0:0:0:
256,192,61321,5,8,0:0:0:0:
256,192,61463,5,0,0:0:0:0:
256,192,61745,1,0,0:0:0:0:
256,192,62028,1,0,0:0:0:0:
256,192,62170,1,0,0:0:0:0:
256,192,62453,5,8,0:0:0:0:
256,192,62595,5,0,0:0:0:0:
256,192,63161,1,0,0:0:0:0:
256,192,63302,1,0,0:0:0:0:
256,192,63585,5,8,0:0:0:0:
256,192,63727,5,0,0:0:0:0:
256,192,64010,1,0,0:0:0:0:
256,192,64293,1,0,0:0:0:0:
256,192,64434,5,0,0:0:0:0:
256,192,64717,1,8,0:0:0:0:
256,192,64859,5,0,0:0:0:0:
256,192,65283,5,8,0:0:0:0:
256,192,65566,5,4,0:0:0:0:
256,192,66415,5,8,0:0:0:0:
256,192,66557,1,8,0:0:0:0:
256,192,66698,1,8,0:0:0:0:
256,192,66981,1,8,0:0:0:0:
256,192,67264,1,8,0:0:0:0:
256,192,68113,5,8,0:0:0:0:
256,192,68255,1,8,0:0:0:0:
256,192,68396,1,8,0:0:0:0:
256,192,68679,1,8,0:0:0:0:
256,192,68962,5,0,0:0:0:0:
256,192,69811,5,8,0:0:0:0:
256,192,69953,1,8,0:0:0:0:
256,192,70095,1,8,0:0:0:0:
256,192,70378,1,8,0:0:0:0:
256,192,70661,1,8,0:0:0:0:
256,192,71510,5,8,0:0:0:0:
256,192,71651,1,8,0:0:0:0:
256,192,71793,1,8,0:0:0:0:
256,192,72359,5,0,0:0:0:0:
256,192,73491,5,0,0:0:0:0:
256,192,73774,1,0,0:0:0:0:
256,192,74057,5,8,0:0:0:0:
256,192,74623,5,0,0:0:0:0:
256,192,75000,1,0,0:0:0:0:
256,192,75378,1,0,0:0:0:0:
256,192,75755,5,8,0:0:0:0:
256,192,76887,5,4,0:0:0:0:
256,192,77170,1,4,0:0:0:0:
256,192,77453,1,4,0:0:0:0:
256,192,77736,1,4,0:0:0:0:
256,192,78019,1,4,0:0:0:0:
256,192,78302,1,4,0:0:0:0:
256,192,78585,1,4,0:0:0:0:
256,192,78868,1,4,0:0:0:0:
256,192,79151,1,4,0:0:0:0:
256,192,79434,5,8,0:0:0:0:
256,192,79576,5,0,0:0:0:0:
256,192,79859,1,0,0:0:0:0:
256,192,80283,5,8,0:0:0:0:
256,192,80566,1,8,0:0:0:0:
256,192,80849,1,0,0:0:0:0:
256,192,81132,5,8,0:0:0:0:
256,192,81274,5,0,0:0:0:0:
256,192,81981,1,0,0:0:0:0:
256,192,82123,5,8,0:0:0:0:
256,192,82264,1,8,0:0:0:0:
256,192,82547,5,0,0:0:0:0:
256,192,82830,5,8,0:0:0:0:
256,192,82972,5,0,0:0:0:0:
256,192,83255,1,0,0:0:0:0:
256,192,83679,5,8,0:0:0:0:
256,192,83962,1,8,0:0:0:0:
256,192,84245,5,0,0:0:0:0:
256,192,84528,5,8,0:0:0:0:
256,192,84670,5,0,0:0:0:0:
256,192,85378,5,8,0:0:0:0:
256,192,85519,1,8,0:0:0:0:
256,192,85661,1,8,0:0:0:0:
256,192,85944,5,0,0:0:0:0:
256,192,86227,5,8,0:0:0:0:
256,192,86368,5,0,0:0:0:0:
256,192,86793,5,8,0:0:0:0:
256,192,87076,1,12,0:0:0:0:
256,192,87925,5,0,0:0:0:0:
256,192,88208,1,0,0:0:0:0:
256,192,88491,5,8,0:0:0:0:
256,192,88632,5,0,0:0:0:0:
256,192,88915,1,0,0:0:0:0:
256,192,89057,1,0,0:0:0:0:
256,192,89340,5,12,0:0:0:0:
256,192,90189,5,0,0:0:0:0:
256,192,90472,1,0,0:0:0:0:
256,192,91038,1,0,0:0:0:0:
256,192,91604,1,0,0:0:0:0:
256,192,92170,1,0,0:0:0:0:
256,192,92736,1,4,0:0:0:0:
256,192,96132,5,4,0:0:0:0:
256,192,97264,5,8,0:0:0:0:
256,192,97406,1,8,0:0:0:0:
256,192,97547,1,8,0:0:0:0:
256,192,97689,1,8,0:0:0:0:
256,192,97830,5,0,0:0:0:0:
256,192,98113,5,8,0:0:0:0:
256,192,98255,5,8,0:0:0:0:
256,192,98396,5,0,0:0:0:0:
256,192,98679,1,0,0:0:0:0:
256,192,98962,5,8,0:0:0:0:
256,192,99104,1,8,0:0:0:0:
256,192,99245,5,0,0:0:0:0:
256,192,99387,1,0,0:0:0:0:
256,192,99528,1,0,0:0:0:0:
256,192,99811,5,8,0:0:0:0:
256,192,100378,5,4,0:0:0:0:
256,192,100661,1,4,0:0:0:0:
256,192,100944,1,4,0:0:0:0:
256,192,101227,1,4,0:0:0:0:
256,192,101510,1,4,0:0:0:0:
256,192,101793,1,4,0:0:0:0:
256,192,102076,1,4,0:0:0:0:
256,192,102359,1,4,0:0:0:0:
256,192,102642,1,4,0:0:0:0:
256,192,102925,1,4,0:0:0:0:
256,192,105189,5,8,0:0:0:0:
256,192,105330,1,8,0:0:0:0:
256,192,105472,1,8,0:0:0:0:
256,192,105613,1,8,0:0:0:0:
256,192,105755,1,8,0:0:0:0:
256,192,106038,1,8,0:0:0:0:
256,192,106321,1,8,0:0:0:0:
256,192,106462,1,8,0:0:0:0:
256,192,106604,1,8,0:0:0:0:
256,192,106887,1,8,0:0:0:0:
256,192,107311,1,8,0:0:0:0:
256,192,107453,1,8,0:0:0:0:
256,192,107595,1,8,0:0:0:0:
256,192,107736,1,8,0:0:0:0:
256,192,107878,1,8,0:0:0:0:
256,192,108019,1,8,0:0:0:0:
256,192,108302,1,8,0:0:0:0:
256,192,108444,1,8,0:0:0:0:
256,192,108585,1,8,0:0:0:0:
256,192,108868,1,8,0:0:0:0:
256,192,109293,1,8,0:0:0:0:
256,192,109717,5,0,0:0:0:0:
256,192,109859,5,8,0:0:0:0:
256,192,110000,5,0,0:0:0:0:
256,192,110142,5,8,0:0:0:0:
256,192,110283,5,0,0:0:0:0:
256,192,110566,1,0,0:0:0:0:
256,192,110708,5,8,0:0:0:0:
256,192,110849,5,0,0:0:0:0:
256,192,110991,5,8,0:0:0:0:
256,192,111132,5,0,0:0:0:0:
256,192,111415,1,0,0:0:0:0:
256,192,111698,1,0,0:0:0:0:
256,192,111840,5,8,0:0:0:0:
256,192,111981,5,0,0:0:0:0:
256,192,112123,5,8,0:0:0:0:
256,192,112264,5,0,0:0:0:0:
256,192,112547,5,8,0:0:0:0:
256,192,113113,5,0,0:0:0:0:
256,192,113255,1,0,0:0:0:0:
256,192,113396,1,0,0:0:0:0:
256,192,113538,1,0,0:0:0:0:
256,192,113679,1,0,0:0:0:0:
256,192,114245,1,0,0:0:0:0:
256,192,114528,1,0,0:0:0:0:
256,192,114811,1,0,0:0:0:0:
256,192,114953,1,0,0:0:0:0:
256,192,115095,1,0,0:0:0:0:
256,192,115236,1,0,0:0:0:0:
256,192,115378,1,0,0:0:0:0:
256,192,115944,1,0,0:0:0:0:
256,192,116227,1,0,0:0:0:0:
256,192,116510,5,0,0:0:0:0:
256,192,116793,5,8,0:0:0:0:
256,192,116934,1,8,0:0:0:0:
256,192,117076,1,8,0:0:0:0:
256,192,117359,5,4,0:0:0:0:
256,192,118208,5,8,0:0:0:0:
256,192,118349,1,8,0:0:0:0:
256,192,118491,1,8,0:0:0:0:
256,192,118632,1,8,0:0:0:0:
256,192,118774,1,8,0:0:0:0:
256,192,118915,1,8,0:0:0:0:
256,192,119057,5,0,0:0:0:0:
256,192,119340,5,8,0:0:0:0:
256,192,119623,1,8,0:0:0:0:
256,192,119906,5,4,0:0:0:0:
256,192,120472,1,4,0:0:0:0:
256,192,121038,1,4,0:0:0:0:
256,192,121604,1,4,0:0:0:0:
256,192,121887,1,4,0:0:0:0:
256,192,122170,1,4,0:0:0:0:
256,192,122453,1,4,0:0:0:0:
256,192,123302,1,0,0:0:0:0:
256,192,123444,5,8,0:0:0:0:
256,192,123585,5,0,0:0:0:0:
256,192,123727,5,8,0:0:0:0:
256,192,123868,5,0,0:0:0:0:
256,192,124151,1,0,0:0:0:0:
256,192,124293,5,8,0:0:0:0:
256,192,124434,5,0,0:0:0:0:
256,192,124717,5,8,0:0:0:0:
256,192,125000,5,4,0:0:0:0:
256,192,125424,5,8,0:0:0:0:
256,192,125566,1,8,0:0:0:0:
256,192,125849,1,8,0:0:0:0:
256,192,126132,1,8,0:0:0:0:
256,192,126698,5,0,0:0:0:0:
256,192,126840,5,8,0:0:0:0:
256,192,126981,5,0,0:0:0:0:
256,192,127264,1,0,0:0:0:0:
256,192,127406,5,8,0:0:0:0:
256,192,127547,5,0,0:0:0:0:
256,192,127689,5,8,0:0:0:0:
256,192,127830,5,0,0:0:0:0:
256,192,128113,5,8,0:0:0:0:
256,192,128396,5,0,0:0:0:0:
256,192,128538,1,0,0:0:0:0:
256,192,128679,5,8,0:0:0:0:
256,192,128962,5,0,0:0:0:0:
256,192,129104,5,8,0:0:0:0:
256,192,129245,5,0,0:0:0:0:
256,192,129528,5,8,0:0:0:0:
256,192,129811,1,8,0:0:0:0:
256,192,130095,5,0,0:0:0:0:
256,192,131227,1,4,0:0:0:0:
256,192,132359,1,0,0:0:0:0:
256,192,132642,1,0,0:0:0:0:
256,192,133066,1,0,0:0:0:0:
256,192,133208,1,0,0:0:0:0:
256,192,133491,5,8,0:0:0:0:
256,192,133632,1,8,0:0:0:0:
256,192,133774,1,8,0:0:0:0:
256,192,133915,1,8,0:0:0:0:
256,192,134057,1,8,0:0:0:0:
256,192,134198,1,8,0:0:0:0:
256,192,134340,1,8,0:0:0:0:
256,192,134481,1,8,0:0:0:0:
256,192,134623,1,8,0:0:0:0:
256,192,135047,1,8,0:0:0:0:
256,192,135189,1,8,0:0:0:0:
256,192,135472,1,8,0:0:0:0:
256,192,135613,1,8,0:0:0:0:
256,192,135755,1,8,0:0:0:0:
256,192,135896,1,8,0:0:0:0:
256,192,136038,1,8,0:0:0:0:
256,192,136179,1,8,0:0:0:0:
256,192,136321,1,8,0:0:0:0:
256,192,136462,1,8,0:0:0:0:
256,192,136604,1,8,0:0:0:0:
256,192,136887,5,0,0:0:0:0:
256,192,137736,5,8,0:0:0:0:
256,192,138019,1,8,0:0:0:0:
256,192,138302,1,8,0:0:0:0:
256,192,138585,5,0,0:0:0:0:
256,192,138868,1,0,0:0:0:0:
256,192,139151,5,8,0:0:0:0:
256,192,139293,1,8,0:0:0:0:
256,192,139434,5,0,0:0:0:0:
256,192,139717,5,8,0:0:0:0:
256,192,140000,5,0,0:0:0:0:
256,192,140283,5,8,0:0:0:0:
256,192,140425,5,0,0:0:0:0:
256,192,140566,5,8,0:0:0:0:
256,192,140708,5,0,0:0:0:0:
256,192,140849,5,8,0:0:0:0:
256,192,140991,5,0,0:0:0:0:
256,192,141132,5,8,0:0:0:0:
256,192,141274,5,0,0:0:0:0:
256,192,141698,5,8,0:0:0:0:
256,192,141981,1,8,0:0:0:0:
256,192,142264,1,8,0:0:0:0:
256,192,142547,1,8,0:0:0:0:
256,192,142830,1,8,0:0:0:0:
256,192,143113,1,8,0:0:0:0:
256,192,143396,1,8,0:0:0:0:
256,192,143679,6,0,L|96:192,3,130
256,192,144811,5,0,0:0:0:0:
256,192,145378,5,8,0:0:0:0:
256,192,145944,5,0,0:0:0:0:
256,192,146510,5,8,0:0:0:0:
256,192,147076,5,4,0:0:0:0:
256,192,148066,1,0,0:0:0:0:
256,192,148208,1,0,0:0:0:0:
256,192,148491,5,8,0:0:0:0:
256,192,148774,5,0,0:0:0:0:
256,192,149340,1,0,0:0:0:0:
256,192,149906,1,0,0:0:0:0:
256,192,150189,5,8,0:0:0:0:
256,192,150472,5,0,0:0:0:0:
256,192,150613,1,0,0:0:0:0:
256,192,150896,5,8,0:0:0:0:
256,192,151038,5,0,0:0:0:0:
256,192,151321,5,8,0:0:0:0:
256,192,151887,5,0,0:0:0:0:
256,192,152311,1,0,0:0:0:0:
256,192,152736,5,8,0:0:0:0:
256,192,153019,1,8,0:0:0:0:
256,192,153302,1,8,0:0:0:0:
256,192,153585,5,0,0:0:0:0:
256,192,154293,5,8,0:0:0:0:
256,192,154434,5,0,0:0:0:0:
256,192,154717,5,8,0:0:0:0:
256,192,155142,1,8,0:0:0:0:
256,192,155425,1,8,0:0:0:0:
256,192,155566,1,8,0:0:0:0:
256,192,155991,1,8,0:0:0:0:
256,192,156274,1,8,0:0:0:0:
256,192,156415,1,8,0:0:0:0:
256,192,156840,1,8,0:0:0:0:
256,192,157123,1,8,0:0:0:0:
256,192,157264,5,0,0:0:0:0:
256,192,157830,1,0,0:0:0:0:
256,192,158396,5,12,0:0:0:0:
256,192,159528,5,0,0:0:0:0:
256,192,159811,1,0,0:0:0:0:
256,192,160095,1,0,0:0:0:0:
256,192,160378,1,0,0:0:0:0:
256,192,160661,1,0,0:0:0:0:
256,192,160944,5,8,0:0:0:0:
256,192,161085,1,8,0:0:0:0:
256,192,161227,1,8,0:0:0:0:
256,192,161510,5,0,0:0:0:0:
256,192,161793,5,12,0:0:0:0:
256,192,162076,1,12,0:0:0:0:
256,192,162359,1,12,0:0:0:0:
256,192,162642,1,12,0:0:0:0:
256,192,162925,1,12,0:0:0:0:
256,192,163208,1,12,0:0:0:0:
256,192,163491,1,12,0:0:0:0:
256,192,163774,1,12,0:0:0:0:
256,192,164057,5,4,0:0:0:0:
