osu file format v14

[General]
AudioFilename: 01_igorrr_tout_petit_moineau.mp3
AudioLeadIn: 0
PreviewTime: 96061
Countdown: 0
SampleSet: Normal
StackLeniency: 0.7
Mode: 1
LetterboxInBreaks: 0
WidescreenStoryboard: 0

[Editor]
Bookmarks: 24811,55378,92736,96132,109717,123302,136887,164057,191227,218396
DistanceSpacing: 2
BeatDivisor: 4
GridSize: 32
TimelineZoom: 2.2

[Metadata]
Title:Tout Petit Moineau
TitleUnicode:Tout Petit Moineau
Artist:Igorrr
ArtistUnicode:Igorrr
Creator:fergas
Version:Ono's Inner Oni
Source:
Tags:hallelujah breakcore baroque baroquecore black death metal adn165 ad noiseam Laure Le Prunenec OnosakiHito
BeatmapID:540257
BeatmapSetID:212180

[Difficulty]
HPDrainRate:5
CircleSize:4.1
OverallDifficulty:6
ApproachRate:5
SliderMultiplier:1.3
SliderTickRate:1

[Events]
//Background and Video events
0,0,"Taiko_BG.jpg",0,0
//Break Periods
//Storyboard Layer 0 (Background)
//Storyboard Layer 1 (Fail)
//Storyboard Layer 2 (Pass)
//Storyboard Layer 3 (Foreground)
//Storyboard Sound Samples

[TimingPoints]
24812,283.018867924528,6,1,0,80,1,0
96132,-68.9655172413793,6,1,0,80,0,1
96981,-100,6,1,0,80,0,1
102925,-66.6666666666667,6,1,0,80,0,0
105189,-100,6,1,0,80,0,0
109717,-100,6,1,0,80,0,1
113113,-100,6,1,0,80,0,0
116510,-100,6,1,0,80,0,1
125000,-100,6,1,0,80,0,0
126698,-100,6,1,0,80,0,1
136887,-100,6,1,0,80,0,0

[Colours]
Combo1 : 64,128,128
Combo2 : 0,128,64

[HitObjects]
256,192,24811,5,0,0:0:0:0:
256,192,25661,5,4,0:0:0:0:
256,192,25944,5,12,0:0:0:0:
256,192,26227,5,0,0:0:0:0:
256,192,26368,5,8,0:0:0:0:
256,192,26510,1,8,0:0:0:0:
256,192,26580,1,8,0:0:0:0:
256,192,26651,1,0,0:0:0:0:
256,192,26793,1,0,0:0:0:0:
256,192,27076,1,0,0:0:0:0:
256,192,27217,5,8,0:0:0:0:
256,192,27642,5,12,0:0:0:0:
256,192,27925,5,0,0:0:0:0:
256,192,28066,5,8,0:0:0:0:
256,192,28208,1,0,0:0:0:0:
256,192,28349,1,0,0:0:0:0:
256,192,28632,5,8,0:0:0:0:
256,192,28774,5,0,0:0:0:0:
256,192,29057,5,8,0:0:0:0:
256,192,29198,1,8,0:0:0:0:
256,192,29340,5,0,0:0:0:0:
256,192,29481,1,0,0:0:0:0:
256,192,29764,5,8,0:0:0:0:
256,192,29906,5,0,0:0:0:0:
256,192,30189,1,0,0:0:0:0:
256,192,30472,5,8,0:0:0:0:
256,192,30613,1,8,0:0:0:0:
256,192,30684,1,8,0:0:0:0:
256,192,30755,5,0,0:0:0:0:
256,192,30826,1,0,0:0:0:0:
256,192,30896,5,8,0:0:0:0:
256,192,31038,1,8,0:0:0:0:
256,192,31109,1,8,0:0:0:0:
256,192,31179,5,0,0:0:0:0:
256,192,31321,5,8,0:0:0:0:
256,192,31462,1,8,0:0:0:0:
256,192,31533,1,8,0:0:0:0:
256,192,31604,5,0,0:0:0:0:
256,192,31745,5,8,0:0:0:0:
256,192,31887,1,8,0:0:0:0:
256,192,32170,1,8,0:0:0:0:
256,192,32453,1,8,0:0:0:0:
256,192,32736,1,12,0:0:0:0:
256,192,33868,5,0,0:0:0:0:
256,192,34010,5,8,0:0:0:0:
256,192,34151,1,8,0:0:0:0:
256,192,34293,5,0,0:0:0:0:
256,192,34576,1,0,0:0:0:0:
256,192,34859,1,0,0:0:0:0:
256,192,35000,1,0,0:0:0:0:
256,192,35142,5,8,0:0:0:0:
256,192,35212,1,8,0:0:0:0:
256,192,35283,1,8,0:0:0:0:
256,192,35354,1,8,0:0:0:0:
256,192,35425,5,0,0:0:0:0:
256,192,35566,1,0,0:0:0:0:
256,192,35708,5,8,0:0:0:0:
256,192,35778,1,8,0:0:0:0:
256,192,35849,1,8,0:0:0:0:
256,192,35920,1,8,0:0:0:0:
256,192,35991,5,0,0:0:0:0:
256,192,36132,1,0,0:0:0:0:
256,192,36274,5,8,0:0:0:0:
256,192,36345,1,8,0:0:0:0:
256,192,36415,1,8,0:0:0:0:
256,192,36486,1,8,0:0:0:0:
256,192,36557,5,0,0:0:0:0:
256,192,36698,1,0,0:0:0:0:
256,192,36840,5,8,0:0:0:0:
256,192,36911,5,0,0:0:0:0:
256,192,36981,5,8,0:0:0:0:
256,192,37052,5,0,0:0:0:0:
256,192,37123,5,8,0:0:0:0:
256,192,37194,5,0,0:0:0:0:
256,192,37264,5,8,0:0:0:0:
256,192,37406,5,0,0:0:0:0:
256,192,37547,5,8,0:0:0:0:
256,192,37689,1,8,0:0:0:0:
256,192,37830,1,8,0:0:0:0:
256,192,37972,5,0,0:0:0:0:
256,192,38113,1,0,0:0:0:0:
256,192,38396,5,12,0:0:0:0:
256,192,38679,1,8,0:0:0:0:
256,192,38750,1,8,0:0:0:0:
256,192,38821,1,8,0:0:0:0:
256,192,38892,1,8,0:0:0:0:
256,192,38962,1,8,0:0:0:0:
256,192,39033,1,8,0:0:0:0:
256,192,39104,1,8,0:0:0:0:
256,192,39175,1,8,0:0:0:0:
256,192,39245,5,0,0:0:0:0:
256,192,39528,1,0,0:0:0:0:
256,192,39811,1,0,0:0:0:0:
256,192,40095,1,0,0:0:0:0:
256,192,40378,5,8,0:0:0:0:
256,192,40448,1,8,0:0:0:0:
256,192,40519,5,0,0:0:0:0:
256,192,40661,5,8,0:0:0:0:
256,192,40802,1,8,0:0:0:0:
256,192,40944,1,12,0:0:0:0:
256,192,41227,1,12,0:0:0:0:
256,192,41510,1,8,0:0:0:0:
256,192,41580,1,8,0:0:0:0:
256,192,41651,1,8,0:0:0:0:
256,192,41722,1,8,0:0:0:0:
256,192,41793,5,0,0:0:0:0:
256,192,41934,1,0,0:0:0:0:
256,192,42076,5,8,0:0:0:0:
256,192,42146,1,8,0:0:0:0:
256,192,42217,5,0,0:0:0:0:
256,192,42359,5,8,0:0:0:0:
256,192,42429,1,8,0:0:0:0:
256,192,42500,5,0,0:0:0:0:
256,192,42571,1,0,0:0:0:0:
256,192,42642,1,0,0:0:0:0:
256,192,42783,1,0,0:0:0:0:
256,192,42925,5,8,0:0:0:0:
256,192,43066,5,0,0:0:0:0:
256,192,43208,5,8,0:0:0:0:
256,192,43278,1,8,0:0:0:0:
256,192,43349,5,0,0:0:0:0:
256,192,43420,1,0,0:0:0:0:
256,192,43491,5,8,0:0:0:0:
256,192,43561,1,8,0:0:0:0:
256,192,43632,5,0,0:0:0:0:
256,192,43703,1,0,0:0:0:0:
256,192,43774,5,8,0:0:0:0:
256,192,43845,1,8,0:0:0:0:
256,192,43915,5,0,0:0:0:0:
256,192,43986,1,0,0:0:0:0:
256,192,44057,5,8,0:0:0:0:
256,192,44128,1,8,0:0:0:0:
256,192,44198,5,0,0:0:0:0:
256,192,44269,1,0,0:0:0:0:
256,192,44340,5,8,0:0:0:0:
256,192,44411,1,8,0:0:0:0:
256,192,44481,5,0,0:0:0:0:
256,192,44623,1,0,0:0:0:0:
256,192,44906,5,0,0:0:0:0:
256,192,45000,5,8,0:0:0:0:
256,192,45095,5,0,0:0:0:0:
256,192,45189,5,8,0:0:0:0:
256,192,45330,1,8,0:0:0:0:
256,192,45401,1,8,0:0:0:0:
256,192,45472,5,0,0:0:0:0:
256,192,45755,5,8,0:0:0:0:
256,192,46038,1,12,0:0:0:0:
256,192,46321,5,4,0:0:0:0:
256,192,47453,1,0,0:0:0:0:
256,192,47595,5,8,0:0:0:0:
256,192,47736,1,8,0:0:0:0:
256,192,47878,5,0,0:0:0:0:
256,192,48019,5,8,0:0:0:0:
256,192,48161,5,0,0:0:0:0:
256,192,48302,5,8,0:0:0:0:
256,192,48444,1,8,0:0:0:0:
256,192,48585,1,8,0:0:0:0:
256,192,48727,1,8,0:0:0:0:
256,192,48868,1,8,0:0:0:0:
256,192,49010,5,0,0:0:0:0:
256,192,49151,1,0,0:0:0:0:
256,192,49293,5,8,0:0:0:0:
256,192,49434,1,8,0:0:0:0:
256,192,49576,5,0,0:0:0:0:
256,192,49717,1,0,0:0:0:0:
256,192,49811,5,8,0:0:0:0:
256,192,49906,5,0,0:0:0:0:
256,192,50000,5,8,0:0:0:0:
256,192,50095,5,0,0:0:0:0:
256,192,50189,5,8,0:0:0:0:
256,192,50283,5,0,0:0:0:0:
256,192,50378,5,8,0:0:0:0:
256,192,50472,1,8,0:0:0:0:
256,192,50566,1,8,0:0:0:0:
256,192,50661,1,8,0:0:0:0:
256,192,50755,1,8,0:0:0:0:
256,192,50849,1,8,0:0:0:0:
256,192,50944,1,8,0:0:0:0:
256,192,51038,1,8,0:0:0:0:
256,192,51132,5,0,0:0:0:0:
256,192,51274,5,8,0:0:0:0:
256,192,51415,1,8,0:0:0:0:
256,192,51557,5,0,0:0:0:0:
256,192,51698,5,12,0:0:0:0:
256,192,51981,5,0,0:0:0:0:
256,192,52123,5,8,0:0:0:0:
256,192,52264,1,8,0:0:0:0:
256,192,52406,5,0,0:0:0:0:
256,192,52547,1,0,0:0:0:0:
256,192,52689,1,0,0:0:0:0:
256,192,52830,5,8,0:0:0:0:
256,192,52901,1,8,0:0:0:0:
256,192,52972,1,8,0:0:0:0:
256,192,53043,1,8,0:0:0:0:
256,192,53113,1,8,0:0:0:0:
256,192,53255,5,0,0:0:0:0:
256,192,53396,1,0,0:0:0:0:
256,192,53538,1,0,0:0:0:0:
256,192,53679,5,8,0:0:0:0:
256,192,53821,5,0,0:0:0:0:
256,192,53962,1,0,0:0:0:0:
256,192,54104,1,0,0:0:0:0:
256,192,54245,5,8,0:0:0:0:
256,192,54387,5,0,0:0:0:0:
256,192,54458,1,0,0:0:0:0:
256,192,54528,1,0,0:0:0:0:
256,192,54599,1,0,0:0:0:0:
256,192,54670,5,8,0:0:0:0:
256,192,54811,1,8,0:0:0:0:
256,192,54953,1,8,0:0:0:0:
256,192,55024,1,8,0:0:0:0:
256,192,55095,1,8,0:0:0:0:
256,192,55165,1,8,0:0:0:0:
256,192,55236,1,8,0:0:0:0:
256,192,55378,5,0,0:0:0:0:
256,192,55661,1,0,0:0:0:0:
256,192,55944,1,0,0:0:0:0:
256,192,56014,1,0,0:0:0:0:
256,192,56085,1,0,0:0:0:0:
256,192,56156,1,0,0:0:0:0:
256,192,56227,5,8,0:0:0:0:
256,192,56510,1,12,0:0:0:0:
256,192,56793,1,8,0:0:0:0:
256,192,56934,1,8,0:0:0:0:
256,192,57005,1,8,0:0:0:0:
256,192,57076,1,8,0:0:0:0:
256,192,57217,1,8,0:0:0:0:
256,192,57359,1,8,0:0:0:0:
256,192,57429,1,8,0:0:0:0:
256,192,57500,1,8,0:0:0:0:
256,192,57642,1,8,0:0:0:0:
256,192,57783,1,8,0:0:0:0:
256,192,57854,1,8,0:0:0:0:
256,192,57925,1,8,0:0:0:0:
256,192,58066,1,8,0:0:0:0:
256,192,58208,5,0,0:0:0:0:
256,192,58491,5,8,0:0:0:0:
256,192,58585,5,0,0:0:0:0:
256,192,58679,5,8,0:0:0:0:
256,192,58774,5,0,0:0:0:0:
256,192,58868,5,8,0:0:0:0:
256,192,58962,1,8,0:0:0:0:
256,192,59057,5,0,0:0:0:0:
256,192,59151,5,8,0:0:0:0:
256,192,59245,5,0,0:0:0:0:
256,192,59340,5,8,0:0:0:0:
256,192,59434,5,0,0:0:0:0:
256,192,59528,5,8,0:0:0:0:
256,192,59623,5,0,0:0:0:0:
256,192,59717,5,8,0:0:0:0:
256,192,59811,1,8,0:0:0:0:
256,192,59906,5,0,0:0:0:0:
256,192,61038,5,0,0:0:0:0:
256,192,61179,5,8,0:0:0:0:
256,192,61321,1,8,0:0:0:0:
256,192,61462,5,0,0:0:0:0:
256,192,61745,1,0,0:0:0:0:
256,192,61887,5,8,0:0:0:0:
256,192,62028,5,0,0:0:0:0:
256,192,62170,1,0,0:0:0:0:
256,192,62453,5,8,0:0:0:0:
256,192,62595,5,0,0:0:0:0:
256,192,62878,1,0,0:0:0:0:
256,192,63161,1,0,0:0:0:0:
256,192,63302,1,0,0:0:0:0:
256,192,63585,5,8,0:0:0:0:
256,192,63727,5,0,0:0:0:0:
256,192,64010,5,8,0:0:0:0:
256,192,64151,1,8,0:0:0:0:
256,192,64293,1,8,0:0:0:0:
256,192,64434,1,8,0:0:0:0:
256,192,64576,1,8,0:0:0:0:
256,192,64717,1,8,0:0:0:0:
256,192,64859,1,8,0:0:0:0:
256,192,65142,1,8,0:0:0:0:
256,192,65283,1,8,0:0:0:0:
256,192,65566,5,0,0:0:0:0:
256,192,65849,5,8,0:0:0:0:
256,192,65920,1,8,0:0:0:0:
256,192,65991,1,8,0:0:0:0:
256,192,66061,1,8,0:0:0:0:
256,192,66132,1,8,0:0:0:0:
256,192,66274,1,8,0:0:0:0:
256,192,66415,1,8,0:0:0:0:
256,192,66486,1,8,0:0:0:0:
256,192,66557,1,8,0:0:0:0:
256,192,66628,1,8,0:0:0:0:
256,192,66698,1,8,0:0:0:0:
256,192,66840,1,8,0:0:0:0:
256,192,66981,1,8,0:0:0:0:
256,192,67052,1,8,0:0:0:0:
256,192,67123,1,8,0:0:0:0:
256,192,67194,1,8,0:0:0:0:
256,192,67264,1,8,0:0:0:0:
256,192,67406,1,8,0:0:0:0:
256,192,67547,1,8,0:0:0:0:
256,192,67618,1,8,0:0:0:0:
256,192,67689,5,0,0:0:0:0:
256,192,67830,5,8,0:0:0:0:
256,192,67972,1,8,0:0:0:0:
256,192,68113,1,12,0:0:0:0:
256,192,68396,1,12,0:0:0:0:
256,192,68679,5,8,0:0:0:0:
256,192,68750,1,8,0:0:0:0:
256,192,68821,1,8,0:0:0:0:
256,192,68892,1,8,0:0:0:0:
256,192,68962,5,0,0:0:0:0:
256,192,69245,5,8,0:0:0:0:
256,192,69387,5,0,0:0:0:0:
256,192,69670,5,8,0:0:0:0:
256,192,69811,5,0,0:0:0:0:
256,192,70095,1,0,0:0:0:0:
256,192,70378,5,8,0:0:0:0:
256,192,70519,1,8,0:0:0:0:
256,192,70590,1,8,0:0:0:0:
256,192,70661,1,8,0:0:0:0:
256,192,70731,1,8,0:0:0:0:
256,192,70802,1,8,0:0:0:0:
256,192,70873,1,8,0:0:0:0:
256,192,70944,5,0,0:0:0:0:
256,192,71085,1,0,0:0:0:0:
256,192,71227,5,8,0:0:0:0:
256,192,71368,5,0,0:0:0:0:
256,192,71510,5,8,0:0:0:0:
256,192,71580,5,0,0:0:0:0:
256,192,71651,5,8,0:0:0:0:
256,192,71793,5,0,0:0:0:0:
256,192,71934,1,0,0:0:0:0:
256,192,72076,5,8,0:0:0:0:
256,192,72217,5,0,0:0:0:0:
256,192,72359,5,8,0:0:0:0:
256,192,72453,1,8,0:0:0:0:
256,192,72547,1,8,0:0:0:0:
256,192,72642,5,0,0:0:0:0:
256,192,72736,1,0,0:0:0:0:
256,192,72830,5,8,0:0:0:0:
256,192,72925,1,8,0:0:0:0:
256,192,73019,1,8,0:0:0:0:
256,192,73113,1,8,0:0:0:0:
256,192,73208,5,0,0:0:0:0:
256,192,73302,1,0,0:0:0:0:
256,192,73396,5,8,0:0:0:0:
256,192,73491,5,0,0:0:0:0:
256,192,73679,5,8,0:0:0:0:
256,192,73774,5,0,0:0:0:0:
256,192,73962,5,8,0:0:0:0:
256,192,74057,5,0,0:0:0:0:
256,192,74151,5,8,0:0:0:0:
256,192,74245,1,8,0:0:0:0:
256,192,74340,5,0,0:0:0:0:
256,192,74434,1,0,0:0:0:0:
256,192,74528,5,8,0:0:0:0:
256,192,74623,5,0,0:0:0:0:
256,192,74717,5,8,0:0:0:0:
256,192,74811,1,8,0:0:0:0:
256,192,74906,1,8,0:0:0:0:
256,192,75000,5,0,0:0:0:0:
256,192,75095,5,8,0:0:0:0:
256,192,75189,1,8,0:0:0:0:
256,192,75283,1,8,0:0:0:0:
256,192,75378,5,0,0:0:0:0:
256,192,75472,5,8,0:0:0:0:
256,192,75566,1,8,0:0:0:0:
256,192,75661,1,8,0:0:0:0:
256,192,75755,5,0,0:0:0:0:
256,192,75896,5,8,0:0:0:0:
256,192,76038,1,8,0:0:0:0:
256,192,76179,5,0,0:0:0:0:
256,192,76321,1,0,0:0:0:0:
256,192,76462,5,8,0:0:0:0:
256,192,76604,1,8,0:0:0:0:
256,192,76745,5,4,0:0:0:0:
256,192,76887,1,4,0:0:0:0:
256,192,77170,1,4,0:0:0:0:
256,192,77453,1,4,0:0:0:0:
256,192,77736,1,4,0:0:0:0:
256,192,78019,1,4,0:0:0:0:
256,192,78302,1,4,0:0:0:0:
256,192,78444,5,8,0:0:0:0:
256,192,78585,5,4,0:0:0:0:
256,192,78727,5,8,0:0:0:0:
256,192,78868,5,4,0:0:0:0:
256,192,79151,1,0,0:0:0:0:
256,192,79434,1,8,0:0:0:0:
256,192,79576,5,0,0:0:0:0:
256,192,79859,5,8,0:0:0:0:
256,192,80142,5,0,0:0:0:0:
256,192,80283,5,8,0:0:0:0:
256,192,80425,1,8,0:0:0:0:
256,192,80495,1,8,0:0:0:0:
256,192,80566,1,8,0:0:0:0:
256,192,80637,1,8,0:0:0:0:
256,192,80708,1,8,0:0:0:0:
256,192,80778,1,8,0:0:0:0:
256,192,80849,1,8,0:0:0:0:
256,192,80920,1,8,0:0:0:0:
256,192,80991,1,8,0:0:0:0:
256,192,81132,5,0,0:0:0:0:
256,192,81415,1,0,0:0:0:0:
256,192,81698,1,12,0:0:0:0:
256,192,81981,1,8,0:0:0:0:
256,192,82264,5,0,0:0:0:0:
256,192,82547,1,0,0:0:0:0:
256,192,82689,1,0,0:0:0:0:
256,192,82972,5,8,0:0:0:0:
256,192,83113,5,0,0:0:0:0:
256,192,83396,1,0,0:0:0:0:
256,192,83679,5,8,0:0:0:0:
256,192,83821,5,0,0:0:0:0:
256,192,83962,5,8,0:0:0:0:
256,192,84104,5,0,0:0:0:0:
256,192,84175,1,0,0:0:0:0:
256,192,84245,5,8,0:0:0:0:
256,192,84387,5,0,0:0:0:0:
256,192,84528,5,8,0:0:0:0:
256,192,84599,5,0,0:0:0:0:
256,192,84670,5,8,0:0:0:0:
256,192,84741,5,0,0:0:0:0:
256,192,84811,5,8,0:0:0:0:
256,192,84882,5,0,0:0:0:0:
256,192,84953,5,8,0:0:0:0:
256,192,85024,5,0,0:0:0:0:
256,192,85095,5,8,0:0:0:0:
256,192,85378,1,8,0:0:0:0:
256,192,85519,1,8,0:0:0:0:
256,192,85661,1,8,0:0:0:0:
256,192,85802,1,8,0:0:0:0:
256,192,85944,5,0,0:0:0:0:
256,192,86085,1,0,0:0:0:0:
256,192,86368,5,8,0:0:0:0:
256,192,86510,5,0,0:0:0:0:
256,192,86793,1,0,0:0:0:0:
256,192,87076,5,8,0:0:0:0:
256,192,87217,1,8,0:0:0:0:
256,192,87288,1,8,0:0:0:0:
256,192,87359,1,8,0:0:0:0:
256,192,87429,1,8,0:0:0:0:
256,192,87500,1,8,0:0:0:0:
256,192,87571,1,8,0:0:0:0:
256,192,87642,1,8,0:0:0:0:
256,192,87712,1,8,0:0:0:0:
256,192,87783,1,8,0:0:0:0:
256,192,87854,1,8,0:0:0:0:
256,192,87925,5,0,0:0:0:0:
256,192,88066,5,8,0:0:0:0:
256,192,88208,5,0,0:0:0:0:
256,192,88349,5,8,0:0:0:0:
256,192,88491,1,12,0:0:0:0:
256,192,88774,1,8,0:0:0:0:
256,192,89057,5,0,0:0:0:0:
256,192,89340,1,0,0:0:0:0:
256,192,89623,5,8,0:0:0:0:
256,192,89764,1,8,0:0:0:0:
256,192,89835,1,8,0:0:0:0:
256,192,89906,1,8,0:0:0:0:
256,192,89977,1,8,0:0:0:0:
256,192,90047,1,8,0:0:0:0:
256,192,90118,1,8,0:0:0:0:
256,192,90189,5,0,0:0:0:0:
256,192,90330,1,0,0:0:0:0:
256,192,90472,1,0,0:0:0:0:
256,192,90566,5,8,0:0:0:0:
256,192,90661,5,0,0:0:0:0:
256,192,90755,5,8,0:0:0:0:
256,192,90849,5,0,0:0:0:0:
256,192,90944,5,8,0:0:0:0:
256,192,91038,5,0,0:0:0:0:
256,192,91132,5,8,0:0:0:0:
256,192,91227,1,8,0:0:0:0:
256,192,91321,1,8,0:0:0:0:
256,192,91415,1,8,0:0:0:0:
256,192,91510,1,8,0:0:0:0:
256,192,91604,5,0,0:0:0:0:
256,192,91698,5,8,0:0:0:0:
256,192,91793,1,8,0:0:0:0:
256,192,91887,1,8,0:0:0:0:
256,192,91981,1,8,0:0:0:0:
256,192,92076,5,0,0:0:0:0:
256,192,92170,1,0,0:0:0:0:
256,192,92264,5,8,0:0:0:0:
256,192,92359,1,8,0:0:0:0:
256,192,92453,1,8,0:0:0:0:
256,192,92547,1,8,0:0:0:0:
256,192,92736,5,4,0:0:0:0:
256,192,96132,2,4,L|64:192,3,188.500005752564,0|0|0|0,0:0|0:0|0:0|0:0,0:0:0:0:
256,192,97264,5,0,0:0:0:0:
256,192,97335,5,8,0:0:0:0:
256,192,97406,1,8,0:0:0:0:
256,192,97477,1,8,0:0:0:0:
256,192,97547,5,0,0:0:0:0:
256,192,97618,5,8,0:0:0:0:
256,192,97689,1,8,0:0:0:0:
256,192,97830,5,0,0:0:0:0:
256,192,97901,5,8,0:0:0:0:
256,192,97972,1,8,0:0:0:0:
256,192,98113,5,0,0:0:0:0:
256,192,98184,5,8,0:0:0:0:
256,192,98255,1,8,0:0:0:0:
256,192,98326,1,8,0:0:0:0:
256,192,98396,5,0,0:0:0:0:
256,192,98467,5,8,0:0:0:0:
256,192,98538,1,8,0:0:0:0:
256,192,98679,5,0,0:0:0:0:
256,192,98821,1,8,0:0:0:0:
256,192,98962,1,8,0:0:0:0:
256,192,99104,5,0,0:0:0:0:
256,192,99245,5,8,0:0:0:0:
256,192,99316,1,8,0:0:0:0:
256,192,99387,1,8,0:0:0:0:
256,192,99458,1,8,0:0:0:0:
256,192,99528,5,0,0:0:0:0:
256,192,99599,1,0,0:0:0:0:
256,192,99670,5,8,0:0:0:0:
256,192,99741,1,8,0:0:0:0:
256,192,99811,5,0,0:0:0:0:
256,192,99882,1,0,0:0:0:0:
256,192,99953,5,8,0:0:0:0:
256,192,100024,1,8,0:0:0:0:
256,192,100095,5,0,0:0:0:0:
256,192,100165,1,0,0:0:0:0:
256,192,100236,5,8,0:0:0:0:
256,192,100378,5,4,0:0:0:0:
256,192,100661,1,4,0:0:0:0:
256,192,100944,1,4,0:0:0:0:
256,192,101227,1,4,0:0:0:0:
256,192,101510,1,4,0:0:0:0:
256,192,101793,1,4,0:0:0:0:
256,192,102076,1,4,0:0:0:0:
256,192,102359,5,12,0:0:0:0:
256,192,102642,1,12,0:0:0:0:
256,192,102925,2,4,L|32:192,6,195.00000743866,0|0|0|0|0|0|0,0:0|0:0|0:0|0:0|0:0|0:0|0:0,0:0:0:0:
256,192,105189,5,0,0:0:0:0:
256,192,105330,5,8,0:0:0:0:
256,192,105472,1,8,0:0:0:0:
256,192,105613,5,0,0:0:0:0:
256,192,105755,5,8,0:0:0:0:
256,192,105896,1,8,0:0:0:0:
256,192,105967,1,8,0:0:0:0:
256,192,106038,5,0,0:0:0:0:
256,192,106179,5,8,0:0:0:0:
256,192,106250,1,8,0:0:0:0:
256,192,106321,5,0,0:0:0:0:
256,192,106462,1,0,0:0:0:0:
256,192,106604,5,8,0:0:0:0:
256,192,106745,5,0,0:0:0:0:
256,192,106887,5,8,0:0:0:0:
256,192,106958,1,8,0:0:0:0:
256,192,107028,5,0,0:0:0:0:
256,192,107170,5,8,0:0:0:0:
256,192,107311,1,8,0:0:0:0:
256,192,107453,1,8,0:0:0:0:
256,192,107595,1,8,0:0:0:0:
256,192,107736,1,8,0:0:0:0:
256,192,107807,1,8,0:0:0:0:
256,192,107878,1,8,0:0:0:0:
256,192,107948,1,8,0:0:0:0:
256,192,108019,1,8,0:0:0:0:
256,192,108090,1,8,0:0:0:0:
256,192,108161,1,8,0:0:0:0:
256,192,108302,5,0,0:0:0:0:
256,192,108444,1,0,0:0:0:0:
256,192,108585,1,0,0:0:0:0:
256,192,108727,5,8,0:0:0:0:
256,192,108797,1,8,0:0:0:0:
256,192,108868,5,0,0:0:0:0:
256,192,109010,5,8,0:0:0:0:
256,192,109151,1,8,0:0:0:0:
256,192,109293,5,0,0:0:0:0:
256,192,109434,5,8,0:0:0:0:
256,192,109576,1,8,0:0:0:0:
256,192,109717,5,4,0:0:0:0:
256,192,109929,5,8,0:0:0:0:
256,192,110000,5,0,0:0:0:0:
256,192,110142,5,8,0:0:0:0:
256,192,110283,5,0,0:0:0:0:
256,192,110354,5,8,0:0:0:0:
256,192,110425,1,8,0:0:0:0:
256,192,110566,5,0,0:0:0:0:
256,192,110708,5,8,0:0:0:0:
256,192,110778,1,8,0:0:0:0:
256,192,110849,5,0,0:0:0:0:
256,192,110991,5,8,0:0:0:0:
256,192,111132,5,0,0:0:0:0:
256,192,111203,5,8,0:0:0:0:
256,192,111274,1,8,0:0:0:0:
256,192,111415,5,4,0:0:0:0:
256,192,111628,5,8,0:0:0:0:
256,192,111698,5,0,0:0:0:0:
256,192,111840,5,8,0:0:0:0:
256,192,111981,5,0,0:0:0:0:
256,192,112052,5,8,0:0:0:0:
256,192,112123,1,8,0:0:0:0:
256,192,112264,5,0,0:0:0:0:
256,192,112406,5,8,0:0:0:0:
256,192,112477,1,8,0:0:0:0:
256,192,112547,5,0,0:0:0:0:
256,192,112689,1,8,0:0:0:0:
256,192,112830,5,4,0:0:0:0:
256,192,113113,5,4,0:0:0:0:
256,192,113255,1,0,0:0:0:0:
256,192,113396,1,0,0:0:0:0:
256,192,113538,1,0,0:0:0:0:
256,192,113679,5,8,0:0:0:0:
256,192,113750,1,8,0:0:0:0:
256,192,113821,1,8,0:0:0:0:
256,192,113892,1,8,0:0:0:0:
256,192,113962,5,0,0:0:0:0:
256,192,114104,1,0,0:0:0:0:
256,192,114245,5,8,0:0:0:0:
256,192,114387,5,0,0:0:0:0:
256,192,114458,1,0,0:0:0:0:
256,192,114528,5,8,0:0:0:0:
256,192,114670,5,0,0:0:0:0:
256,192,114741,1,0,0:0:0:0:
256,192,114811,5,8,0:0:0:0:
256,192,114882,1,0,0:0:0:0:
256,192,115024,5,0,0:0:0:0:
256,192,115095,5,8,0:0:0:0:
256,192,115236,5,0,0:0:0:0:
256,192,115307,1,0,0:0:0:0:
256,192,115378,5,8,0:0:0:0:
256,192,115519,1,0,0:0:0:0:
256,192,115590,1,0,0:0:0:0:
256,192,115661,5,8,0:0:0:0:
256,192,115731,5,0,0:0:0:0:
256,192,115873,1,0,0:0:0:0:
256,192,115944,5,8,0:0:0:0:
256,192,116085,1,8,0:0:0:0:
256,192,116227,5,0,0:0:0:0:
256,192,116297,1,0,0:0:0:0:
256,192,116368,1,0,0:0:0:0:
256,192,116510,5,12,0:0:0:0:
256,192,116651,1,12,0:0:0:0:
256,192,116793,1,12,0:0:0:0:
256,192,116934,1,12,0:0:0:0:
256,192,117076,1,12,0:0:0:0:
256,192,117218,1,12,0:0:0:0:
256,192,117359,1,12,0:0:0:0:
256,192,117642,5,8,0:0:0:0:
256,192,117783,1,8,0:0:0:0:
256,192,117925,1,8,0:0:0:0:
256,192,118066,1,8,0:0:0:0:
256,192,118208,5,0,0:0:0:0:
256,192,118278,1,8,0:0:0:0:
256,192,118349,1,0,0:0:0:0:
256,192,118420,1,8,0:0:0:0:
256,192,118491,1,0,0:0:0:0:
256,192,118561,1,8,0:0:0:0:
256,192,118632,1,0,0:0:0:0:
256,192,118703,1,8,0:0:0:0:
256,192,118774,1,0,0:0:0:0:
256,192,118845,1,8,0:0:0:0:
256,192,118915,1,0,0:0:0:0:
256,192,118986,1,8,0:0:0:0:
256,192,119057,1,0,0:0:0:0:
256,192,119128,1,8,0:0:0:0:
256,192,119198,1,0,0:0:0:0:
256,192,119340,5,8,0:0:0:0:
256,192,119481,1,8,0:0:0:0:
256,192,119623,1,8,0:0:0:0:
256,192,119764,1,8,0:0:0:0:
256,192,119906,5,4,0:0:0:0:
256,192,120047,5,8,0:0:0:0:
256,192,120189,1,8,0:0:0:0:
256,192,120330,1,8,0:0:0:0:
256,192,120472,5,4,0:0:0:0:
256,192,120613,5,8,0:0:0:0:
256,192,120755,1,8,0:0:0:0:
256,192,120896,1,8,0:0:0:0:
256,192,121038,5,4,0:0:0:0:
256,192,121179,5,8,0:0:0:0:
256,192,121321,1,8,0:0:0:0:
256,192,121462,1,8,0:0:0:0:
256,192,121604,5,0,0:0:0:0:
256,192,121698,5,8,0:0:0:0:
256,192,121793,5,0,0:0:0:0:
256,192,121887,5,8,0:0:0:0:
256,192,121981,5,0,0:0:0:0:
256,192,122076,5,8,0:0:0:0:
256,192,122170,5,0,0:0:0:0:
256,192,122264,5,8,0:0:0:0:
256,192,122359,1,8,0:0:0:0:
256,192,122453,5,0,0:0:0:0:
256,192,122595,5,8,0:0:0:0:
256,192,122736,1,8,0:0:0:0:
256,192,122878,5,0,0:0:0:0:
256,192,123019,5,12,0:0:0:0:
256,192,123302,5,4,0:0:0:0:
256,192,123514,5,8,0:0:0:0:
256,192,123585,5,0,0:0:0:0:
256,192,123727,5,8,0:0:0:0:
256,192,123868,5,0,0:0:0:0:
256,192,123939,5,8,0:0:0:0:
256,192,124010,1,8,0:0:0:0:
256,192,124151,5,0,0:0:0:0:
256,192,124293,5,8,0:0:0:0:
256,192,124363,1,8,0:0:0:0:
256,192,124434,5,0,0:0:0:0:
256,192,124576,5,8,0:0:0:0:
256,192,124717,1,8,0:0:0:0:
256,192,124859,1,8,0:0:0:0:
256,192,125000,5,4,0:0:0:0:
256,192,125283,5,8,0:0:0:0:
256,192,125425,1,8,0:0:0:0:
256,192,125566,1,8,0:0:0:0:
256,192,125708,1,8,0:0:0:0:
256,192,125778,1,8,0:0:0:0:
256,192,125849,1,8,0:0:0:0:
256,192,125991,1,8,0:0:0:0:
256,192,126132,1,8,0:0:0:0:
256,192,126203,1,8,0:0:0:0:
256,192,126274,1,8,0:0:0:0:
256,192,126345,1,8,0:0:0:0:
256,192,126415,1,8,0:0:0:0:
256,192,126486,1,8,0:0:0:0:
256,192,126557,1,8,0:0:0:0:
256,192,126698,5,4,0:0:0:0:
256,192,126911,5,8,0:0:0:0:
256,192,126981,5,0,0:0:0:0:
256,192,127123,5,8,0:0:0:0:
256,192,127264,5,0,0:0:0:0:
256,192,127335,5,8,0:0:0:0:
256,192,127406,5,8,0:0:0:0:
256,192,127547,5,4,0:0:0:0:
256,192,127830,5,12,0:0:0:0:
256,192,128113,5,0,0:0:0:0:
256,192,128255,5,8,0:0:0:0:
256,192,128326,1,8,0:0:0:0:
256,192,128396,5,0,0:0:0:0:
256,192,128538,1,0,0:0:0:0:
256,192,128679,5,8,0:0:0:0:
256,192,128821,5,0,0:0:0:0:
256,192,128962,1,0,0:0:0:0:
256,192,129104,5,8,0:0:0:0:
256,192,129175,1,8,0:0:0:0:
256,192,129245,5,0,0:0:0:0:
256,192,129387,1,0,0:0:0:0:
256,192,129528,1,0,0:0:0:0:
256,192,129811,1,0,0:0:0:0:
256,192,129906,5,8,0:0:0:0:
256,192,130000,1,8,0:0:0:0:
256,192,130095,5,0,0:0:0:0:
256,192,130283,5,8,0:0:0:0:
256,192,130378,1,0,0:0:0:0:
256,192,130472,1,0,0:0:0:0:
256,192,130566,1,0,0:0:0:0:
256,192,130661,1,0,0:0:0:0:
256,192,130755,1,0,0:0:0:0:
256,192,130849,1,0,0:0:0:0:
256,192,130944,1,0,0:0:0:0:
256,192,131038,1,0,0:0:0:0:
256,192,131132,1,0,0:0:0:0:
256,192,131227,1,0,0:0:0:0:
256,192,132359,1,0,0:0:0:0:
256,192,132500,5,8,0:0:0:0:
256,192,132642,5,0,0:0:0:0:
256,192,132783,5,8,0:0:0:0:
256,192,132925,1,8,0:0:0:0:
256,192,133066,5,0,0:0:0:0:
256,192,133208,5,8,0:0:0:0:
256,192,133349,1,8,0:0:0:0:
256,192,133491,5,0,0:0:0:0:
256,192,133632,1,0,0:0:0:0:
256,192,133774,5,8,0:0:0:0:
256,192,133915,5,0,0:0:0:0:
256,192,134057,1,0,0:0:0:0:
256,192,134198,5,8,0:0:0:0:
256,192,134340,5,0,0:0:0:0:
256,192,134481,1,0,0:0:0:0:
256,192,134623,5,8,0:0:0:0:
256,192,134764,1,8,0:0:0:0:
256,192,134835,1,8,0:0:0:0:
256,192,134906,1,8,0:0:0:0:
256,192,134977,1,8,0:0:0:0:
256,192,135047,5,0,0:0:0:0:
256,192,135189,1,0,0:0:0:0:
256,192,135330,5,8,0:0:0:0:
256,192,135401,1,8,0:0:0:0:
256,192,135472,5,0,0:0:0:0:
256,192,135613,1,0,0:0:0:0:
256,192,135755,1,0,0:0:0:0:
256,192,135896,5,8,0:0:0:0:
256,192,135967,1,8,0:0:0:0:
256,192,136038,5,0,0:0:0:0:
256,192,136179,5,8,0:0:0:0:
256,192,136250,1,8,0:0:0:0:
256,192,136321,5,0,0:0:0:0:
256,192,136462,1,0,0:0:0:0:
256,192,136604,1,0,0:0:0:0:
256,192,136745,1,0,0:0:0:0:
256,192,136887,1,4,0:0:0:0:
256,192,137170,5,8,0:0:0:0:
256,192,137311,1,8,0:0:0:0:
256,192,137382,1,8,0:0:0:0:
256,192,137453,1,8,0:0:0:0:
256,192,137524,1,8,0:0:0:0:
256,192,137665,1,8,0:0:0:0:
256,192,137736,1,8,0:0:0:0:
256,192,137807,1,8,0:0:0:0:
256,192,137878,1,8,0:0:0:0:
256,192,137948,1,8,0:0:0:0:
256,192,138019,5,0,0:0:0:0:
256,192,138090,1,0,0:0:0:0:
256,192,138161,5,8,0:0:0:0:
256,192,138231,1,8,0:0:0:0:
256,192,138302,5,0,0:0:0:0:
256,192,138373,1,0,0:0:0:0:
256,192,138444,1,0,0:0:0:0:
256,192,138514,1,0,0:0:0:0:
256,192,138585,5,8,0:0:0:0:
256,192,138656,1,8,0:0:0:0:
256,192,138727,5,0,0:0:0:0:
256,192,138797,1,0,0:0:0:0:
256,192,138868,5,8,0:0:0:0:
256,192,138939,1,8,0:0:0:0:
256,192,139010,5,0,0:0:0:0:
256,192,139080,1,0,0:0:0:0:
256,192,139151,1,0,0:0:0:0:
256,192,139222,1,0,0:0:0:0:
256,192,139293,5,8,0:0:0:0:
256,192,139363,1,8,0:0:0:0:
256,192,139434,1,8,0:0:0:0:
256,192,139576,1,8,0:0:0:0:
256,192,139717,5,0,0:0:0:0:
256,192,139859,1,0,0:0:0:0:
256,192,140000,1,0,0:0:0:0:
256,192,140071,1,0,0:0:0:0:
256,192,140142,1,0,0:0:0:0:
256,192,140212,1,0,0:0:0:0:
256,192,140283,5,8,0:0:0:0:
256,192,140425,5,0,0:0:0:0:
256,192,140495,1,0,0:0:0:0:
256,192,140566,5,8,0:0:0:0:
256,192,140708,5,0,0:0:0:0:
256,192,140778,1,0,0:0:0:0:
256,192,140849,5,8,0:0:0:0:
256,192,140991,5,0,0:0:0:0:
256,192,141061,1,0,0:0:0:0:
256,192,141132,5,8,0:0:0:0:
256,192,141274,5,0,0:0:0:0:
256,192,141345,1,0,0:0:0:0:
256,192,141698,5,8,0:0:0:0:
256,192,141840,1,8,0:0:0:0:
256,192,141911,1,8,0:0:0:0:
256,192,141981,1,8,0:0:0:0:
256,192,142052,1,8,0:0:0:0:
256,192,142123,1,8,0:0:0:0:
256,192,142194,1,8,0:0:0:0:
256,192,142264,5,0,0:0:0:0:
256,192,142406,1,0,0:0:0:0:
256,192,142547,5,8,0:0:0:0:
256,192,142689,1,8,0:0:0:0:
256,192,142830,1,0,0:0:0:0:
256,192,142901,1,0,0:0:0:0:
256,192,142972,1,0,0:0:0:0:
256,192,143043,1,0,0:0:0:0:
256,192,143113,1,8,0:0:0:0:
256,192,143255,1,8,0:0:0:0:
256,192,143396,1,8,0:0:0:0:
256,192,143538,1,8,0:0:0:0:
256,192,143679,5,0,0:0:0:0:
256,192,143750,1,0,0:0:0:0:
256,192,143821,1,0,0:0:0:0:
256,192,143892,1,0,0:0:0:0:
256,192,143962,1,0,0:0:0:0:
256,192,144033,1,0,0:0:0:0:
256,192,144104,1,0,0:0:0:0:
256,192,144175,1,0,0:0:0:0:
256,192,144245,1,0,0:0:0:0:
256,192,144316,1,0,0:0:0:0:
256,192,144387,1,0,0:0:0:0:
256,192,144458,1,0,0:0:0:0:
256,192,144528,1,0,0:0:0:0:
256,192,144599,1,0,0:0:0:0:
256,192,144670,1,0,0:0:0:0:
256,192,144811,5,12,0:0:0:0:
256,192,145095,5,0,0:0:0:0:
256,192,145378,5,8,0:0:0:0:
256,192,145519,1,8,0:0:0:0:
256,192,145590,1,8,0:0:0:0:
256,192,145661,5,0,0:0:0:0:
256,192,145944,5,8,0:0:0:0:
256,192,146014,1,8,0:0:0:0:
256,192,146156,5,0,0:0:0:0:
256,192,146227,5,8,0:0:0:0:
256,192,146297,1,8,0:0:0:0:
256,192,146368,5,0,0:0:0:0:
256,192,146439,1,0,0:0:0:0:
256,192,146510,5,8,0:0:0:0:
256,192,146651,5,0,0:0:0:0:
256,192,146722,1,0,0:0:0:0:
256,192,146793,5,8,0:0:0:0:
256,192,146863,1,8,0:0:0:0:
256,192,146934,1,8,0:0:0:0:
256,192,147005,1,8,0:0:0:0:
256,192,147076,5,0,0:0:0:0:
256,192,147217,5,8,0:0:0:0:
256,192,147359,1,8,0:0:0:0:
256,192,147500,5,0,0:0:0:0:
256,192,147642,1,0,0:0:0:0:
256,192,147783,5,8,0:0:0:0:
256,192,148066,5,4,0:0:0:0:
256,192,148208,1,4,0:0:0:0:
256,192,148491,5,8,0:0:0:0:
256,192,148585,1,8,0:0:0:0:
256,192,148679,1,8,0:0:0:0:
256,192,148774,5,4,0:0:0:0:
256,192,149057,5,8,0:0:0:0:
256,192,149151,1,8,0:0:0:0:
256,192,149245,1,8,0:0:0:0:
256,192,149340,5,4,0:0:0:0:
256,192,149623,1,0,0:0:0:0:
256,192,149906,1,4,0:0:0:0:
256,192,150047,1,0,0:0:0:0:
256,192,150189,5,12,0:0:0:0:
256,192,150472,5,0,0:0:0:0:
256,192,150613,1,0,0:0:0:0:
256,192,150755,5,8,0:0:0:0:
256,192,150896,1,8,0:0:0:0:
256,192,151038,5,0,0:0:0:0:
256,192,151321,1,0,0:0:0:0:
256,192,151462,5,8,0:0:0:0:
256,192,151604,1,8,0:0:0:0:
256,192,151675,1,8,0:0:0:0:
256,192,151745,1,8,0:0:0:0:
256,192,151887,5,0,0:0:0:0:
256,192,152028,5,8,0:0:0:0:
256,192,152099,1,8,0:0:0:0:
256,192,152170,1,8,0:0:0:0:
256,192,152241,1,8,0:0:0:0:
256,192,152311,5,0,0:0:0:0:
256,192,152453,1,0,0:0:0:0:
256,192,152736,5,8,0:0:0:0:
256,192,153019,1,12,0:0:0:0:
256,192,153302,1,8,0:0:0:0:
256,192,153585,5,0,0:0:0:0:
256,192,153868,1,0,0:0:0:0:
256,192,154010,1,0,0:0:0:0:
256,192,154293,5,8,0:0:0:0:
256,192,154434,5,0,0:0:0:0:
256,192,154717,1,0,0:0:0:0:
256,192,155000,5,8,0:0:0:0:
256,192,155142,1,8,0:0:0:0:
256,192,155212,1,8,0:0:0:0:
256,192,155283,5,0,0:0:0:0:
256,192,155425,5,8,0:0:0:0:
256,192,155566,1,8,0:0:0:0:
256,192,155637,1,8,0:0:0:0:
256,192,155708,5,0,0:0:0:0:
256,192,155778,1,0,0:0:0:0:
256,192,155849,5,8,0:0:0:0:
256,192,155991,1,8,0:0:0:0:
256,192,156061,1,8,0:0:0:0:
256,192,156132,5,0,0:0:0:0:
256,192,156274,5,8,0:0:0:0:
256,192,156345,1,8,0:0:0:0:
256,192,156415,1,8,0:0:0:0:
256,192,156486,1,8,0:0:0:0:
256,192,156557,5,0,0:0:0:0:
256,192,156628,1,0,0:0:0:0:
256,192,156698,5,8,0:0:0:0:
256,192,156840,1,8,0:0:0:0:
256,192,156981,5,0,0:0:0:0:
256,192,157123,5,8,0:0:0:0:
256,192,157264,5,0,0:0:0:0:
256,192,157406,1,0,0:0:0:0:
256,192,157689,5,8,0:0:0:0:
256,192,157830,5,0,0:0:0:0:
256,192,158113,1,0,0:0:0:0:
256,192,158396,5,12,0:0:0:0:
256,192,159528,5,0,0:0:0:0:
256,192,159811,5,8,0:0:0:0:
256,192,160095,1,8,0:0:0:0:
256,192,160378,5,0,0:0:0:0:
256,192,160661,1,0,0:0:0:0:
256,192,160944,5,8,0:0:0:0:
256,192,161085,1,8,0:0:0:0:
256,192,161156,1,8,0:0:0:0:
256,192,161227,1,8,0:0:0:0:
256,192,161297,1,8,0:0:0:0:
256,192,161368,1,8,0:0:0:0:
256,192,161439,1,8,0:0:0:0:
256,192,161510,5,0,0:0:0:0:
256,192,161651,5,8,0:0:0:0:
256,192,161793,5,0,0:0:0:0:
256,192,161934,5,8,0:0:0:0:
256,192,162005,1,8,0:0:0:0:
256,192,162076,5,0,0:0:0:0:
256,192,162217,5,8,0:0:0:0:
256,192,162288,1,8,0:0:0:0:
256,192,162359,5,0,0:0:0:0:
256,192,162500,5,8,0:0:0:0:
256,192,162571,1,8,0:0:0:0:
256,192,162642,5,0,0:0:0:0:
256,192,162783,5,8,0:0:0:0:
256,192,162854,1,8,0:0:0:0:
256,192,162925,5,0,0:0:0:0:
256,192,162995,1,0,0:0:0:0:
256,192,163066,5,8,0:0:0:0:
256,192,163137,1,8,0:0:0:0:
256,192,163208,5,0,0:0:0:0:
256,192,163349,5,8,0:0:0:0:
256,192,163420,1,8,0:0:0:0:
256,192,163491,5,0,0:0:0:0:
256,192,163632,5,8,0:0:0:0:
256,192,163703,1,8,0:0:0:0:
256,192,163774,5,0,0:0:0:0:
256,192,163845,1,0,0:0:0:0:
256,192,163915,5,8,0:0:0:0:
256,192,164057,5,4,0:0:0:0:
