osu file format v14

[General]
AudioFilename: 01_igorrr_tout_petit_moineau.mp3
AudioLeadIn: 0
PreviewTime: 96061
Countdown: 0
SampleSet: Soft
StackLeniency: 0.7
Mode: 0
LetterboxInBreaks: 0
WidescreenStoryboard: 0

[Editor]
Bookmarks: 221887
DistanceSpacing: 0.7
BeatDivisor: 3
GridSize: 32
TimelineZoom: 0.7000009

[Metadata]
Title:Tout Petit Moineau
TitleUnicode:Tout Petit Moineau
Artist:Igorrr
ArtistUnicode:Igorrr
Creator:fergas
Version:Normal
Source:
Tags:hallelujah breakcore baroque baroquecore black death metal adn165 ad noiseam Laure Le Prunenec OnosakiHito
BeatmapID:531526
BeatmapSetID:212180

[Difficulty]
HPDrainRate:3
CircleSize:3
OverallDifficulty:4
ApproachRate:5
SliderMultiplier:0.8
SliderTickRate:1

[Events]
//Background and Video events
0,0,"zn1mLPDbJwM12.jpg",0,0
//Break Periods
2,92936,94932
//Storyboard Layer 0 (Background)
//Storyboard Layer 1 (Fail)
//Storyboard Layer 2 (Pass)
//Storyboard Layer 3 (Foreground)
//Storyboard Sound Samples

[TimingPoints]
24812,283.018867924528,6,1,1,50,1,0
76887,-100,6,1,1,60,0,1
79151,-100,6,1,1,50,0,0
92736,-100,6,1,1,50,0,1
92830,-100,6,1,1,50,0,0
96132,-100,6,1,1,60,0,1
100378,-100,6,1,1,60,0,1
102925,-100,6,1,1,50,0,0
105189,-100,6,1,1,60,0,1
109646,-100,6,1,1,50,0,0
109717,-100,6,1,1,50,0,1
123231,-100,6,1,1,30,0,0
123302,-100,6,1,1,50,0,1
125000,-100,6,2,2,70,0,0
126698,-100,6,1,1,50,0,1
136887,-100,6,1,1,50,0,0
137453,-100,6,1,1,43,0,0
137736,-100,6,1,1,50,0,0
141769,-100,6,1,1,60,0,0
143679,-100,6,1,1,50,0,1
144811,-100,6,1,1,50,0,0
155142,-100,6,1,1,60,0,0
157264,-100,6,1,1,50,0,0
161793,-100,6,1,1,50,0,1
164057,-100,6,1,1,50,0,0
167453,-100,6,2,1,45,0,0
218396,-153.846153846154,6,2,1,25,0,0
226816,-100,6,2,1,5,0,0

[Colours]
Combo1 : 172,196,11
Combo2 : 0,128,64
Combo3 : 64,128,128

[HitObjects]
20,226,24811,5,8,0:3:0:0:
20,226,25661,5,0,0:0:0:0:
92,177,25944,2,0,P|66:152|21:138,2,80,0|4|0,0:0|0:3|0:0,0:0:0:0:
135,254,26793,1,4,0:3:0:0:
154,340,27076,2,0,P|239:324|298:258,1,160,4|0,0:3|0:0,0:0:0:0:
314,189,27925,1,4,0:2:0:0:
315,100,28208,6,0,P|339:70|375:51,1,80,4|0,0:3|0:0,0:0:0:0:
395,137,28774,2,0,P|433:132|472:144,1,80,4|0,0:3|0:0,0:0:0:0:
426,220,29340,2,0,P|456:243|475:280,1,80,4|0,0:3|0:0,0:0:0:0:
389,301,29906,1,4,0:3:0:0:
303,319,30189,1,4,0:3:0:0:
216,300,30472,2,0,P|169:238|14:209,1,240,2|0,0:2|0:0,0:0:0:0:
15,120,31604,6,0,P|36:87|39:48,1,80,4|0,0:2|0:0,0:0:0:0:
122,77,32170,2,0,P|156:59|178:26,1,80,4|0,0:2|0:0,0:0:0:0:
254,70,32736,1,8,0:3:0:0:
424,207,33868,1,4,0:3:0:0:
337,192,34151,2,0,P|274:145|253:69,1,160,0|0,0:0|0:0,0:0:0:0:
169,46,35000,6,0,P|132:88|56:95,1,120
33,121,35566,2,0,P|23:187|53:248,1,120,4|4,0:3|0:3,0:0:0:0:
77,261,36132,2,0,P|146:238|193:244,1,120,4|4,0:3|0:3,0:0:0:0:
230,264,36698,2,0,P|207:190|241:120,1,160,4|0,0:3|0:0,0:0:0:0:
315,70,37547,2,0,P|277:40|238:33,2,80,4|0|4,0:2|0:0|0:2,0:0:0:0:
364,142,38396,5,8,0:3:0:0:
383,227,38679,2,0,P|297:241|239:307,1,160,0|4,0:0|0:3,0:0:0:0:
204,367,39528,1,4,0:3:0:0:
120,340,39811,1,4,0:3:0:0:
60,275,40095,1,4,0:3:0:0:
35,191,40378,2,0,P|66:156|73:110,1,80,0|0,0:0|0:0,0:0:0:0:
69,36,40944,1,4,0:2:0:0:
158,35,41227,2,0,P|189:56|210:91,1,80,0|0,0:2|0:0,0:0:0:0:
185,176,41793,6,0,P|233:192|332:148,1,160,4|0,0:3|0:0,0:0:0:0:
358,68,42642,1,4,0:3:0:0:
442,92,42925,1,0,0:0:0:0:
477,172,43208,2,0,P|457:248|473:326,2,160,2|2|2,0:3|0:3|0:3,3:0:0:0:
442,92,44623,1,4,0:2:0:0:
272,47,45189,6,0,P|235:31|195:31,1,80,4|0,0:2|0:2,0:0:0:0:
217,118,45755,2,0,P|180:131|152:161,1,80,4|0,0:2|0:0,0:0:0:0:
189,240,46321,1,8,0:3:0:0:
189,240,47453,1,4,0:3:0:0:
189,240,47736,2,0,P|243:200|240:103,1,160,0|0,0:0|0:0,0:0:0:0:
168,154,48585,6,0,P|118:155|57:119,2,120,0|2|0,0:0|0:2|0:0,0:0:0:0:
245,112,49717,2,0,L|337:106,1,80,0|0,0:0|0:0,0:0:0:0:
294,189,50283,2,0,L|373:183,1,80,4|0,0:3|0:0,0:0:0:0:
461,179,50849,1,0,0:0:0:0:
461,179,51132,2,0,P|437:258|371:302,1,160,4|4,0:3|0:2,0:0:0:0:
295,264,51981,6,0,P|257:253|218:257,1,80,4|0,0:3|0:0,0:0:0:0:
136,289,52547,1,4,0:3:0:0:
55,254,52830,2,0,P|50:215|59:176,1,80,0|0,0:0|3:0,0:0:0:0:
110,105,53396,1,0,3:0:0:0:
185,60,53679,1,0,3:0:0:0:
272,69,53962,1,0,3:0:0:0:
353,100,54245,2,0,P|331:132|297:153,1,80,0|2,3:0|3:2,0:0:0:0:
349,223,54811,2,0,P|273:236|215:185,1,160,0|4,3:0|0:3,0:0:0:0:
201,97,55661,6,0,P|163:87|80:111,1,120,4|0,0:3|0:0,0:0:0:0:
53,134,56227,2,0,P|51:174|37:211,1,80,4|4,0:2|0:2,0:0:0:0:
3,292,56793,2,0,P|76:290|117:249,3,120,0|2|2|2,0:0|0:2|0:2|0:2,0:0:0:0:
130,222,58208,2,0,P|172:198|211:200,1,80,4|0,0:3|0:0,0:0:0:0:
289,211,58774,6,0,P|285:279|323:373,2,160,4|0|8,0:3|0:0|0:3,0:0:0:0:
289,211,61038,1,4,0:3:0:0:
313,125,61321,2,0,P|249:79|171:64,1,160,0|0,0:0|0:0,0:0:0:0:
84,75,62170,5,4,0:3:0:0:
48,156,62453,2,0,P|94:219|100:298,1,160,0|0,0:0|0:0,0:0:0:0:
182,329,63302,1,0,0:0:0:0:
269,341,63585,2,0,P|346:298|366:221,1,160,0|0,0:0|0:0,0:0:0:0:
293,184,64434,2,0,P|259:204|211:210,2,80,0|4|0,0:0|0:2|0:2,0:0:0:0:
335,106,65283,1,4,0:2:0:0:
352,19,65566,6,0,P|412:63|406:158,1,160,4|0,0:2|0:0,0:0:0:0:
335,106,66415,2,0,P|249:100|184:146,2,160,0|0|0,0:0|0:0|0:0,0:0:0:0:
343,193,67830,1,0,0:0:0:0:
355,280,68113,2,0,P|398:304|437:310,2,80,4|4|0,0:2|0:2|0:0,0:0:0:0:
272,250,68962,5,4,0:3:0:0:
185,238,69245,2,0,P|146:245|112:264,1,80,0|0,0:0|0:0,0:0:0:0:
55,332,69811,1,4,0:3:0:0:
25,248,70095,1,4,0:3:0:0:
7,161,70378,2,0,P|73:103|149:97,1,160,0|4,0:0|0:3,0:0:0:0:
227,121,71227,1,0,0:0:0:0:
162,181,71510,2,0,P|150:218|155:257,1,80,0|4,0:0|0:3,0:0:0:0:
189,339,72076,1,0,0:0:0:0:
241,268,72359,6,0,P|347:224|448:281,1,240,4|0,0:2|0:0,0:0:0:0:
398,353,73491,2,0,P|367:247|465:195,1,240,4|0,0:3|0:0,0:0:0:0:
465,107,74623,2,0,P|355:63|237:80,1,240,4|0,0:3|0:0,0:0:0:0:
165,130,75755,2,0,P|116:118|66:67,2,120,0|2|0,0:0|0:2|0:0,0:0:0:0:
246,163,76887,6,0,P|268:195|276:234,1,80,4|0,0:1|0:0,0:0:0:0:
188,232,77453,2,0,P|191:271|178:309,1,80,2|0,0:3|0:0,0:0:0:0:
105,259,78019,2,0,P|67:245|28:244,1,80,4|0,0:1|0:0,3:0:0:0:
60,163,78585,2,0,P|43:126|17:97,1,80,2|0,0:3|0:0,0:0:0:0:
95,58,79151,6,0,P|170:81|249:70,1,160,4|4,0:3|0:3,0:0:0:0:
328,29,80000,1,4,0:3:0:0:
416,42,80283,2,0,P|453:86|466:145,2,120,0|0|4,0:0|0:0|0:3,3:0:0:0:
362,111,81415,1,4,0:3:0:0:
288,159,81698,2,0,P|248:166|209:160,2,80,4|4|4,0:2|0:2|0:3,0:0:0:0:
366,198,82547,6,0,P|391:228|400:273,1,80,0|0,0:0|0:0,0:0:0:0:
312,268,83113,2,0,P|308:306|283:345,1,80,4|4,0:3|0:3,0:0:0:0:
224,278,83679,2,0,P|154:239|75:237,1,160,0|0,0:0|0:0,0:0:0:0:
16,171,84528,2,0,P|58:89|118:57,1,160,0|4,0:0|0:2,0:0:0:0:
203,54,85378,1,0,0:0:0:0:
283,90,85661,1,0,0:0:0:0:
317,170,85944,6,0,P|285:193|246:199,1,80,4|0,0:3|0:0,0:0:0:0:
251,287,86510,2,0,P|212:280|180:257,1,80,4|0,0:3|0:0,0:0:0:0:
135,182,87076,2,0,P|94:256|129:328,1,160,4|0,0:2|0:0,0:0:0:0:
199,360,87925,1,4,0:3:0:0:
286,361,88208,1,0,0:3:0:0:
354,305,88491,2,0,P|402:315|436:338,2,80,4|4|4,0:2|0:2|0:3,0:0:0:0:
271,273,89340,5,4,0:3:0:0:
204,213,89623,2,0,P|197:135|235:66,1,160,0|4,0:0|0:3,0:0:0:0:
322,49,90472,2,0,P|269:147|162:117,1,240,4|0,0:3|0:0,0:0:0:0:
101,53,91604,2,0,P|30:143|68:252,1,240,4|0,0:3|0:0,0:0:0:0:
145,295,92736,5,4,3:1:0:0:
190,103,96132,5,4,0:1:0:0:
190,103,97264,6,0,P|167:71|121:46,2,80,4|0|0,0:2|0:2|0:0,0:0:0:0:
210,188,98113,1,0,0:0:0:0:
274,128,98396,2,0,P|276:87|256:40,2,80,4|0|0,0:2|0:2|0:0,0:0:0:0:
294,213,99245,1,0,0:0:0:0:
381,199,99528,2,0,P|416:181|455:180,2,80,4|0|0,0:0|0:0|0:0,0:0:0:0:
348,281,100378,5,0,0:0:0:0:
274,329,100661,2,0,P|234:319|202:296,1,80,4|0,0:2|0:0,0:0:0:0:
143,361,101227,2,0,P|120:326|115:287,1,80,2|0,0:3|0:0,0:0:0:0:
167,215,101793,2,0,P|182:178|181:137,1,80,4|0,0:2|0:0,0:0:0:0:
96,163,102359,2,0,P|90:123|70:88,1,80,2|0,0:3|0:0,0:0:0:0:
2,34,102925,5,4,0:1:0:0:
152,104,105189,6,0,P|186:84|226:80,2,80,4|0|2,0:2|0:0|0:3,3:0:0:0:
101,177,106038,1,0,3:0:0:0:
65,96,106321,2,0,P|79:58|107:30,2,80,4|0|2,0:2|0:0|0:3,3:0:0:0:
101,177,107170,5,0,3:0:0:0:
51,249,107453,2,0,P|127:260|183:204,1,160,4|2,0:2|0:3,3:0:0:0:
211,123,108302,1,0,0:3:0:0:
229,37,108585,1,4,0:2:0:0:
318,37,108868,2,0,P|394:58|447:117,1,160,0|0,0:0|0:0,0:0:0:0:
474,200,109717,6,0,P|435:203|398:189,1,80,4|0,0:2|0:0,0:0:0:0:
356,265,110283,2,0,P|326:240|310:204,1,80,2|0,0:3|0:0,0:0:0:0:
226,230,110849,2,0,P|223:191|238:154,1,80,2|0,0:3|0:0,0:0:0:0:
259,69,111415,2,0,P|220:68|184:85,1,80,2|0,0:3|0:0,3:0:0:0:
99,61,111981,2,0,P|78:94|75:133,1,80,2|0,0:3|0:0,3:0:0:0:
40,215,112547,2,0,P|58:249|91:271,1,80,2|0,0:3|0:0,3:0:0:0:
172,234,113113,6,0,P|250:228|318:268,1,160,4|2,0:3|0:3,0:0:0:0:
355,348,113962,1,4,0:3:0:0:
404,275,114245,2,8,P|431:306|442:355,2,80,4|0|2,0:3|0:0|0:3,0:0:0:0:
335,219,115095,1,0,0:0:0:0:
417,188,115378,2,8,P|455:201|489:238,2,80,4|0|2,0:3|0:0|0:3,3:0:0:0:
348,132,116227,1,0,0:0:0:0:
296,60,116510,5,8,0:2:0:0:
209,44,116793,1,8,0:2:0:0:
137,95,117076,1,8,0:2:0:0:
113,180,117359,2,0,P|82:203|43:206,1,80,4|0,0:2|0:0,0:0:0:0:
128,53,118208,2,0,P|163:36|211:40,1,80,2|0,0:3|0:0,0:0:0:0:
182,123,118774,2,0,P|216:138|244:177,1,80,4|0,0:2|0:0,0:0:0:0:
257,257,119340,5,8,0:2:0:0:
205,328,119623,1,8,0:2:0:0:
117,326,119906,1,8,0:2:0:0:
60,258,120189,1,8,0:2:0:0:
70,170,120472,2,0,P|100:144|137:133,1,80,8|8,0:2|0:2,0:0:0:0:
225,143,121038,2,0,P|290:118|302:102,1,80,8|8,0:2|0:2,0:2:0:0:
320,28,121604,6,0,P|392:59|433:126,1,160,2|0,0:3|0:0,0:0:0:0:
434,215,122453,2,0,P|364:248|341:322,1,160,4|0,0:3|0:0,0:0:0:0:
252,324,123302,6,0,P|215:311|187:283,1,80,4|0,0:2|0:0,0:0:0:0:
118,338,123868,2,0,P|101:303|102:263,1,80,2|0,0:3|0:0,0:0:0:0:
15,253,124434,2,0,P|31:211|58:186,1,80,4|0,0:2|0:0,0:0:0:0:
138,155,125000,5,8,0:3:0:0:
224,169,125283,1,0,0:0:0:0:
294,221,125566,2,0,P|337:216|375:191,1,80,0|0,0:0|0:0,0:0:0:0:
308,133,126132,2,0,P|334:99|344:54,1,80,2|0,0:2|0:0,0:0:0:0:
255,61,126698,5,4,0:2:0:0:
167,57,126981,2,0,P|124:40|96:13,2,80,0|2|4,0:0|0:3|0:2,0:0:0:0:
207,135,127830,2,0,P|170:163|134:173,2,80,0|2|2,0:0|0:3|0:3,0:0:0:0:
255,61,128679,1,0,0:0:0:0:
295,139,128962,2,0,P|289:184|271:217,2,80,0|2|2,0:0|0:3|0:3,0:0:0:0:
255,61,129811,1,0,0:0:0:0:
340,39,130095,6,0,P|384:42|424:68,1,80,4|0,0:2|0:0,0:0:0:0:
380,140,130661,2,0,P|408:173|418:219,1,80,2|0,0:3|0:0,0:0:0:0:
356,269,131227,1,4,0:0:0:0:
356,269,132359,1,4,3:2:0:0:
346,181,132642,2,8,P|394:176|425:187,2,80,0|2|0,0:0|0:3|0:0,3:0:0:0:
276,234,133491,6,0,P|245:259|206:268,1,80,4|0,0:2|0:0,3:0:0:0:
207,181,134057,2,0,P|167:177|133:157,1,80,2|0,0:3|0:0,3:0:0:0:
183,85,134623,2,0,P|222:78|254:55,2,80,4|0|2,0:2|0:0|0:3,0:0:0:0:
97,64,135472,1,0,0:0:0:0:
53,141,135755,2,0,P|61:179|53:217,2,80,4|0|2,0:2|0:0|0:3,3:0:0:0:
9,64,136604,1,0,0:0:0:0:
97,64,136887,6,0,P|167:98|245:84,1,160,4|0,0:3|0:0,0:0:0:0:
320,39,137736,2,0,P|324:126|268:171,2,160,0|0|0,0:0|0:0|0:0,0:0:0:0:
407,30,139151,2,0,P|435:57|448:94,1,80
454,182,139717,1,0,0:0:0:0:
427,265,140000,1,0,0:0:0:0:
340,278,140283,6,0,P|284:269|251:281,1,80,4|4,0:2|0:2,0:0:0:0:
261,186,140849,2,0,P|223:198|193:223,1,80,4|4,0:2|0:2,3:0:0:0:
26,276,141698,2,0,P|43:200|102:147,1,160,4|4,0:2|3:3,0:0:0:0:
182,182,142547,1,0,3:0:0:0:
269,191,142830,2,0,P|306:180|340:145,1,80,0|0,3:0|3:0,0:0:0:0:
368,70,143396,1,0,3:0:0:0:
287,36,143679,6,0,B|255:45|208:38|208:38|236:78|238:112|238:112|204:96|153:99,1,240,2|2,0:3|0:3,0:0:0:0:
73,110,144811,5,4,0:3:0:0:
76,199,145095,2,0,P|57:220|10:242,2,80,4|0|4,0:3|0:0|0:3,0:0:0:0:
162,185,145944,2,0,P|218:202|255:249,2,120,4|4|0,0:3|0:3|0:0,0:0:0:0:
107,117,147076,6,0,B|158:77|238:110,2,120,0|2|0,0:0|0:2|0:0,0:0:0:0:
76,199,148208,1,4,0:1:0:0:
202,321,148774,1,4,0:1:0:0:
375,289,149340,2,0,P|384:251|377:212,1,80,4|4,0:3|0:3,0:0:0:0:
461,187,149906,2,0,P|436:148|402:128,1,80,4|4,0:1|0:2,0:0:0:0:
320,145,150472,6,0,P|242:147|179:101,1,160,4|4,0:3|0:3,0:0:0:0:
140,21,151321,1,4,0:3:0:0:
62,62,151604,2,0,P|53:95|59:143,1,80,0|4,0:0|0:3,0:0:0:0:
14,216,152170,2,0,P|42:243|79:258,1,80
150,313,152736,2,0,P|118:337|80:348,2,80,4|0|0,0:2|0:0|0:0,0:0:0:0:
180,230,153585,1,4,0:3:0:0:
178,142,153868,6,0,P|224:78|300:57,1,160,4|4,0:3|0:3,0:0:0:0:
387,68,154717,1,4,0:3:0:0:
471,92,155000,2,0,P|433:143|372:155,3,120,0|2|2|2,0:0|3:2|3:2|3:2,0:0:0:0:
337,145,156415,2,0,P|293:148|262:176,1,80,0|2,3:0|3:2,0:0:0:0:
221,245,156981,1,0,3:0:0:0:
194,328,157264,6,0,P|160:308|139:275,1,80,4|0,0:3|0:0,0:0:0:0:
60,315,157830,2,0,P|51:277|59:238,1,80,4|4,0:3|0:3,0:0:0:0:
108,165,158396,1,8,0:3:0:0:
108,165,159528,6,0,L|192:136,1,80,4|4,0:3|0:2,0:0:0:0:
241,205,160095,2,0,L|157:234,1,80,4|4,0:2|0:3,0:0:0:0:
78,246,160661,1,4,0:3:0:0:
18,180,160944,2,0,P|76:128|90:51,1,160,2|4,0:2|0:3,0:0:0:0:
176,35,161793,6,0,P|215:42|246:66,1,80,4|0,0:2|0:0,0:0:0:0:
180,124,162359,2,0,P|202:156|207:195,1,80,2|0,0:3|0:0,0:0:0:0:
207,283,162925,2,0,P|245:274|277:250,1,80,4|0,0:2|0:0,0:0:0:0:
336,314,163491,2,0,P|360:272|360:229,1,80,2|0,0:3|0:0,0:0:0:0:
310,170,164057,5,4,0:1:0:0:
308,170,167453,6,0,P|241:262|126:251,1,240,2|0,0:0|0:2,0:0:0:0:
64,190,168585,2,0,P|96:169|136:165,1,80,2|0,0:0|0:0,0:0:0:0:
225,161,169151,6,0,P|202:106|149:76,1,120,2|0,0:0|0:0,0:0:0:0:
108,67,169717,2,0,P|78:90|30:97,1,80,2|0,0:0|0:0,3:0:0:0:
73,178,170283,2,0,P|58:212|21:241,1,80,2|0,0:0|0:0,3:0:0:0:
24,326,170849,6,0,P|99:302|177:316,1,160,2|0,0:0|0:0,0:0:0:0:
257,352,171698,1,0,0:0:0:0:
334,310,171981,2,0,P|360:279|371:235,1,80,2|0,0:0|0:0,0:0:0:0:
337,160,172547,6,0,P|276:209|197:212,1,160,2|2,0:0|0:0,0:0:0:0:
120,170,173396,1,0,0:0:0:0:
54,111,173679,1,2,0:0:0:0:
54,111,174245,6,0,P|67:148|62:187,1,80,2|0,0:0|0:0,0:0:0:0:
148,207,174811,2,0,P|130:242|99:268,1,80,2|0,0:0|0:0,0:0:0:0:
12,279,175378,1,2,0:0:0:0:
64,349,175661,1,0,0:0:0:0:
151,344,175944,6,0,P|186:327|226:329,1,80,2|0,0:0|0:0,0:0:0:0:
311,352,176510,2,0,P|350:345|382:322,2,80,2|0|0,0:0|0:0|0:0,0:0:0:0:
290,266,177359,1,0,0:0:0:0:
252,186,177642,6,0,P|217:169|177:169,1,80,2|0,0:0|0:0,0:0:0:0:
90,178,178208,2,0,P|95:140|118:104,1,80,2|0,0:0|0:0,0:0:0:0:
195,63,178774,2,0,P|291:77|351:50,1,160,2|2,0:0|0:0,0:0:0:0:
428,86,179623,5,0,0:0:0:0:
468,164,179906,2,0,P|470:203|456:240,1,80,2|0,0:0|0:0,0:0:0:0:
370,224,180472,1,2,0:0:0:0:
282,237,180755,1,0,0:0:0:0:
215,295,181038,6,0,P|158:298|80:226,1,160,2|0,0:0|0:0,0:0:0:0:
75,146,181887,1,0,0:0:0:0:
96,60,182170,2,0,P|157:113|150:190,1,160,2|0,0:0|0:0,0:0:0:0:
226,232,183019,5,0,0:0:0:0:
311,251,183302,2,0,P|350:253|389:238,1,80,2|0,0:0|0:0,0:0:0:0:
339,166,183868,2,0,P|368:140|385:102,1,80,2|0,0:0|0:0,0:0:0:0:
298,87,184434,6,0,P|262:58|246:22,2,80,2|0|0,0:0|0:0|0:0,0:0:0:0:
252,162,185283,2,0,P|206:166|169:152,2,80,0|0|0,0:0|0:0|0:0,0:0:0:0:
339,166,186132,6,0,P|397:218|406:273,1,120,2|0,0:0|0:0,0:0:0:0:
405,300,186698,2,0,P|366:299|329:283,1,80,2|0,0:0|0:0,0:0:0:0:
284,359,187264,2,0,P|254:327|240:279,1,80,2|0,0:0|0:0,0:0:0:0:
270,210,187830,6,0,P|239:138|165:116,1,160,2|0,0:0|0:0,0:0:0:0:
82,145,188679,1,0,0:0:0:0:
27,214,188962,2,0,P|63:230|102:230,1,80,2|0,0:0|0:0,0:0:0:0:
186,200,189528,2,0,P|257:171|327:206,1,160,2|2,0:0|0:0,0:0:0:0:
327,206,191227,6,0,P|364:143|342:56,1,160,2|0,0:0|0:0,0:0:0:0:
261,84,192076,1,0,0:0:0:0:
172,89,192359,2,0,P|133:89|95:76,1,80,2|0,0:0|0:0,0:0:0:0:
9,52,192925,6,0,P|22:128|90:165,1,160,2|0,0:0|0:0,0:0:0:0:
177,177,193774,2,0,P|181:222|167:260,2,80
154,92,194623,6,0,P|193:90|229:106,1,80,2|0,0:0|0:0,0:0:0:0:
275,29,195189,2,0,P|302:57|318:94,1,80,2|0,0:0|0:0,0:0:0:0:
404,73,195755,2,0,P|403:113|388:149,1,80,2|0,0:0|0:0,0:0:0:0:
304,179,196321,6,0,P|239:222|231:298,1,160,2|0,0:0|0:0,0:0:0:0:
314,267,197170,2,0,P|353:265|392:275,2,80
230,298,198019,6,0,P|153:293|100:235,1,160,2|0,0:0|0:0,0:0:0:0:
97,147,198868,1,0,0:0:0:0:
97,59,199151,2,0,P|161:89|180:172,1,160,2|2,0:0|0:0,0:0:0:0:
164,257,200000,5,0,0:0:0:0:
249,278,200283,2,0,P|289:279|326:263,1,80,2|0,0:0|0:0,0:0:0:0:
275,192,200849,2,0,P|303:164|319:127,1,80,2|0,0:0|0:0,0:0:0:0:
290,44,201415,6,0,P|227:59|138:32,1,160,2|0,0:0|0:0,0:0:0:0:
50,19,202264,1,0,0:0:0:0:
80,102,202547,2,0,P|80:141|68:179,1,80,2|0,0:0|0:0,0:0:0:0:
152,202,203113,6,0,P|132:236|103:263,1,80,2|0,0:0|0:0,0:0:0:0:
29,310,203679,2,0,P|107:298|184:315,1,160,2|0,0:0|0:0,0:0:0:0:
264,353,204528,1,0,0:0:0:0:
348,326,204811,6,0,P|379:302|399:267,1,80,2|0,0:0|0:0,0:0:0:0:
314,243,205378,2,0,P|318:203|308:164,1,80,2|0,0:0|0:0,0:0:0:0:
231,208,205944,6,0,P|185:216|141:203,1,80,0|0,0:0|0:0,0:0:0:0:
190,129,206510,2,0,P|151:102|129:61,1,80,2|0,0:0|0:0,0:0:0:0:
218,44,207076,6,0,P|256:52|288:77,1,80,2|0,0:0|0:0,0:0:0:0:
362,31,207642,2,0,P|373:83|361:122,1,80,2|0,0:0|0:0,0:0:0:0:
299,164,208208,6,0,P|303:203|324:237,1,80,2|0,0:0|0:0,0:0:0:0:
238,257,208774,2,0,P|221:292|222:332,1,80,2|0,0:0|0:0,0:0:0:0:
140,301,209340,6,0,P|66:303|-9:355,2,160,2|2|2,0:0|0:0|0:0,0:0:0:0:
222,333,210755,1,0,0:0:0:0:
310,325,211038,1,2,0:0:0:0:
374,265,211321,1,0,0:0:0:0:
376,177,211604,6,0,P|337:185|306:209,2,80,2|0|0,0:0|0:0|0:0,0:0:0:0:
439,115,212453,2,0,P|476:96|500:57,2,80,0|2|0,0:0|0:0|0:0,0:0:0:0:
353,93,213302,6,0,P|315:80|276:86,1,80,2|0,0:0|0:0,0:0:0:0:
193,115,213868,1,2,0:0:0:0:
115,155,214151,2,0,P|76:138|53:108,2,80
189,202,215000,6,0,P|248:253|259:330,1,160,2|0,0:0|0:0,0:0:0:0:
344,355,215849,1,0,0:0:0:0:
428,329,216132,2,0,P|452:296|460:257,1,80,2|0,0:0|0:0,3:0:0:0:
370,260,216698,2,0,P|365:182|407:116,1,160,2|2,0:0|0:0,0:0:0:0:
407,115,218396,6,0,B|358:190|301:197|234:181|184:120|202:66|265:36|338:29|361:72|371:119|352:177|281:261|265:274|199:226|147:165|94:260,1,641.333303975425,0|2,0:0|0:0,0:0:0:0:
256,192,223774,12,2,226816,0:0:0:0:
