osu file format v14

[General]
AudioFilename: 01_igorrr_tout_petit_moineau.mp3
AudioLeadIn: 0
PreviewTime: 96061
Countdown: 0
SampleSet: Normal
StackLeniency: 0.7
Mode: 0
LetterboxInBreaks: 0
WidescreenStoryboard: 0

[Editor]
DistanceSpacing: 0.7
BeatDivisor: 4
GridSize: 32
TimelineZoom: 1.1

[Metadata]
Title:Tout Petit Moineau
TitleUnicode:Tout Petit Moineau
Artist:Igorrr
ArtistUnicode:Igorrr
Creator:fergas
Version:Hard
Source:
Tags:hallelujah breakcore baroque baroquecore black death metal adn165 ad noiseam Laure Le Prunenec OnosakiHito
BeatmapID:528710
BeatmapSetID:212180

[Difficulty]
HPDrainRate:5
CircleSize:4
OverallDifficulty:6.5
ApproachRate:7.5
SliderMultiplier:1.2
SliderTickRate:1

[Events]
//Background and Video events
0,0,"zn1mLPDbJwM12.jpg",0,0
//Break Periods
2,92936,95307
//Storyboard Layer 0 (Background)
//Storyboard Layer 1 (Fail)
//Storyboard Layer 2 (Pass)
//Storyboard Layer 3 (Foreground)
//Storyboard Sound Samples

[TimingPoints]
24812,283.018867924528,6,1,1,50,1,0
76887,-100,6,1,1,60,0,1
79151,-100,6,1,1,50,0,0
92736,-100,6,1,1,50,0,1
92830,-100,6,1,1,50,0,0
96132,-100,6,1,1,60,0,1
100378,-100,6,1,1,60,0,1
102925,-100,6,1,1,50,0,0
105189,-100,6,1,1,60,0,1
109646,-100,6,1,1,50,0,0
109717,-100,6,1,1,50,0,1
123231,-100,6,1,1,30,0,0
123302,-100,6,1,1,50,0,1
125000,-100,6,2,2,70,0,0
126698,-100,6,1,1,50,0,1
136887,-100,6,1,1,30,0,0
143679,-83.3333333333333,6,1,1,50,0,1
144811,-100,6,1,1,50,0,0
161793,-100,6,1,1,50,0,1
164057,-100,6,1,1,50,0,0
166887,-100,6,1,1,5,0,0
167453,-100,6,2,1,45,0,0
226816,-100,6,2,1,5,0,0

[Colours]
Combo1 : 172,196,11
Combo2 : 0,128,64
Combo3 : 64,128,128

[HitObjects]
132,173,24811,5,8,0:3:0:0:
132,173,25661,6,0,P|164:109|148:47,2,120,0|0|0,0:0|0:0|0:2,0:0:0:0:
58,198,26368,2,0,P|29:196|0:202,2,60,0|0|4,0:0|0:0|0:3,0:0:0:0:
117,249,26793,1,4,0:3:0:0:
238,344,27076,1,4,0:3:0:0:
389,304,27359,2,0,P|433:234|430:188,2,120,0|0|4,0:0|0:0|0:2,0:0:0:0:
248,236,28208,5,0,0:0:0:0:
248,236,28349,2,0,P|207:197|129:183,1,120,4|0,0:3|0:0,0:0:0:0:
69,172,28774,2,0,P|144:152|182:104,1,120,4|0,0:3|0:0,0:0:0:0:
198,49,29198,1,0,0:0:0:0:
273,27,29340,1,4,0:3:0:0:
341,64,29481,2,0,P|391:61|423:42,2,60,4|0|0,0:3|0:0|0:0,0:0:0:0:
275,105,29906,6,0,P|331:124|373:165,1,120,4|4,0:3|0:3,0:0:0:0:
423,313,30472,1,2,0:2:0:0:
354,277,30613,2,8,P|325:262|291:257,2,60,0|4|2,0:0|0:3|0:2,0:0:0:0:
301,335,31038,2,0,P|269:338|238:354,2,60,0|0|2,0:0|0:0|0:2,0:0:0:0:
158,273,31604,6,0,P|91:234|69:178,1,120,4|0,0:2|0:0,0:0:0:0:
49,44,32170,1,0,0:0:0:0:
195,99,32453,1,0,0:0:0:0:
73,198,32736,5,8,0:3:0:0:
73,198,33868,6,0,P|150:183|202:209,1,120,4|0,0:3|0:0,0:0:0:0:
246,248,34293,2,0,P|229:175|249:123,1,120,4|0,0:3|0:0,0:0:0:0:
365,38,34859,1,4,0:3:0:0:
442,49,35000,5,4,0:3:0:0:
487,113,35142,2,0,P|505:146|531:168,2,60,2|2|4,0:2|0:2|0:3,0:0:0:0:
410,125,35566,1,4,0:3:0:0:
356,181,35708,2,0,P|345:210|321:233,2,60,2|2|4,0:2|0:2|0:3,0:0:0:0:
430,204,36132,1,4,0:3:0:0:
459,276,36274,2,0,P|491:295|524:301,2,60,2|2|4,0:2|0:2|0:3,0:0:0:0:
381,270,36698,5,4,0:3:0:0:
381,270,36840,1,0,0:0:0:0:
305,291,36981,2,0,P|270:304|226:304,1,60,0|0,0:0|0:0,0:0:0:0:
251,227,37264,2,0,P|214:220|176:198,1,60,0|0,0:0|0:0,0:0:0:0:
106,132,37547,2,0,P|122:190|110:254,1,120,4|0,0:2|0:0,0:0:0:0:
241,136,38113,2,0,P|293:109|352:113,1,120,4|8,0:2|0:3,0:0:0:0:
449,236,38679,6,0,P|430:265|405:285,1,60,0|0,0:0|0:0,0:0:0:0:
358,223,38962,2,0,P|327:238|295:243,2,60,0|0|4,3:0|3:0|0:3,0:0:0:0:
275,90,39528,1,4,0:3:0:0:
123,54,39811,1,4,0:3:0:0:
21,172,40095,5,4,0:3:0:0:
176,161,40378,2,0,P|212:187|227:219,1,60,0|4,0:0|0:3,0:0:0:0:
252,270,40661,1,0,0:0:0:0:
256,347,40802,1,0,0:0:0:0:
293,248,40944,2,0,P|328:201|380:173,2,120,4|4|0,0:2|0:2|3:0,0:0:0:0:
166,316,41793,5,4,0:3:0:0:
166,316,41934,2,0,P|86:318|46:291,1,120,4|4,0:3|0:3,0:0:0:0:
88,228,42359,2,0,P|86:191|72:160,2,60,0|0|4,0:0|0:0|0:3,0:0:0:0:
160,201,42783,2,0,P|199:172|281:164,1,120,4|4,0:3|0:3,0:0:0:0:
345,161,43208,6,0,P|375:157|403:146,1,60,2|0,0:3|0:0,0:0:0:0:
327,236,43491,2,0,P|357:240|387:237,1,60,2|0,0:3|0:0,0:0:0:0:
286,302,43774,2,0,P|313:314|343:319,1,60,2|0,0:3|0:0,0:0:0:0:
244,236,44057,2,0,P|206:229|172:233,1,60,2|0,0:3|0:0,0:0:0:0:
205,154,44340,2,0,P|166:157|134:169,1,60,2|0,0:3|0:0,0:0:0:0:
69,177,44623,2,0,P|115:140|142:87,1,120,4|2,0:2|0:2,0:0:0:0:
288,33,45189,5,4,0:2:0:0:
362,54,45330,1,0,0:0:0:0:
410,115,45472,1,4,0:2:0:0:
433,269,45755,1,4,0:2:0:0:
288,210,46038,1,4,0:2:0:0:
132,223,46321,1,8,0:3:0:0:
132,223,47453,6,0,P|189:171|199:106,1,120,4|0,0:3|0:0,0:0:0:0:
278,130,47878,2,0,P|273:100|259:73,1,60,4|0,0:3|0:0,0:0:0:0:
183,57,48161,2,0,P|122:63|59:48,1,120,4|0,0:3|0:0,0:0:0:0:
69,128,48585,6,0,P|64:157|51:184,2,60,0|2|0,0:0|0:2|0:0,0:0:0:0:
128,198,49010,1,2,0:2:0:0:
128,198,49151,2,0,P|114:224|94:247,2,60,0|2|0,0:0|0:2|0:0,0:0:0:0:
168,274,49576,1,4,0:3:0:0:
168,274,49717,6,0,P|253:322|349:306,1,200,0|0,0:0|0:0,0:0:0:0:
394,279,50283,2,0,P|305:270|274:72,1,320,4|0,0:3|0:0,0:0:0:0:
311,43,51132,2,0,P|253:57|194:46,1,120,4|0,0:3|0:0,0:0:0:0:
124,12,51557,1,4,0:3:0:0:
59,54,51698,2,0,P|46:111|63:168,1,120,4|4,0:2|0:3,0:0:0:0:
217,194,52264,5,0,0:0:0:0:
217,194,52406,2,0,L|296:188,2,60,4|4|4,0:3|0:3|0:3,0:0:0:0:
142,215,52830,2,0,P|192:241|227:298,1,120,0|0,0:0|3:0,0:0:0:0:
219,371,53255,1,0,3:0:0:0:
290,340,53396,2,0,L|362:334,1,60,0|0,3:0|3:0,0:0:0:0:
434,256,53679,6,0,L|375:261,1,60,0|0,3:0|3:0,0:0:0:0:
299,239,53962,1,0,3:0:0:0:
246,181,54104,1,0,3:0:0:0:
233,104,54245,1,0,3:0:0:0:
243,25,54387,2,0,P|184:20|127:38,1,120,0|0,3:0|3:0,0:0:0:0:
76,96,54811,1,0,3:0:0:0:
124,157,54953,2,0,P|137:244|91:319,1,180,0|4,3:0|0:3,0:0:0:0:
241,279,55661,6,0,P|271:274|301:276,1,60,4|0,0:3|0:0,0:0:0:0:
377,295,55944,2,0,P|347:258|344:174,1,120,4|4,0:3|0:2,0:0:0:0:
391,40,56510,1,4,0:2:0:0:
391,40,56793,6,0,P|339:71|257:64,1,120,0|0,0:0|0:0,0:0:0:0:
209,41,57217,2,0,P|152:69|122:137,1,120,2|0,0:2|0:0,0:0:0:0:
168,181,57642,2,0,P|144:228|68:259,1,120,2|0,0:2|0:0,0:0:0:0:
8,259,58066,1,2,0:2:0:0:
48,192,58208,6,0,P|62:159|63:120,1,60,4|0,0:3|0:0,0:0:0:0:
70,57,58491,2,0,P|114:47|162:50,1,80
197,69,58774,2,0,P|319:102|428:46,2,240,4|0|8,0:3|0:0|0:3,0:0:0:0:
197,68,61038,6,0,P|255:79|304:112,1,120,4|0,0:3|0:0,0:0:0:0:
370,188,61462,2,0,P|369:159|380:131,1,60,4|0,0:3|0:0,0:0:0:0:
448,184,61745,2,0,P|448:213|438:241,1,60,4|0,0:3|0:0,0:0:0:0:
384,298,62028,1,4,0:3:0:0:
311,324,62170,6,0,P|255:328|173:293,1,120,4|0,0:3|0:0,0:0:0:0:
137,255,62595,2,0,P|165:208|155:126,1,120,4|0,0:3|0:0,0:0:0:0:
129,74,63019,1,0,0:0:0:0:
206,81,63161,1,4,0:3:0:0:
281,61,63302,2,0,P|332:55|405:90,1,120,0|0,0:0|0:0,0:0:0:0:
338,135,63727,6,0,P|318:166|314:199,1,60,4|0,0:3|0:0,0:0:0:0:
322,266,64010,2,0,P|359:289|392:299,2,60,4|0|0,0:2|0:0|0:0,0:0:0:0:
250,233,64434,2,0,P|221:228|191:231,1,60,0|0,0:0|0:0,0:0:0:0:
74,244,64717,2,0,P|114:210|140:139,1,120,4|0,0:2|0:2,0:0:0:0:
261,51,65283,2,0,P|320:47|377:65,1,120,4|4,0:2|0:2,0:0:0:0:
405,218,65849,5,0,0:0:0:0:
405,218,65991,2,0,P|358:208|328:186,1,60,0|0,0:0|0:0,0:0:0:0:
248,82,66415,2,0,P|103:103|240:309,1,480,0|0,0:0|0:0,0:0:0:0:
288,289,67689,1,4,0:3:0:0:
337,229,67830,5,0,0:0:0:0:
345,151,67972,1,0,0:0:0:0:
333,74,68113,2,0,P|374:121|448:145,1,120,4|4,0:2|0:2,0:0:0:0:
271,161,68679,2,0,P|243:173|221:193,1,60,0|0,0:0|0:0,0:0:0:0:
162,244,68962,6,0,P|106:226|62:154,1,120,4|0,0:3|0:0,0:0:0:0:
143,154,69387,2,0,P|184:120|205:49,1,120,4|0,0:3|0:0,0:0:0:0:
281,67,69811,2,0,P|302:90|314:117,1,60,4|0,0:3|0:0,0:0:0:0:
392,103,70095,2,0,P|390:132|380:161,1,60,4|0,0:3|0:0,0:0:0:0:
306,189,70378,5,0,0:0:0:0:
306,189,70519,2,0,P|219:205|153:264,1,180,0|4,0:0|0:3,0:0:0:0:
156,185,71085,1,4,0:3:0:0:
133,108,71227,2,0,P|122:81|101:60,1,60,0|4,0:0|0:3,0:0:0:0:
59,126,71510,6,0,P|63:176|32:253,1,120,0|4,0:0|0:3,0:0:0:0:
14,314,71934,1,4,0:3:0:0:
68,370,72076,1,0,0:0:0:0:
145,361,72217,1,4,0:3:0:0:
187,295,72359,6,0,P|256:228|389:220,1,200,4|0,0:2|0:0,0:0:0:0:
387,252,72925,2,0,P|312:225|235:97,1,200,0|0,0:0|0:0,0:0:0:0:
232,79,73491,2,0,P|184:66|127:77,1,80,4|0,0:3|0:0,0:0:0:0:
161,120,73774,2,0,P|117:144|85:192,1,80,4|0,0:3|0:0,0:0:0:0:
76,215,74057,6,0,P|138:224|218:337,1,200,0|0,0:0|0:0,0:0:0:0:
266,346,74623,2,0,P|361:330|417:255,2,160,4|4|4,0:3|0:3|0:3,0:0:0:0:
237,300,75472,2,0,P|206:276|166:273,1,80,0|0,0:0|0:0,0:0:0:0:
114,270,75755,6,0,P|83:289|52:296,2,60,0|2|0,0:0|0:2|0:0,0:0:0:0:
58,216,76179,1,2,0:2:0:0:
58,216,76321,2,0,P|21:216|-8:207,2,60,0|2|0,0:0|0:2|0:0,0:0:0:0:
133,197,76745,1,2,0:3:0:0:
182,134,76887,6,0,P|211:132|241:136,1,60,4|0,0:1|0:0,0:0:0:0:
266,55,77170,2,0,P|293:67|316:85,1,60,2|0,0:3|0:0,0:0:0:0:
407,161,77453,2,0,P|399:132|399:102,1,60,4|0,0:1|0:0,0:0:0:0:
369,237,77736,2,0,P|347:215|332:190,1,60,2|0,0:3|0:0,0:0:0:0:
248,198,78019,6,0,P|221:210|198:229,1,60,4|0,0:1|0:0,0:0:0:0:
132,174,78302,2,0,P|114:199|103:227,1,60,2|0,0:3|0:0,0:0:0:0:
199,124,78585,2,0,P|206:96|203:66,1,60,4|0,0:1|0:0,0:0:0:0:
119,80,78868,2,0,P|104:54|80:35,1,60,2|0,0:3|0:0,0:0:0:0:
57,131,79151,6,0,P|64:189|42:260,1,120,4|0,0:3|0:0,0:0:0:0:
0,310,79576,1,0,0:0:0:0:
114,287,79717,2,0,P|138:287|185:307,1,60,4|0,0:3|0:0,0:0:0:0:
201,225,80000,2,0,P|221:237|252:277,1,60,4|0,0:3|0:0,0:0:0:0:
286,330,80283,5,0,0:0:0:0:
286,330,80425,2,0,P|292:265|438:168,1,240,0|0,0:0|0:0,0:0:0:0:
350,142,81132,2,0,P|324:127|303:105,1,60,4|0,0:3|0:0,0:0:0:0:
234,142,81415,2,0,P|226:113|226:83,1,60,4|0,0:3|0:0,0:0:0:0:
151,58,81698,2,0,P|94:73|55:117,2,120,4|4|4,0:2|0:2|0:3,0:0:0:0:
151,58,82547,5,0,0:0:0:0:
189,125,82689,2,0,P|237:158|296:161,1,120,0|0,0:0|0:0,0:0:0:0:
372,150,83113,2,0,P|403:152|430:163,1,60,4|0,0:3|0:0,0:0:0:0:
386,227,83396,2,0,P|400:252|402:282,2,60,4|0|0,0:3|0:0|0:0,0:0:0:0:
326,277,83821,2,0,P|296:272|271:257,1,60,4|0,0:3|0:0,0:0:0:0:
219,316,84104,6,0,P|201:291|193:263,1,60,4|0,0:3|0:0,0:0:0:0:
215,188,84387,1,4,0:3:0:0:
226,111,84528,2,0,P|180:37|94:37,1,180,0|0,0:0|0:0,0:0:0:0:
66,111,85095,2,0,P|124:108|166:67,1,120,4|0,0:2|0:0,0:0:0:0:
244,69,85519,2,0,P|284:59|320:64,2,60,0|0|0,0:0|0:0|0:0,0:0:0:0:
208,139,85944,6,0,P|200:197|221:253,1,120,4|0,0:3|0:0,0:0:0:0:
288,293,86368,1,0,0:0:0:0:
172,306,86510,2,0,P|143:317|120:336,1,60,4|0,0:3|0:0,0:0:0:0:
73,274,86793,2,0,P|53:296|43:324,1,60,0|0,0:0|0:0,0:0:0:0:
138,231,87076,5,4,0:2:0:0:
170,160,87217,2,0,P|128:38|29:118,1,300,0|4,0:0|0:3,0:0:0:0:
138,231,88208,1,0,0:3:0:0:
290,260,88491,2,0,P|347:245|390:204,2,120,4|4|4,0:2|0:2|0:3,0:0:0:0:
134,264,89340,6,0,P|85:277|69:288,2,60,4|0|0,0:3|0:0|0:0,0:0:0:0:
207,243,89764,2,0,P|252:167|222:85,1,180,0|4,0:0|0:3,0:0:0:0:
146,66,90330,1,4,0:3:0:0:
77,105,90472,6,0,P|106:138|260:127,1,200,4|0,0:3|0:0,0:0:0:0:
283,96,91038,2,0,P|380:133|409:221,1,200,4|0,0:3|0:0,0:0:0:0:
412,270,91604,2,0,P|363:243|215:265,1,200,4|4,0:3|0:3,0:0:0:0:
186,294,92170,2,0,P|203:220|104:122,1,200,4|0,0:3|0:0,0:0:0:0:
78,125,92736,5,4,3:1:0:0:
160,128,96132,5,4,0:1:0:0:
340,229,97264,2,0,P|308:243|269:240,3,60,4|0|0|0,0:2|0:0|0:2|0:0,0:0:0:0:
291,159,97830,6,0,P|261:157|234:144,3,60,4|0|0|0,0:2|0:0|0:2|0:0,0:0:0:0:
290,81,98396,2,0,P|319:83|346:96,1,60,4|0,0:2|0:0,0:0:0:0:
329,178,98679,2,0,P|353:194|369:219,1,60,0|0,0:2|0:0,0:0:0:0:
291,253,98962,2,0,P|261:282|236:291,3,60,4|0|0|0,0:2|0:0|0:0|0:0,0:0:0:0:
216,209,99528,6,0,P|201:212|186:211,10,30,4|0|0|0|0|0|0|0|0|0|0,0:0|0:0|0:0|0:0|0:0|0:0|0:0|0:0|0:0|0:0|0:0,0:0:0:0:
235,126,100378,6,0,P|260:110|289:105,1,60,2|0,0:3|0:0,0:0:0:0:
410,168,100661,2,0,P|380:169|353:159,1,60,4|0,0:2|0:0,0:0:0:0:
275,192,100944,2,0,P|257:216|251:245,1,60,2|0,0:3|0:0,0:0:0:0:
231,363,101227,2,0,P|221:335|202:313,1,60,4|0,0:2|0:0,0:0:0:0:
168,235,101510,6,0,P|140:222|111:220,1,60,2|0,0:3|0:0,0:0:0:0:
37,179,101793,2,0,P|37:149|46:120,1,60,4|0,0:2|0:0,0:0:0:0:
128,136,102076,2,0,P|149:115|175:101,1,60,2|0,0:3|0:0,0:0:0:0:
231,163,102359,2,0,P|260:163|289:172,1,60,4|0,0:2|0:0,0:0:0:0:
281,256,102642,2,0,P|301:277|315:303,1,60,2|0,0:3|0:0,0:0:0:0:
257,365,102925,5,4,0:1:0:0:
181,98,105189,6,0,L|113:105,1,60,4|0,0:2|0:0,0:0:0:0:
160,178,105472,2,0,L|104:218,1,60,2|0,0:3|0:0,0:0:0:0:
176,266,105755,2,0,L|151:320,1,60,4|0,0:2|0:0,0:0:0:0:
234,327,106038,1,2,0:3:0:0:
314,303,106179,1,0,0:0:0:0:
397,313,106321,6,0,P|426:310|452:296,1,60,4|0,0:2|0:0,0:0:0:0:
402,227,106604,2,0,P|420:205|428:176,1,60,2|0,0:3|0:0,0:0:0:0:
344,163,106887,1,4,0:2:0:0:
282,105,107028,2,0,P|267:78|261:49,2,60,0|2|0,0:0|0:3|0:0,0:0:0:0:
264,187,107453,6,0,P|240:204|212:211,1,60,4|0,0:2|0:0,0:0:0:0:
127,195,107736,1,2,0:3:0:0:
152,275,107878,1,0,0:0:0:0:
152,358,108019,1,4,0:2:0:0:
235,368,108161,2,0,P|264:361|288:345,1,60,0|2,0:0|0:3,0:0:0:0:
347,283,108444,1,0,0:0:0:0:
283,228,108585,6,0,P|259:173|275:114,1,120,4|2,0:2|0:3,0:0:0:0:
326,52,109010,2,0,P|276:83|217:86,1,120,0|0,0:0|0:0,0:0:0:0:
144,42,109434,2,0,P|120:60|107:87,1,60,2|0,0:3|0:0,0:0:0:0:
115,172,109717,6,0,P|94:194|67:206,1,60,4|0,0:2|0:0,0:0:0:0:
138,250,110000,2,0,P|130:278|113:303,1,60,2|0,0:3|0:0,0:0:0:0:
196,310,110283,2,0,P|203:338|201:368,1,60,4|0,0:2|0:0,0:0:0:0:
263,259,110566,6,0,P|285:240|313:230,1,60,2|0,0:3|0:0,0:0:0:0:
286,150,110849,2,0,P|315:143|344:149,1,60,4|0,0:2|0:0,0:0:0:0:
381,73,111132,2,0,P|406:90|423:115,1,60,2|0,0:3|0:0,0:0:0:0:
297,70,111415,6,0,P|258:53|235:28,1,60,4|0,0:2|0:0,0:0:0:0:
178,114,111698,2,0,P|165:87|162:58,1,60,2|0,0:3|0:0,0:0:0:0:
85,93,111981,5,4,0:2:0:0:
90,177,112123,1,0,0:0:0:0:
163,216,112264,1,2,0:3:0:0:
244,195,112406,1,0,0:0:0:0:
310,144,112547,2,0,P|350:143|387:157,1,60,4|0,0:2|0:0,0:0:0:0:
352,230,112830,2,0,P|380:257|397:293,1,60,2|0,0:3|0:0,0:0:0:0:
307,291,113113,5,4,0:3:0:0:
225,269,113255,1,0,0:0:0:0:
141,271,113396,1,4,0:3:0:0:
61,298,113538,1,0,0:0:0:0:
61,298,113679,2,0,P|94:234|94:165,1,120,4|4,0:2|0:3,0:0:0:0:
73,106,114104,1,4,0:3:0:0:
136,51,114245,6,0,P|166:46|196:48,2,60,4|4|2,0:3|0:3|0:3,0:0:0:0:
174,126,114670,1,4,0:3:0:0:
174,126,114811,6,0,P|201:136|226:153,1,60,2|4,0:3|0:3,0:0:0:0:
166,213,115095,2,0,P|184:236|198:263,1,60,2|4,0:3|0:3,0:0:0:0:
266,160,115378,2,0,P|270:190|270:220,1,60,2|4,0:3|0:3,0:0:0:0:
392,188,115661,2,0,P|374:212|353:233,1,60,2|4,0:3|0:3,0:0:0:0:
441,322,115944,2,0,P|411:319|383:311,1,60,2|4,0:3|0:3,0:0:0:0:
300,293,116227,2,0,P|263:292|234:303,1,60,2|4,0:3|0:3,0:0:0:0:
159,307,116510,6,0,L|124:232,2,60,8|8|8,0:2|0:2|0:2,0:0:0:0:
213,243,116934,2,0,L|220:160,2,60,8|8|8,0:2|0:2|0:2,0:0:0:0:
294,221,117359,2,0,L|339:96,1,120,4|0,0:2|0:0,0:0:0:0:
335,107,118208,6,0,P|263:201|121:214,2,240,4|4|4,0:2|0:2|0:2,0:0:0:0:
274,48,119481,1,8,0:2:0:0:
274,48,119623,2,0,P|246:37|216:33,1,60,8|8,0:2|0:2,0:0:0:0:
226,117,119906,6,0,P|196:121|168:133,1,60,8|8,0:2|0:2,0:0:0:0:
221,198,120189,2,0,P|197:216|179:240,1,60,8|8,0:2|0:2,0:0:0:0:
255,277,120472,2,0,P|244:304|240:334,1,60,8|8,0:2|0:2,0:0:0:0:
323,325,120755,2,0,P|328:355|340:383,1,60,8|8,0:2|0:2,0:0:0:0:
393,277,121038,2,0,P|428:230|484:212,1,120,0|0,0:0|0:0,0:0:0:0:
436,144,121462,1,0,0:0:0:0:
362,103,121604,6,0,P|254:104|188:200,1,200,0|0,0:0|0:0,0:0:0:0:
189,223,122170,2,0,P|169:176|129:148,1,80,0|0,0:0|0:0,0:0:0:0:
95,135,122453,2,0,P|157:123|213:70,1,120,4|4,0:3|0:2,0:0:0:0:
248,18,122878,1,4,0:3:0:0:
331,14,123019,2,0,P|359:22|387:33,1,60,2|0,0:3|0:0,0:0:0:0:
407,114,123302,6,0,P|378:134|343:140,1,60,4|0,0:2|0:0,0:0:0:0:
342,223,123585,2,0,P|306:217|277:196,1,60,2|0,0:3|0:0,0:0:0:0:
212,163,123868,2,0,P|176:167|149:181,1,60,4|0,0:2|0:0,0:0:0:0:
202,246,124151,2,0,P|179:274|170:303,1,60,2|0,0:3|0:0,0:0:0:0:
254,306,124434,2,0,P|284:310|311:323,1,60,4|0,0:2|0:0,0:0:0:0:
382,279,124717,2,0,P|399:303|409:331,1,60,2|0,0:3|0:0,0:0:0:0:
308,237,125000,6,0,P|296:204|300:169,1,60,8|0,0:3|0:0,0:0:0:0:
373,194,125283,2,0,P|387:162|415:140,1,60,0|0,0:0|0:0,0:0:0:0:
479,119,125566,1,0,0:0:0:0:
415,73,125708,2,0,P|354:59|273:72,1,120,0|2,0:0|0:2,0:0:0:0:
224,91,126132,1,2,0:2:0:0:
166,143,126274,2,0,P|109:125|73:70,1,120,0|0,0:0|0:0,0:0:0:0:
71,155,126698,6,0,P|58:191|37:216,1,60,4|0,0:2|0:0,0:0:0:0:
110,259,126981,2,0,P|88:278|61:291,1,60,2|0,0:3|0:0,0:0:0:0:
151,185,127264,2,0,P|210:183|273:229,1,120,4|2,0:2|0:3,0:0:0:0:
346,358,127830,2,0,P|344:327|354:299,1,60,4|0,0:2|0:0,0:0:0:0:
262,347,128113,6,0,P|244:323|244:222,1,120,2|4,0:3|0:3,0:0:0:0:
271,158,128538,2,0,P|220:129|161:132,1,120,4|4,0:3|0:3,0:0:0:0:
89,174,128962,2,0,P|110:135|113:46,1,120,4|2,0:3|0:3,0:0:0:0:
193,27,129387,1,0,0:0:0:0:
276,30,129528,6,0,P|318:45|350:69,1,60,4|0,0:2|0:0,0:0:0:0:
400,99,129811,2,0,P|372:126|334:136,1,80,2|0,0:3|0:0,0:0:0:0:
276,130,130095,2,0,P|201:313|397:284,1,480,4|8,0:2|0:3,0:0:0:0:
395,282,132359,6,0,P|366:292|336:294,1,60,4|0,0:2|0:0,0:0:0:0:
254,273,132642,1,2,0:3:0:0:
185,224,132783,1,0,0:0:0:0:
149,147,132925,1,0,0:0:0:0:
142,63,133066,2,0,P|119:117|73:155,1,120,4|2,0:2|0:3,0:0:0:0:
25,224,133491,6,0,P|53:237|82:239,1,60,0|2,0:0|0:3,0:0:0:0:
96,322,133774,2,0,P|123:311|146:291,1,60,0|2,0:0|0:3,0:0:0:0:
210,346,134057,2,0,P|224:319|229:290,1,60,0|2,0:0|0:3,0:0:0:0:
313,283,134340,2,0,P|304:254|287:230,1,60,0|2,0:0|0:3,0:0:0:0:
218,181,134623,1,0,0:0:0:0:
142,144,134764,2,0,P|221:118|256:73,1,120,2|2,0:2|0:3,0:0:0:0:
281,16,135189,5,0,0:0:0:0:
363,29,135330,2,0,P|410:64|437:117,1,120,2|2,0:3|0:3,0:0:0:0:
445,200,135755,2,0,P|415:204|385:199,1,60,0|4,0:0|0:2,0:0:0:0:
371,282,136038,2,0,P|343:270|320:251,1,60,0|4,0:0|0:2,0:0:0:0:
267,316,136321,2,0,P|249:291|238:263,1,60,0|2,0:0|0:3,0:0:0:0:
159,293,136604,2,0,P|155:263|160:233,1,60,8|2,0:3|0:3,0:0:0:0:
223,188,136887,6,0,P|246:131|221:67,1,120,4|0,0:3|0:0,0:0:0:0:
113,113,137311,2,0,P|141:125|171:129,1,60,0|0,0:0|0:0,0:0:0:0:
324,100,137736,2,0,P|424:281|219:327,1,480,0|0,0:0|0:0,0:0:0:0:
169,271,139010,5,4,0:3:0:0:
129,203,139151,1,0,0:0:0:0:
125,124,139293,1,0,0:0:0:0:
142,48,139434,2,0,P|117:72|73:89,1,60,0|0,0:0|0:0,0:0:0:0:
87,160,139717,2,0,P|57:161|28:152,1,60,0|0,0:0|0:0,0:0:0:0:
169,136,140000,6,0,P|213:168|223:237,1,120,0|4,0:0|0:2,0:0:0:0:
221,307,140425,1,4,0:3:0:0:
286,348,140566,2,0,P|315:343|341:328,1,60,4|4,0:2|0:3,0:0:0:0:
404,375,140849,2,0,P|420:350|428:321,1,60,4|4,0:2|0:3,0:0:0:0:
506,317,141132,2,0,P|500:287|485:261,1,60,4|4,0:2|0:3,0:0:0:0:
315,100,141698,5,4,0:2:0:0:
315,100,141840,2,0,P|310:168|210:233,1,180,0|4,3:0|3:3,0:0:0:0:
147,230,142406,2,0,P|116:244|86:270,2,60,4|0|0,3:3|3:0|3:0,0:0:0:0:
199,172,142830,2,0,P|256:186|299:227,1,120,0|0,3:0|3:0,0:0:0:0:
337,295,143255,2,0,P|360:313|389:318,2,60,0|0|0,3:0|3:0|3:0,0:0:0:0:
257,292,143679,6,0,B|220:289|220:289|183:300,7,71.9999978027344,2|0|2|0|2|0|2|0,0:3|0:2|0:3|0:2|0:3|0:2|0:3|0:2,0:0:0:0:
107,308,144811,6,0,P|86:253|96:195,1,120,4|4,0:3|0:3,0:0:0:0:
235,122,145378,1,0,0:0:0:0:
158,109,145519,1,0,0:0:0:0:
89,71,145661,2,0,P|71:46|64:17,1,60,4|0,0:3|0:0,0:0:0:0:
33,126,145944,2,0,P|79:211|64:306,1,180,4|4,0:3|0:3,0:0:0:0:
14,345,146510,2,0,P|97:316|185:330,1,180,0|0,0:0|0:0,0:0:0:0:
263,332,147076,6,0,P|281:307|289:279,2,60,0|2|0,0:0|0:2|0:0,0:0:0:0:
362,300,147500,1,2,0:2:0:0:
362,300,147642,2,0,P|366:270|358:241,2,60,0|2|0,0:0|0:2|0:0,0:0:0:0:
435,240,148066,5,4,0:1:0:0:
435,240,148208,1,4,0:1:0:0:
195,39,148774,5,4,0:1:0:0:
22,299,149340,6,0,P|62:245|128:230,1,120,4|4,0:3|0:3,0:0:0:0:
182,367,149906,2,0,P|151:355|104:358,2,60,4|4|4,0:1|0:3|0:2,0:0:0:0:
293,257,150472,6,0,P|239:234|206:185,1,120,4|0,0:3|0:0,0:0:0:0:
189,109,150896,1,0,0:0:0:0:
262,84,151038,2,0,P|279:59|285:30,1,60,4|0,0:3|0:0,0:0:0:0:
329,123,151321,2,0,P|356:109|376:87,1,60,4|0,0:3|0:0,0:0:0:0:
374,187,151604,2,0,P|362:245|378:302,1,120,0|4,0:0|0:3,0:0:0:0:
427,362,152028,1,0,0:0:0:0:
349,372,152170,6,0,P|318:373|289:366,2,60,0|4|0,0:0|0:3|0:0,0:0:0:0:
449,252,152736,1,4,0:2:0:0:
297,290,153019,2,0,P|250:255|227:200,2,120,0|0|4,0:0|0:0|0:3,0:0:0:0:
145,325,153868,5,4,0:3:0:0:
67,325,154009,2,0,P|73:263|52:209,1,120,4|0,0:3|0:0,0:0:0:0:
10,142,154434,2,0,P|60:112|120:107,1,120,4|4,0:3|0:3,0:0:0:0:
194,131,154858,1,0,0:0:0:0:
261,171,155000,1,0,0:0:0:0:
275,247,155141,2,0,P|262:273|262:303,2,60,0|4|2,3:0|3:3|3:2,0:0:0:0:
334,196,155566,6,0,P|380:159|395:96,1,120,0|2,3:0|3:2,3:0:0:0:
317,98,155991,2,0,P|262:94|200:44,1,120,0|2,3:0|3:2,3:0:0:0:
133,41,156415,2,0,P|127:99|91:146,1,120,0|2,3:0|3:2,3:0:0:0:
21,182,156840,1,0,0:0:0:0:
38,257,156981,1,0,0:0:0:0:
102,301,157123,1,0,0:0:0:0:
179,297,157264,6,0,P|238:295|290:323,1,120,4|0,0:3|0:0,0:0:0:0:
346,379,157689,1,0,0:0:0:0:
366,302,157830,2,0,P|377:275|398:253,1,60,4|0,0:3|0:0,0:0:0:0:
311,247,158113,2,0,P|307:217|314:188,1,60,4|0,0:3|0:0,0:0:0:0:
350,118,158396,5,8,0:3:0:0:
350,118,159528,5,4,0:3:0:0:
182,203,159811,1,4,0:2:0:0:
267,35,160095,1,4,0:2:0:0:
297,221,160378,1,4,0:3:0:0:
164,88,160661,1,4,0:3:0:0:
350,118,160944,5,2,0:2:0:0:
416,154,161085,2,0,P|451:234|406:308,1,180,0|4,0:0|0:3,0:0:0:0:
256,263,161793,6,0,P|220:263|187:276,1,60,4|0,0:2|0:0,0:0:0:0:
154,197,162076,2,0,P|132:217|117:243,1,60,2|0,0:3|0:0,0:0:0:0:
235,176,162359,2,0,P|237:139|228:113,1,60,4|0,0:2|0:0,0:0:0:0:
290,59,162642,2,0,P|265:41|236:33,1,60,2|0,0:3|0:0,0:0:0:0:
317,138,162925,6,0,P|352:140|389:131,1,60,4|0,0:2|0:0,0:0:0:0:
435,194,163208,2,0,P|458:174|476:150,1,60,2|0,0:3|0:0,0:0:0:0:
435,278,163491,2,0,P|393:267|361:245,1,60,4|0,0:2|0:0,0:0:0:0:
316,315,163774,2,0,P|285:284|268:249,1,60,2|0,0:3|0:0,0:0:0:0:
245,192,164057,5,4,0:1:0:0:
256,192,164340,12,2,166887,0:2:0:0:
291,90,167453,5,2,0:2:0:0:
228,137,167595,2,0,P|201:149|172:154,2,60,0|0|0,0:0|0:0|0:0,0:0:0:0:
180,231,168019,2,0,P|150:228|122:216,2,60,2|0|0,0:2|0:0|0:2,0:0:0:0:
256,214,168444,1,0,0:0:0:0:
333,211,168585,2,0,P|360:222|383:240,1,60,2|0,0:0|0:0,0:0:0:0:
430,171,168868,2,0,P|449:195|460:223,1,60,0|0,0:0|0:0,0:0:0:0:
361,136,169151,5,0,0:0:0:0:
305,78,169293,2,0,P|223:51|154:103,1,180,0|2,0:0|0:0,0:0:0:0:
131,178,169859,1,0,0:0:0:0:
120,254,170000,2,0,P|90:276|63:286,1,60,0|0,0:0|0:0,0:0:0:0:
58,205,170283,2,0,P|28:210|-1:206,1,60,2|0,0:0|0:0,0:0:0:0:
68,127,170566,2,0,P|38:124|10:113,1,60,0|0,0:0|0:0,0:0:0:0:
128,77,170849,5,2,0:0:0:0:
204,70,170991,2,0,P|286:102|316:184,1,180,0|2,0:0|0:0,0:0:0:0:
315,260,171557,2,0,P|339:279|367:289,2,60,0|0|0,0:0|0:0|0:0,0:0:0:0:
248,223,171981,2,0,P|218:225|189:235,1,60,2|0,0:0|0:0,0:0:0:0:
136,177,172264,2,0,P|116:199|102:226,1,60,0|0,0:0|0:0,3:0:0:0:
93,303,172547,5,0,0:0:0:0:
170,291,172689,2,0,P|211:231|200:121,1,180,0|0,0:0|0:0,0:0:0:0:
150,70,173255,1,0,0:0:0:0:
218,33,173396,1,0,0:0:0:0:
295,26,173538,1,0,0:0:0:0:
366,55,173679,1,0,0:0:0:0:
366,55,174245,6,0,P|348:78|339:106,1,60,2|0,0:0|0:0,0:0:0:0:
260,98,174528,2,0,P|263:127|276:154,1,60,0|0,0:0|0:0,0:0:0:0:
217,205,174811,2,0,P|240:223|268:232,1,60,2|0,0:0|0:0,0:0:0:0:
340,200,175095,2,0,P|370:198|399:207,1,60,0|0,0:0|0:0,0:0:0:0:
336,277,175378,2,0,P|358:298|372:324,1,60,2|0,0:0|0:0,0:0:0:0:
264,310,175661,2,0,P|257:339|241:363,1,60,0|0,0:0|0:0,0:0:0:0:
182,312,175944,6,0,P|152:307|122:309,2,60,2|0|0,0:0|0:0|0:0,0:0:0:0:
110,232,176368,2,0,P|78:244|53:263,2,60,0|2|0,0:0|0:0|0:0,0:0:0:0:
188,235,176793,2,0,P|228:185|221:105,1,120,0|2,0:0|0:0,0:0:0:0:
84,77,177359,2,0,P|99:102|122:121,1,60,0|0,0:0|0:0,0:0:0:0:
78,186,177642,6,0,P|137:198|204:179,1,120,2|0,0:0|0:0,0:0:0:0:
255,136,178066,1,0,0:0:0:0:
300,72,178208,2,0,P|359:72|409:103,1,120,2|0,0:0|0:0,0:0:0:0:
490,236,178774,1,2,0:0:0:0:
420,202,178915,2,0,P|378:207|322:273,1,120,0|0,0:0|0:0,0:0:0:0:
292,333,179340,6,0,P|264:322|241:297,1,60,2|0,0:0|0:0,0:0:0:0:
192,360,179623,2,0,P|173:336|165:303,1,60,0|0,0:0|0:0,0:0:0:0:
200,238,179906,2,0,P|220:184|193:104,1,120,2|0,0:0|0:0,0:0:0:0:
146,75,180330,1,0,0:0:0:0:
68,92,180472,2,0,P|82:119|103:140,1,60,2|0,0:0|0:0,0:0:0:0:
62,207,180755,2,0,P|90:216|120:216,1,60,0|0,0:0|0:0,0:0:0:0:
175,160,181038,6,0,P|207:160|237:171,1,60,2|0,0:0|0:0,0:0:0:0:
198,239,181321,2,0,P|220:261|234:290,1,60,0|0,0:0|0:0,0:0:0:0:
252,362,181604,2,0,P|337:359|377:326,1,120,2|0,0:0|0:0,0:0:0:0:
442,205,182170,1,2,0:0:0:0:
364,194,182311,2,0,P|303:160|278:112,1,120,0|0,0:0|0:0,0:0:0:0:
272,39,182736,5,2,0:0:0:0:
272,39,183019,1,2,0:0:0:0:
116,47,183302,1,2,0:0:0:0:
116,47,183585,1,2,0:0:0:0:
55,190,183868,1,2,0:0:0:0:
55,190,184151,1,2,0:0:0:0:
154,310,184434,6,0,P|182:317|212:314,1,60,0|0,0:0|0:0,0:0:0:0:
191,238,184717,2,0,P|219:230|243:212,1,60,0|0,0:0|0:0,0:0:0:0:
184,160,185000,2,0,P|205:138|217:111,1,60,0|0,0:0|0:0,0:0:0:0:
228,34,185283,2,0,P|257:34|286:43,1,60,0|0,0:0|0:0,0:0:0:0:
361,20,185566,2,0,P|381:41|395:67,1,60,0|0,0:0|0:0,0:0:0:0:
466,102,185849,2,0,P|465:131|456:160,1,60,0|0,0:0|0:0,0:0:0:0:
417,228,186132,6,0,P|372:197|245:244,1,180,2|0,0:0|0:0,0:0:0:0:
215,292,186698,2,0,P|157:295|106:264,1,120,2|0,0:0|0:0,0:0:0:0:
78,191,187123,1,0,0:0:0:0:
144,151,187264,2,0,P|151:121|147:92,1,60,2|0,0:0|0:0,0:0:0:0:
223,147,187547,2,0,P|247:119|255:92,1,60,0|0,0:0|0:0,0:0:0:0:
266,20,187830,5,2,0:0:0:0:
344,24,187972,2,0,P|438:76|457:160,1,180,0|2,0:0|0:0,0:0:0:0:
449,217,188538,2,0,P|479:239|513:251,2,60,0|2|0,0:0|0:0|0:0,0:0:0:0:
400,277,188962,2,0,P|412:305|429:330,1,60,2|0,0:0|0:0,0:0:0:0:
329,309,189245,2,0,P|324:339|327:369,1,60,2|0,0:0|0:0,0:0:0:0:
252,291,189528,5,2,0:0:0:0:
187,246,189670,2,0,P|172:170|245:85,1,180,0|2,0:0|0:0,0:0:0:0:
229,91,191227,6,0,P|195:93|163:106,2,60,2|0|0,0:0|0:0|0:0,0:0:0:0:
219,168,191651,2,0,P|196:193|182:225,2,60,0|2|0,0:0|0:0|0:0,0:0:0:0:
290,138,192076,2,0,P|320:133|348:122,1,60,0|0,0:0|0:0,0:0:0:0:
408,72,192359,1,2,0:0:0:0:
472,115,192500,1,0,0:0:0:0:
491,190,192642,1,0,0:0:0:0:
461,261,192783,1,0,0:0:0:0:
396,306,192925,6,0,P|369:275|242:285,1,180,2|0,0:0|0:0,0:0:0:0:
188,341,193491,2,0,P|198:309|198:267,1,60,2|0,0:0|0:0,0:0:0:0:
121,292,193774,2,0,P|113:259|92:222,1,60,0|0,0:0|0:0,0:0:0:0:
44,182,194057,1,2,0:0:0:0:
70,109,194198,2,0,P|93:89|124:78,2,60,0|0|0,0:0|0:0|0:0,0:0:0:0:
132,157,194623,6,0,P|208:176|242:220,1,120,2|0,0:0|0:0,0:0:0:0:
256,279,195047,1,0,0:0:0:0:
320,323,195189,2,0,P|337:296|342:268,1,60,2|0,0:0|0:0,0:0:0:0:
418,284,195472,2,0,P|419:252|409:225,1,60,0|0,0:0|0:0,0:0:0:0:
345,182,195755,2,0,P|353:148|376:117,1,60,2|0,0:0|0:0,0:0:0:0:
309,72,196038,2,0,P|334:55|363:48,1,60,0|0,0:0|0:0,0:0:0:0:
274,141,196321,6,0,P|198:145|117:79,1,180,2|0,0:0|0:0,0:0:0:0:
96,173,196887,2,0,P|60:192|28:196,1,60,2|0,0:0|0:0,0:0:0:0:
57,270,197170,2,0,P|28:271|0:263,1,60,0|0,0:0|0:0,0:0:0:0:
132,244,197453,2,0,P|212:205|243:124,1,180,2|0,0:0|0:0,0:0:0:0:
246,45,198019,6,0,P|297:114|406:146,1,180,2|0,0:0|0:0,0:0:0:0:
460,164,198585,2,0,P|444:197|418:221,1,60,2|0,0:0|0:0,0:0:0:0:
473,277,198868,2,0,P|438:289|402:287,1,60,0|0,0:0|0:0,0:0:0:0:
353,241,199151,2,0,P|244:237|185:295,1,180,2|0,0:0|0:0,0:0:0:0:
142,339,199717,6,0,P|161:266|147:204,1,120,2|2,0:0|0:0,0:0:0:0:
99,76,200283,2,0,P|142:89|166:106,1,60,0|0,0:0|0:0,0:0:0:0:
204,36,200566,2,0,P|229:73|237:101,1,60,0|0,0:0|0:0,0:0:0:0:
202,158,200849,2,0,P|180:189|174:220,1,60,2|0,0:0|0:0,0:0:0:0:
252,218,201132,2,0,P|258:255|276:281,1,60,2|0,0:0|0:0,0:0:0:0:
330,224,201415,6,0,P|384:243|459:237,2,120,2|0|0,0:0|0:0|0:0,0:0:0:0:
281,75,202264,1,0,0:0:0:0:
206,52,202406,1,0,0:0:0:0:
131,72,202547,1,2,0:0:0:0:
90,139,202689,1,0,0:0:0:0:
86,215,202830,2,0,P|59:229|29:233,1,60,0|0,0:0|0:0,0:0:0:0:
129,280,203113,6,0,P|112:305|89:323,1,60,2|0,0:0|0:0,0:0:0:0:
200,307,203396,2,0,P|199:337|188:365,1,60,0|0,0:0|0:0,0:0:0:0:
192,230,203679,2,0,P|193:174|297:124,1,180,2|0,0:0|0:0,0:0:0:0:
362,157,204245,2,0,P|282:151|202:76,1,180,2|0,0:0|0:0,0:0:0:0:
175,17,204811,6,0,P|118:50|106:168,1,180,2|0,0:0|0:0,3:0:0:0:
167,198,205378,2,0,P|169:247|113:313,1,120,2|0,0:0|0:0,0:0:0:0:
281,265,205944,2,0,P|311:271|338:283,1,60,2|0,0:0|0:0,0:0:0:0:
393,226,206227,2,0,P|411:251|422:279,1,60,0|0,0:0|0:0,0:0:0:0:
324,190,206510,6,0,P|343:155|373:133,1,60,2|0,0:0|0:0,0:0:0:0:
301,85,206793,2,0,P|325:68|354:61,1,60,0|0,0:0|0:0,0:0:0:0:
255,150,207076,2,0,P|193:144|137:105,1,120,2|0,0:0|0:0,0:0:0:0:
94,54,207500,1,0,0:0:0:0:
73,129,207642,2,0,P|50:150|15:163,1,60,2|0,0:0|0:0,0:0:0:0:
74,220,207925,2,0,P|66:248|48:272,1,60,0|0,0:0|0:0,0:0:0:0:
150,240,208208,6,0,P|211:220|286:247,1,120,2|0,0:0|0:0,0:0:0:0:
327,276,208632,1,0,0:0:0:0:
334,198,208774,2,0,P|346:136|392:89,1,120,2|0,0:0|0:0,0:0:0:0:
469,224,209340,2,0,P|438:229|402:223,1,60,2|0,0:0|0:0,0:0:0:0:
394,302,209623,2,0,P|364:290|336:267,1,60,0|0,0:0|0:0,0:0:0:0:
292,334,209906,6,0,P|258:286|250:227,1,120,2|0,0:0|0:0,0:0:0:0:
275,73,210472,2,0,P|220:50|161:58,1,120,2|0,0:0|0:0,0:0:0:0:
92,94,210896,1,0,0:0:0:0:
156,138,211038,2,0,P|161:174|153:201,1,60,2|0,0:0|0:0,0:0:0:0:
226,227,211321,2,0,P|188:272|131:287,1,120,0|2,0:0|0:0,0:0:0:0:
287,290,211887,6,0,P|325:302|353:320,1,60,0|0,0:0|0:0,0:0:0:0:
379,242,212170,2,0,P|401:264|416:289,1,60,2|0,0:0|0:0,0:0:0:0:
308,206,212453,2,0,P|306:147|335:96,2,120,0|0|0,0:0|0:0|0:0,0:0:0:0:
153,222,213302,6,0,P|119:222|84:236,1,60,2|0,0:0|0:0,0:0:0:0:
71,154,213585,2,0,P|44:169|24:191,1,60,0|0,0:0|0:0,0:0:0:0:
148,143,213868,2,0,P|172:112|185:78,1,60,2|0,0:0|0:0,0:0:0:0:
203,17,214151,2,0,P|261:27|304:67,1,120,0|2,0:0|0:0,0:0:0:0:
372,208,214717,2,0,P|337:200|311:183,1,60,0|0,0:0|0:0,0:0:0:0:
260,241,215000,6,0,P|240:210|234:180,2,60,2|0|0,0:0|0:0|0:0,0:0:0:0:
157,182,215425,2,0,P|165:146|181:120,2,60,2|0|0,0:0|0:0|0:0,0:0:0:0:
135,60,215849,2,0,P|169:49|200:51,1,60,0|0,0:0|0:0,0:0:0:0:
251,100,216132,2,0,P|280:93|306:79,1,60,2|0,0:0|0:0,0:0:0:0:
285,171,216415,2,0,P|313:179|343:180,1,60,0|0,0:0|0:0,0:0:0:0:
278,249,216698,6,0,P|254:320|114:302,1,240,2|2,0:0|0:0,0:0:0:0:
256,192,218396,12,2,221887,2:2:0:0:
256,192,222429,12,2,226816,0:0:0:0:
