osu file format v14

[General]
AudioFilename: 01_igorrr_tout_petit_moineau.mp3
AudioLeadIn: 0
PreviewTime: 96061
Countdown: 0
SampleSet: Soft
StackLeniency: 0.7
Mode: 0
LetterboxInBreaks: 0
WidescreenStoryboard: 0

[Editor]
Bookmarks: 73247,166227,179811,221887
DistanceSpacing: 0.7
BeatDivisor: 4
GridSize: 32
TimelineZoom: 1.100001

[Metadata]
Title:Tout Petit Moineau
TitleUnicode:Tout Petit Moineau
Artist:Igorrr
ArtistUnicode:Igorrr
Creator:fergas
Version:Easy
Source:
Tags:hallelujah breakcore baroque baroquecore black death metal adn165 ad noiseam Laure Le Prunenec OnosakiHito
BeatmapID:533064
BeatmapSetID:212180

[Difficulty]
HPDrainRate:1
CircleSize:2.5
OverallDifficulty:2
ApproachRate:3
SliderMultiplier:0.5
SliderTickRate:1

[Events]
//Background and Video events
0,0,"zn1mLPDbJwM12.jpg",0,0
//Break Periods
2,92936,94692
//Storyboard Layer 0 (Background)
//Storyboard Layer 1 (Fail)
//Storyboard Layer 2 (Pass)
//Storyboard Layer 3 (Foreground)
//Storyboard Sound Samples

[TimingPoints]
24812,283.018867924528,6,1,1,50,1,0
76887,-100,6,1,1,60,0,1
79151,-100,6,1,1,50,0,0
92736,-100,6,1,1,50,0,1
92830,-100,6,1,1,50,0,0
96132,-100,6,1,1,60,0,1
100378,-100,6,1,1,60,0,1
102925,-100,6,1,1,50,0,0
105189,-100,6,1,1,60,0,1
109646,-100,6,1,1,50,0,0
109717,-100,6,1,1,50,0,1
123231,-100,6,1,1,30,0,0
123302,-100,6,1,1,50,0,1
125000,-100,6,2,2,50,0,0
126698,-100,6,1,1,50,0,1
136887,-100,6,1,1,50,0,0
143679,-100,6,1,1,50,0,1
144811,-100,6,1,1,50,0,0
161793,-100,6,1,1,50,0,1
164057,-100,6,1,1,50,0,0
167453,-100,6,2,1,45,0,0
218396,-153.846153846154,6,2,1,25,0,0
226816,-100,6,2,1,5,0,0

[Colours]
Combo1 : 172,196,11
Combo2 : 0,128,64
Combo3 : 64,128,128

[HitObjects]
72,86,24811,5,8,0:3:0:0:
72,86,25944,2,0,P|67:181|146:235,1,200,0|4,0:0|0:3,0:0:0:0:
245,218,27642,1,0,0:0:0:0:
288,128,28208,6,0,P|326:95|374:82,1,100,4|4,0:3|0:3,0:0:0:0:
372,182,29340,2,0,P|422:185|465:210,1,100,4|4,0:3|0:3,0:0:0:0:
394,280,30472,1,2,0:2:0:0:
296,302,31038,1,0,0:0:0:0:
197,286,31604,6,0,P|148:289|105:314,2,100,4|0|8,0:2|0:0|0:3,0:0:0:0:
391,334,33868,2,0,P|364:291|355:241,1,100,4|0,0:3|0:0,0:0:0:0:
348,143,35000,6,0,P|405:128|438:96,2,100,4|4|4,0:3|0:3|0:3,0:0:0:0:
256,103,36698,1,4,0:3:0:0:
156,108,37264,1,0,0:0:0:0:
64,146,37830,1,0,0:0:0:0:
142,208,38396,6,0,B|206:249|197:338|197:338|273:290|336:340,1,300,8|4,0:3|0:3,0:0:0:0:
434,363,40661,2,0,P|432:314|409:270,1,100,0|0,0:0|0:2,3:0:0:0:
494,217,41793,6,0,P|456:183|408:170,1,100,4|0,0:3|0:0,3:0:0:0:
322,220,42925,2,0,P|256:254|182:250,2,150,2|2|4,0:3|0:3|0:2,0:0:0:0:
324,120,45189,6,0,P|300:75|303:26,2,100,0|0|8,0:2|0:2|0:3,3:0:0:0:
478,247,47453,2,0,P|428:248|386:273,1,100,4|0,0:3|0:0,0:0:0:0:
309,337,48585,5,0,0:0:0:0:
293,238,49151,2,0,P|283:188|241:144,1,100
157,117,50283,1,4,0:3:0:0:
58,129,50849,2,0,P|35:173|35:222,1,100
115,283,51981,5,4,0:3:0:0:
215,286,52547,2,0,P|252:250|268:202,1,100,4|0,0:3|3:0,0:0:0:0:
247,107,53679,2,0,P|198:98|158:68,2,100,0|0|0,3:0|3:0|3:0,0:0:0:0:
343,80,55378,5,4,0:3:0:0:
438,111,55944,1,0,0:0:0:0:
481,201,56510,2,0,P|468:248|471:298,2,100,4|0|2,0:2|0:0|0:2,0:0:0:0:
438,111,58208,1,4,0:3:0:0:
352,60,58774,6,0,P|253:56|173:113,1,200,4|8,0:3|0:3,0:0:0:0:
130,308,61038,2,0,P|180:306|221:280,1,100,4|0,0:3|0:0,0:0:0:0:
279,361,62170,6,0,P|312:323|323:276,1,100,4|0,0:3|0:0,0:0:0:0:
270,191,63302,1,0,0:0:0:0:
193,127,63868,2,0,P|232:98|282:91,2,100,0|0|0,0:0|0:0|0:2,0:0:0:0:
160,220,65566,5,4,0:2:0:0:
178,318,66132,2,0,P|81:316|13:247,2,200,0|0|4,0:0|0:0|0:2,0:0:0:0:
256,255,68962,6,0,P|305:250|349:272,1,100,4|0,0:3|0:0,0:0:0:0:
425,336,70095,1,0,0:0:0:0:
447,238,70661,2,0,P|423:194|381:168,1,100,0|0,0:0|0:0,0:0:0:0:
282,155,71793,1,4,0:3:0:0:
209,225,72359,6,0,P|156:239|106:232,1,100,4|0,0:2|0:0,3:0:0:0:
150,138,73491,2,0,P|108:110|81:67,1,100,4|0,0:3|0:0,3:0:0:0:
178,42,74623,2,0,P|216:56|281:47,1,100,4|0,0:3|0:0,0:0:0:0:
369,19,75755,5,0,0:0:0:0:
452,74,76321,1,0,0:0:0:0:
483,169,76887,6,0,P|433:171|388:150,1,100,4|2,0:1|0:3,0:0:0:0:
365,248,78019,2,0,P|321:224|293:183,1,100,4|2,0:1|0:3,0:0:0:0:
266,87,79151,6,0,P|228:62|78:79,1,200,4|0,0:3|0:0,0:0:0:0:
28,270,81415,2,0,P|77:278|124:262,1,100,4|4,0:3|0:2,0:0:0:0:
182,344,82547,6,0,P|213:305|222:256,1,100,0|4,0:0|0:3,0:0:0:0:
168,172,83679,2,0,P|169:97|213:37,2,150,0|0|0,0:0|0:0|0:0,0:0:0:0:
222,256,85944,5,4,0:3:0:0:
309,305,86510,1,4,0:3:0:0:
405,336,87076,2,0,P|388:242|300:203,1,200,4|0,0:2|0:3,0:0:0:0:
204,234,88774,1,4,0:2:0:0:
104,237,89340,6,0,P|63:201|48:157,1,100,4|0,0:3|0:0,0:0:0:0:
147,147,90472,1,4,0:3:0:0:
294,283,91604,1,4,0:3:0:0:
338,88,92736,5,4,3:1:0:0:
22,95,96132,5,4,0:1:0:0:
73,288,97264,2,0,P|134:281|171:256,1,100,4|4,0:2|0:2,0:0:0:0:
218,345,98396,2,0,P|256:296|264:253,1,100,4|4,0:2|0:2,0:0:0:0:
361,282,99528,6,0,P|349:209|291:163,1,150,4|0,0:0|0:0,0:0:0:0:
242,160,100661,2,0,P|194:146|156:107,2,100,4|2|4,0:2|0:3|0:2,0:0:0:0:
342,160,102359,2,0,P|389:174|421:211,1,100,2|4,0:3|0:1,0:0:0:0:
421,211,105189,6,0,P|382:243|333:250,1,100,4|2,0:2|0:3,0:0:0:0:
240,218,106321,2,0,P|215:224|155:273,2,100,4|2|4,0:2|0:3|0:2,0:0:0:0:
306,143,108019,2,0,P|261:121|211:120,2,100,2|4|0,0:3|0:2|0:0,0:0:0:0:
383,205,109717,6,0,P|418:198|470:154,2,100,4|2|4,0:2|0:3|0:2,0:0:0:0:
312,276,111415,2,0,P|341:296|408:303,2,100,2|4|2,0:3|0:2|0:3,0:0:0:0:
288,177,113113,6,0,P|260:136|216:113,1,100,4|2,0:3|0:3,0:0:0:0:
194,211,114245,2,0,P|152:243|106:251,1,100,4|2,0:3|0:3,0:0:0:0:
113,151,115378,2,0,P|64:144|23:117,1,100,4|2,0:2|0:3,0:0:0:0:
98,51,116510,6,0,P|195:94|207:184,1,200,8|0,0:2|0:0,0:0:0:0:
217,277,118208,2,0,P|269:256|299:219,1,100,2|4,0:3|0:2,0:0:0:0:
353,142,119340,2,0,P|403:144|452:164,2,100,8|8|8,0:2|0:2|0:2,0:0:0:0:
253,134,121038,1,8,0:2:0:0:
164,180,121604,2,0,P|82:135|77:34,1,200,2|0,0:3|0:0,0:0:0:0:
165,80,123302,6,0,P|214:82|260:63,1,100,4|2,0:2|0:3,0:0:0:0:
356,34,124434,2,0,P|380:77|383:127,1,100,4|8,0:2|0:3,0:0:0:0:
383,127,126698,6,0,P|341:103|291:98,1,100,4|2,0:2|0:3,0:0:0:0:
192,113,127830,2,0,P|196:64|231:17,2,100,4|2|4,0:2|0:3|0:2,0:0:0:0:
235,203,129528,1,2,0:3:0:0:
306,271,130095,6,0,P|215:299|142:234,1,200,4|4,0:2|0:1,0:0:0:0:
139,36,132359,1,4,0:2:0:0:
327,101,133491,6,0,P|362:140|375:186,1,100,4|2,0:2|0:3,0:0:0:0:
275,188,134623,2,0,P|206:215|159:273,2,150,4|0|2,0:2|0:0|0:3,0:0:0:0:
373,184,136887,6,0,P|421:170|456:135,1,100,4|0,0:3|0:0,0:0:0:0:
370,82,138019,2,0,P|287:131|282:228,2,200,0|0|4,0:0|0:0|0:2,0:0:0:0:
470,96,140849,1,4,0:2:0:0:
470,96,143679,6,0,P|417:130|325:114,1,150,2|2,0:3|0:3,0:0:0:0:
294,89,144811,6,0,P|237:102|201:131,1,100,4|0,0:3|0:0,0:0:0:0:
145,47,145944,2,0,P|113:85|104:134,1,100,4|0,0:3|0:0,3:0:0:0:
162,216,147076,6,0,P|156:264|117:308,2,100,0|0|4,0:0|0:0|0:1,0:0:0:0:
124,123,148774,1,4,0:1:0:0:
193,51,149340,1,4,0:3:0:0:
293,50,149906,1,4,0:1:0:0:
380,99,150472,6,0,P|346:135|298:150,1,100,4|4,0:3|0:3,0:0:0:0:
200,142,151604,1,0,0:0:0:0:
113,92,152170,2,0,P|70:123|48:165,2,100,0|4|0,0:0|0:2|0:0,0:0:0:0:
201,45,153868,6,0,P|213:92|200:140,1,100,4|4,0:3|0:3,0:0:0:0:
151,228,155000,2,0,P|244:260|305:337,2,200,0|0|4,0:0|0:0|0:3,0:0:0:0:
52,242,157830,5,4,0:3:0:0:
8,151,158396,1,8,0:3:0:0:
173,38,159528,2,0,P|220:55|250:94,1,100,4|4,0:3|0:2,3:0:0:0:
327,33,160661,2,0,P|346:77|342:128,1,100,4|0,0:3|0:0,3:0:0:0:
266,193,161793,6,0,P|294:271|388:336,2,200,4|4|4,0:2|0:2|0:1,3:0:0:0:
188,169,167453,6,0,P|264:108|361:115,1,200,2|0,0:0|0:0,0:0:0:0:
423,195,169151,2,0,P|376:215|327:210,1,100,2|0,0:0|0:0,0:0:0:0:
239,165,170283,1,0,0:0:0:0:
175,90,170849,6,0,P|141:146|143:187,1,100,2|0,0:0|0:0,0:0:0:0:
202,257,171981,1,0,0:0:0:0:
294,293,172547,2,0,P|263:333|218:354,1,100,2|0,0:0|0:0,0:0:0:0:
124,321,173679,1,0,0:0:0:0:
124,321,174245,6,0,P|141:267|130:216,1,100,2|0,0:0|0:0,0:0:0:0:
81,139,175378,1,0,0:0:0:0:
118,46,175944,1,2,0:0:0:0:
218,46,176510,2,0,P|259:73|281:117,1,100,0|0,0:0|0:0,0:0:0:0:
252,213,177642,6,0,P|300:295|396:299,1,200,2|0,0:0|0:0,0:0:0:0:
352,210,179340,2,0,P|345:160|362:114,1,100,2|0,0:0|0:0,0:0:0:0:
439,51,180472,1,0,0:0:0:0:
341,27,181038,6,0,P|294:14|234:14,1,100,2|0,0:0|0:0,0:0:0:0:
143,23,182170,1,0,0:0:0:0:
53,67,182736,1,2,0:0:0:0:
38,166,183302,2,0,P|73:203|119:220,1,100
216,200,184434,6,0,P|313:207|386:273,2,200,2|0|0,0:0|0:0|0:0,0:0:0:0:
118,221,187264,1,0,0:0:0:0:
32,272,187830,6,0,P|28:177|107:122,1,200,2|0,0:0|0:0,0:0:0:0:
198,161,189528,2,0,P|292:136|339:51,1,200,2|0,0:0|0:0,0:0:0:0:
439,48,191227,6,0,P|469:86|478:135,1,100,2|0,0:0|0:0,0:0:0:0:
468,235,192359,1,0,0:0:0:0:
387,176,192925,2,0,P|315:160|196:214,1,200,2|0,0:0|0:0,0:0:0:0:
139,285,194623,6,0,P|109:244|104:188,1,100,2|0,0:0|0:0,0:0:0:0:
122,98,195755,1,0,0:0:0:0:
207,46,196321,1,2,0:0:0:0:
307,48,196887,1,0,0:0:0:0:
383,113,197453,1,0,0:0:0:0:
419,205,198019,6,0,P|370:211|325:192,1,100,2|0,0:0|0:0,0:0:0:0:
258,117,199151,1,0,0:0:0:0:
228,21,199717,2,0,P|161:90|183:183,1,200,2|0,0:0|0:0,0:0:0:0:
278,214,201415,5,2,0:0:0:0:
278,214,202547,2,0,P|234:190|184:187,1,100,0|2,0:0|0:0,0:0:0:0:
83,194,203679,2,0,P|71:147|83:98,2,100,0|0|2,0:0|0:0|0:0,0:0:0:0:
140,277,205378,2,0,P|126:324|92:360,2,100,0|0|2,0:0|0:0|0:0,0:0:0:0:
184,186,207076,2,0,P|229:166|278:168,1,100,0|0,0:0|0:0,0:0:0:0:
375,195,208208,5,2,0:0:0:0:
375,195,208774,2,0,P|351:163|339:100,1,100,0|0,0:0|0:0,0:0:0:0:
254,51,209906,1,2,0:0:0:0:
254,51,210472,2,0,P|204:55|163:83,1,100,0|0,0:0|0:0,0:0:0:0:
238,148,211604,6,0,P|235:191|129:308,2,200,2|0|0,0:0|0:0|0:0,0:0:0:0:
217,50,214434,1,0,0:0:0:0:
312,80,215000,2,0,P|382:148|397:245,2,200,2|0|0,0:0|0:0|0:0,0:0:0:0:
312,80,218396,6,0,P|299:149|21:198,1,400.83331498464,0|2,0:0|0:0,0:0:0:0:
256,192,223774,12,2,226816,0:0:0:0:
