osu file format v14

[General]
AudioFilename: 01_igorrr_tout_petit_moineau.mp3
AudioLeadIn: 0
PreviewTime: 96061
Countdown: 0
SampleSet: Soft
StackLeniency: 0.7
Mode: 0
LetterboxInBreaks: 0
WidescreenStoryboard: 0

[Editor]
Bookmarks: 43774,67477,176793,180896,191227,192359,192925
DistanceSpacing: 1.2
BeatDivisor: 4
GridSize: 32
TimelineZoom: 1.7

[Metadata]
Title:Tout Petit Moineau
TitleUnicode:Tout Petit Moineau
Artist:Igorrr
ArtistUnicode:Igorrr
Creator:fergas
Version:Light Insane
Source:
Tags:hallelujah breakcore baroque baroquecore black death metal adn165 ad noiseam Laure Le Prunenec OnosakiHito
BeatmapID:665210
BeatmapSetID:212180

[Difficulty]
HPDrainRate:6
CircleSize:4
OverallDifficulty:7
ApproachRate:8.5
SliderMultiplier:1.3
SliderTickRate:1

[Events]
//Background and Video events
0,0,"zn1mLPDbJwM12.jpg",0,0
//Break Periods
2,92936,95457
//Storyboard Layer 0 (Background)
//Storyboard Layer 1 (Fail)
//Storyboard Layer 2 (Pass)
//Storyboard Layer 3 (Foreground)
//Storyboard Sound Samples

[TimingPoints]
24812,283.018867924528,6,1,1,50,1,0
46321,-200,6,1,1,50,0,0
47311,-200,6,1,1,35,0,0
47453,-100,6,1,1,50,0,0
51911,-100,6,1,1,30,0,0
51981,-100,6,1,1,50,0,0
55307,-100,6,1,1,30,0,0
55378,-100,6,1,1,50,0,0
65495,-100,6,1,1,30,0,0
65566,-100,6,1,1,50,0,0
76887,-100,6,1,1,60,0,1
79151,-100,6,1,1,50,0,0
81911,-100,6,1,1,30,0,0
81981,-100,6,1,1,50,0,0
82194,-100,6,1,1,30,0,0
82264,-100,6,1,1,50,0,0
92736,-100,6,1,1,50,0,1
92830,-100,6,1,1,50,0,0
96132,-83.3333333333333,6,1,1,60,0,1
100378,-83.3333333333333,6,1,1,60,0,1
102925,-100,6,1,1,50,0,0
104623,-100,6,1,1,5,0,0
105189,-83.3333333333333,6,1,1,60,0,1
109646,-100,6,1,1,50,0,0
109717,-83.3333333333333,6,1,1,50,0,1
123231,-100,6,1,1,30,0,0
123302,-83.3333333333333,6,1,1,50,0,1
125000,-100,6,2,2,70,0,0
126698,-83.3333333333333,6,1,1,50,0,1
131227,-100,6,1,1,50,0,1
131651,-100,6,1,1,30,0,1
132359,-83.3333333333333,6,1,1,50,0,1
136816,-83.3333333333333,6,1,1,20,0,1
136887,-100,6,1,1,30,0,0
143679,-83.3333333333333,6,1,1,50,0,1
144811,-100,6,1,1,50,0,0
158396,-200,6,1,1,50,0,0
159245,-200,6,1,1,30,0,0
159528,-100,6,1,1,50,0,0
161793,-83.3333333333333,6,1,1,50,0,1
164057,-100,6,1,1,50,0,0
166887,-100,6,1,1,5,0,0
167453,-100,6,2,1,40,0,0
167595,-100,6,2,2,30,0,0
168585,-100,6,2,1,40,0,0
169293,-100,6,2,2,40,0,0
169717,-100,6,2,1,40,0,0
170991,-100,6,2,2,30,0,0
171557,-100,6,2,1,40,0,0
172689,-100,6,2,2,30,0,0
173821,-100,6,2,1,40,0,0
176793,-100,6,2,2,30,0,0
177076,-100,6,2,1,40,0,0
178915,-100,6,2,2,30,0,0
179340,-100,6,2,1,40,0,0
180896,-100,6,2,2,30,0,0
181038,-100,6,2,1,40,0,0
182311,-100,6,2,2,30,0,0
182736,-100,6,2,1,40,0,0
186698,-100,6,2,1,40,0,0
187972,-100,6,2,2,30,0,0
188962,-100,6,2,1,40,0,0
189528,-200,6,2,1,40,0,0
191227,-100,6,2,2,30,0,0
191934,-100,6,2,1,40,0,0
192359,-100,6,2,2,30,0,0
194623,-100,6,2,1,40,0,0
195189,-100,6,2,2,30,0,0
195755,-100,6,2,1,40,0,0
196462,-100,6,2,2,30,0,0
196887,-100,6,2,1,40,0,0
198161,-100,6,2,2,30,0,0
198727,-100,6,2,1,40,0,0
199151,-100,6,2,2,30,0,0
199717,-100,6,2,1,40,0,0
200283,-100,6,2,2,30,0,0
200849,-100,6,2,1,40,0,0
203821,-100,6,2,2,30,0,0
204811,-100,6,2,1,40,0,0
206085,-100,6,2,2,30,0,0
206510,-100,6,2,1,40,0,0
208066,-100,6,2,2,30,0,0
208208,-100,6,2,1,40,0,0
208632,-100,6,2,2,30,0,0
208774,-100,6,2,1,40,0,0
208915,-100,6,2,1,20,0,0
209057,-100,6,2,1,40,0,0
209481,-100,6,2,2,30,0,0
209906,-100,6,2,1,40,0,0
210189,-100,6,2,2,30,0,0
210472,-100,6,2,1,40,0,0
210755,-100,6,2,2,30,0,0
210896,-100,6,2,1,40,0,0
211038,-100,6,2,2,30,0,0
211179,-100,6,2,1,40,0,0
211604,-100,6,2,2,30,0,0
213868,-100,6,2,1,40,0,0
214151,-100,6,2,2,30,0,0
214434,-100,6,2,1,40,0,0
214717,-100,6,2,2,30,0,0
215000,-100,6,2,1,40,0,0
215142,-100,6,2,2,30,0,0
217264,-200,6,2,1,40,0,0
226816,-100,6,2,1,5,0,0

[Colours]
Combo1 : 172,196,11
Combo2 : 0,128,64
Combo3 : 64,128,128

[HitObjects]
52,182,24811,5,0,0:0:0:0:
52,182,25661,6,0,P|80:239|138:264,1,130
292,195,26227,2,0,P|329:185|380:204,1,65,4|0,0:2|0:0,0:0:0:0:
461,171,26510,1,0,0:0:0:0:
461,171,26580,1,0,0:0:0:0:
461,171,26651,2,0,P|433:155|414:129,1,65,4|4,0:3|0:3,0:0:0:0:
278,25,27076,2,0,P|249:51|242:85,1,65,4|0,0:3|0:0,0:0:0:0:
235,159,27359,1,0,0:0:0:0:
107,48,27642,1,0,0:0:0:0:
18,191,27925,2,0,P|45:222|79:232,1,65,4|0,0:2|0:0,0:0:0:0:
149,214,28208,5,0,0:0:0:0:
232,222,28349,1,4,0:3:0:0:
298,274,28491,2,0,P|302:316|292:342,1,65,0|0,0:0|0:0,0:0:0:0:
210,344,28774,2,0,P|185:309|181:282,1,65,4|0,0:3|0:0,0:0:0:0:
235,158,29057,2,0,P|240:189|232:221,1,65,0|0,0:0|0:0,0:0:0:0:
154,255,29340,1,4,0:3:0:0:
68,252,29481,2,0,P|41:236|23:209,1,65,4|0,0:3|0:0,0:0:0:0:
29,125,29764,1,0,0:0:0:0:
92,32,29906,6,0,P|106:61|108:93,1,65,4|0,0:3|0:0,0:0:0:0:
185,181,30189,2,0,P|190:149|209:123,1,65,4|0,0:3|0:0,0:0:0:0:
285,85,30472,1,2,0:2:0:0:
364,112,30613,2,0,P|418:112|480:58,1,130,0|2,0:0|0:2,0:0:0:0:
512,147,31038,2,0,P|504:192|441:253,1,130,0|2,3:0|3:2,0:0:0:0:
368,225,31462,1,0,3:2:0:0:
345,219,31533,1,0,3:0:0:0:
321,221,31604,6,0,P|291:230|267:251,1,65,4|0,0:2|0:0,0:0:0:0:
247,334,31887,1,0,0:0:0:0:
174,181,32170,1,0,0:0:0:0:
130,344,32453,1,0,0:0:0:0:
118,111,32736,1,8,0:3:0:0:
173,115,33868,6,0,P|208:141|236:145,1,65,4|0,0:3|0:0,0:0:0:0:
308,120,34151,1,0,0:0:0:0:
308,119,34293,2,0,P|338:110|370:115,1,65,4|0,0:3|0:0,0:0:0:0:
487,147,34576,2,0,P|462:167|431:175,1,65,0|0,0:0|0:0,0:0:0:0:
347,189,34859,1,4,0:3:0:0:
262,184,35000,6,0,P|211:229|197:296,1,130,4|0,0:3|3:0,0:0:0:0:
239,359,35425,1,4,0:3:0:0:
307,309,35566,2,0,P|368:292|427:317,1,130,4|0,0:3|3:0,0:0:0:0:
485,255,35991,1,4,0:3:0:0:
478,169,36132,2,0,P|447:113|393:79,1,130,4|0,0:3|3:0,0:0:0:0:
319,120,36557,1,4,0:3:0:0:
235,110,36698,6,0,P|201:86|189:57,2,65,4|0|0,0:3|0:0|0:0,0:0:0:0:
170,164,37123,2,0,P|128:167|103:186,2,65,0|0|0,0:0|0:0|0:0,0:0:0:0:
247,196,37547,2,0,P|282:230|285:317,1,130,4|0,0:2|0:0,0:0:0:0:
220,357,37972,1,0,0:0:0:0:
136,347,38113,1,4,0:2:0:0:
73,189,38396,6,0,P|147:152|167:102,1,130,8|0,0:3|0:0,0:0:0:0:
221,48,38821,2,0,P|272:48|365:153,1,195,0|4,0:0|0:3,0:0:0:0:
373,315,39528,1,0,0:0:0:0:
253,195,39811,1,0,0:0:0:0:
143,324,40095,1,0,0:0:0:0:
82,122,40378,1,0,0:0:0:0:
82,122,40449,1,0,0:0:0:0:
82,122,40520,6,0,P|136:125|205:81,1,130,4|0,0:3|0:0,0:0:0:0:
243,15,40944,1,4,0:2:0:0:
332,158,41227,1,4,0:2:0:0:
436,86,41510,2,0,P|474:113|485:141,1,65,0|0,3:0|3:0,0:0:0:0:
491,212,41793,5,4,0:3:0:0:
432,273,41934,2,0,P|417:300|421:332,1,65,4|0,0:3|0:0,0:0:0:0:
336,324,42217,2,0,P|309:284|226:258,1,130,4|0,0:3|0:0,0:0:0:0:
188,328,42642,2,0,P|116:340|60:305,1,130,4|4,0:3|0:2,0:0:0:0:
88,232,43066,1,4,0:3:0:0:
65,150,43208,6,0,L|49:121,3,32.5,2|0|0|0,0:3|0:0|0:0|0:0,0:0:0:0:
91,121,43491,2,0,L|82:86,3,32.5,2|0|0|0,0:3|0:0|0:0|0:0,0:0:0:0:
124,99,43774,2,0,L|133:65,3,32.5,2|0|0|0,0:3|0:0|0:0|0:0,0:0:0:0:
165,94,44057,2,0,L|190:69,3,32.5,2|0|0|0,0:3|0:0|0:0|0:0,0:0:0:0:
208,108,44340,2,0,L|243:108,3,32.5,2|0|0|0,0:3|0:0|0:0|0:0,0:0:0:0:
227,148,44623,2,0,P|220:180|276:269,1,130,4|2,0:2|0:2,0:0:0:0:
482,188,45189,6,0,P|450:188|421:202,1,65,4|0,0:2|0:0,0:0:0:0:
406,219,45401,1,0,0:0:0:0:
397,240,45472,1,4,0:2:0:0:
263,343,45755,1,4,0:2:0:0:
139,227,46038,1,4,0:2:0:0:
11,337,46321,6,0,B|61:281|29:211|29:211|24:157|74:133,1,227.5,8|0,0:3|0:0,0:0:0:0:
145,172,47453,6,0,P|182:167|208:149,1,65,4|0,0:3|0:0,0:0:0:0:
244,77,47736,1,0,0:0:0:0:
315,32,47878,2,0,P|348:35|377:48,1,65,4|0,0:3|0:0,0:0:0:0:
413,176,48161,2,0,P|387:158|368:132,1,65,4|0,0:3|0:0,0:0:0:0:
286,157,48444,1,0,0:0:0:0:
232,222,48585,6,0,P|221:258|222:292,2,65,0|2|0,0:0|0:2|0:0,0:0:0:0:
142,166,49009,1,2,0:2:0:0:
142,166,49151,2,0,P|135:138|111:105,2,65,0|2|0,0:0|0:2|0:0,0:0:0:0:
83,227,49576,1,4,0:3:0:0:
91,310,49717,6,0,P|117:322|183:306,1,86.6666666666667,0|0,0:0|0:0,0:0:0:0:
202,281,50000,2,0,P|204:231|230:181,1,86.6666666666667,0|0,0:0|0:0,0:0:0:0:
285,168,50283,2,0,P|329:189|372:186,1,86.6666666666667,4|0,0:3|0:0,0:0:0:0:
405,169,50566,2,0,P|431:143|488:134,1,86.6666666666667,0|0,0:0|0:0,0:0:0:0:
511,161,50849,2,0,P|496:204|506:254,1,86.6666666666667,0|0,0:0|0:0,0:0:0:0:
478,314,51132,6,0,P|422:311|369:249,1,130,4|0,0:3|0:0,0:0:0:0:
360,176,51557,1,4,0:3:0:0:
289,221,51698,2,0,P|264:263|257:311,1,97.5,4|0,0:2|0:0,0:0:0:0:
261,333,51981,6,0,P|227:313|197:306,1,65,4|0,0:3|0:0,0:0:0:0:
117,313,52264,1,0,0:0:0:0:
35,288,52406,1,4,0:3:0:0:
54,206,52547,1,4,0:3:0:0:
12,132,52689,1,4,0:3:0:0:
96,134,52830,1,0,0:0:0:0:
118,132,52901,1,0,0:0:0:0:
139,123,52972,6,0,P|166:95|175:65,1,65,0|0,0:0|3:0,0:0:0:0:
271,30,53255,1,0,3:0:0:0:
271,30,53396,2,0,P|296:56|309:92,1,65,0|0,3:0|3:0,0:0:0:0:
389,189,53679,2,0,P|390:156|402:127,1,65,0|0,3:0|3:0,0:0:0:0:
461,234,53962,2,0,P|438:258|409:272,1,65,0|0,3:0|3:0,0:0:0:0:
326,254,54245,5,0,3:0:0:0:
256,207,54387,1,0,0:0:0:0:
233,201,54458,1,0,0:0:0:0:
210,202,54528,1,4,0:2:0:0:
187,206,54599,1,0,3:0:0:0:
166,216,54670,1,2,3:2:0:0:
91,176,54811,1,2,3:2:0:0:
76,91,54953,1,0,3:0:0:0:
91,73,55024,1,0,3:0:0:0:
109,60,55095,2,0,P|170:37|210:45,1,97.5,0|0,3:0|3:0,0:0:0:0:
219,54,55378,6,0,P|251:76|290:80,1,65,4|0,0:3|0:0,0:0:0:0:
360,163,55661,2,0,P|328:168|300:183,1,65,4|0,0:3|0:0,0:0:0:0:
240,270,55944,1,4,0:3:0:0:
238,292,56014,1,0,0:0:0:0:
243,314,56085,1,4,0:3:0:0:
255,332,56156,1,0,0:0:0:0:
273,345,56227,1,4,0:2:0:0:
439,318,56510,1,4,0:2:0:0:
309,209,56793,5,0,0:0:0:0:
379,162,56934,1,0,0:0:0:0:
379,162,57005,1,0,0:0:0:0:
379,162,57076,2,0,P|385:132|373:97,1,65,0|2,3:0|0:2,0:0:0:0:
290,93,57359,1,0,0:0:0:0:
290,93,57430,1,0,0:0:0:0:
290,93,57501,2,0,P|273:67|239:51,1,65,0|2,3:0|0:2,0:0:0:0:
174,101,57783,1,0,0:0:0:0:
174,101,57854,1,0,0:0:0:0:
174,101,57925,2,0,P|144:94|109:106,1,65,0|2,3:0|0:2,0:0:0:0:
153,177,58208,6,0,P|173:230|153:306,1,130,4|0,0:3|3:0,0:0:0:0:
320,343,58774,2,0,P|375:328|399:300,1,86.6666666666667,4|0,0:3|0:0,0:0:0:0:
402,264,59057,2,0,P|364:231|345:173,1,86.6666666666667,0|0,0:0|0:0,0:0:0:0:
349,155,59340,2,0,P|373:108|364:52,1,86.6666666666667,0|0,0:0|0:0,0:0:0:0:
349,37,59623,2,0,P|301:50|248:35,1,86.6666666666667,0|0,0:0|0:0,0:0:0:0:
228,19,59906,5,8,0:3:0:0:
227,19,61038,6,0,P|197:30|174:53,1,65,4|0,0:3|0:0,0:0:0:0:
161,137,61321,1,0,0:0:0:0:
214,201,61462,2,0,P|229:229|231:261,1,65,4|0,0:3|0:0,0:0:0:0:
171,321,61745,2,0,P|146:301|116:289,1,65,4|0,0:3|0:0,0:0:0:0:
32,276,62028,1,4,0:3:0:0:
2,196,62170,6,0,P|14:153|35:131,1,65,4|0,0:3|0:0,0:0:0:0:
104,104,62453,1,0,0:0:0:0:
172,154,62595,2,0,P|217:155|245:141,1,65,4|0,0:3|0:0,0:0:0:0:
278,74,62878,2,0,P|323:73|351:87,1,65,0|0,0:0|0:0,0:0:0:0:
412,125,63161,1,4,0:3:0:0:
448,201,63302,2,0,P|388:205|336:160,1,130,0|0,0:0|0:0,0:0:0:0:
252,151,63727,2,0,P|207:169|192:194,1,65,4|0,0:3|0:0,0:0:0:0:
230,317,64010,6,0,P|241:287|238:255,1,65,4|0,0:2|0:0,0:0:0:0:
153,255,64293,1,0,0:0:0:0:
70,231,64434,2,0,P|35:179|41:115,1,130,0|4,0:0|0:2,0:0:0:0:
110,65,64859,1,0,0:0:0:0:
182,107,65000,1,4,0:2:0:0:
253,60,65142,1,0,0:0:0:0:
324,103,65283,2,0,P|379:104|412:81,1,97.5,4|0,0:2|0:0,0:0:0:0:
423,60,65566,6,0,P|472:83|506:155,1,130,4|0,0:2|0:0,0:0:0:0:
472,226,65991,1,0,0:0:0:0:
449,226,66061,1,0,0:0:0:0:
428,215,66132,1,0,3:0:0:0:
319,85,66415,2,0,L|319:48,3,32.5,0|0|0|0,0:0|0:0|0:0|0:0,0:0:0:0:
282,74,66698,2,0,L|272:38,3,32.5,0|0|0|0,0:0|0:0|0:0|0:0,0:0:0:0:
245,74,66981,2,0,L|226:41,3,32.5,0|0|0|0,0:0|0:0|0:0|0:0,0:0:0:0:
210,84,67264,2,0,L|177:65,3,32.5,0|0|0|0,0:0|0:0|0:0|0:0,0:0:0:0:
183,110,67547,5,0,0:0:0:0:
173,130,67618,1,0,0:0:0:0:
169,151,67689,2,0,P|171:184|187:211,1,65,4|0,0:3|0:0,0:0:0:0:
266,242,67972,1,0,0:0:0:0:
340,203,68113,1,4,0:2:0:0:
380,38,68396,1,4,0:2:0:0:
477,175,68679,1,0,3:0:0:0:
483,196,68750,1,0,3:0:0:0:
483,218,68821,1,0,3:0:0:0:
430,283,68962,6,0,P|399:287|372:305,1,65,4|0,0:3|0:0,0:0:0:0:
298,346,69245,1,0,0:0:0:0:
214,324,69387,2,0,P|195:299|192:267,1,65,4|0,0:3|0:0,0:0:0:0:
255,211,69670,1,0,0:0:0:0:
263,126,69811,2,0,P|242:103|212:90,1,65,4|0,0:3|0:0,0:0:0:0:
166,161,70095,2,0,P|135:170|103:167,1,65,4|0,0:3|0:0,0:0:0:0:
64,91,70378,1,0,0:0:0:0:
120,28,70519,1,0,0:0:0:0:
120,28,70590,1,0,0:0:0:0:
120,28,70661,6,0,P|181:35|235:81,1,130,0|4,3:0|0:3,0:0:0:0:
307,151,71085,2,0,P|328:120|336:91,1,65,4|0,0:3|0:0,0:0:0:0:
405,46,71368,2,0,P|425:77|433:106,1,65,4|0,0:3|0:0,0:0:0:0:
434,126,71580,1,0,0:0:0:0:
430,148,71651,1,0,0:0:0:0:
390,222,71793,1,4,0:3:0:0:
304,226,71934,2,0,P|272:229|244:245,1,65,4|0,0:3|0:0,0:0:0:0:
205,320,72217,1,4,0:3:0:0:
124,346,72359,6,0,P|81:344|48:317,1,86.6666666666667,4|0,0:2|0:0,0:0:0:0:
38,275,72642,2,0,P|79:238|87:192,1,86.6666666666667,0|0,0:0|0:0,0:0:0:0:
79,166,72925,2,0,P|120:132|183:133,1,86.6666666666667,0|0,0:0|0:0,0:0:0:0:
189,148,73208,2,0,P|240:128|265:83,1,86.6666666666667
241,30,73491,6,0,P|200:37|149:28,1,86.6666666666667,4|0,0:3|0:0,0:0:0:0:
104,80,73774,2,0,P|78:117|80:174,1,86.6666666666667,4|0,0:3|0:0,0:0:0:0:
92,197,74057,2,0,P|153:217|182:262,1,86.6666666666667
175,274,74340,2,0,P|174:317|194:356,1,86.6666666666667,0|0,0:0|0:0,0:0:0:0:
235,340,74623,6,0,P|279:328|361:354,1,130,4|0,0:3|0:0,0:0:0:0:
387,320,75000,2,0,P|431:331|503:281,1,130,4|0,0:3|0:0,0:0:0:0:
496,245,75378,2,0,P|434:239|365:181,1,130,4|0,0:3|0:0,0:0:0:0:
364,160,75755,6,0,P|365:122|354:90,2,65,0|2|0,0:0|0:2|0:0,0:0:0:0:
274,216,76179,1,2,0:2:0:0:
274,216,76321,2,0,P|247:230|225:264,2,65,0|2|0,0:0|0:2|0:0,0:0:0:0:
267,110,76745,1,2,0:3:0:0:
181,45,76887,6,0,P|149:43|118:51,1,65,4|0,0:1|0:0,0:0:0:0:
52,189,77170,2,0,P|82:177|106:156,1,65,2|0,0:3|0:0,0:0:0:0:
205,120,77453,2,0,P|207:152|220:182,1,65,4|0,0:1|0:0,0:0:0:0:
283,296,77736,2,0,P|253:286|221:286,1,65,2|0,0:3|0:0,0:0:0:0:
336,230,78019,6,0,P|370:211|389:180,1,65,4|0,0:1|0:0,0:0:0:0:
316,109,78302,2,0,P|316:70|299:38,1,65,2|0,0:3|0:0,0:0:0:0:
200,50,78585,2,0,P|166:30|130:29,1,65,4|0,0:1|0:0,0:0:0:0:
97,124,78868,2,0,P|52:148|27:189,1,97.5,2|0,0:3|0:0,0:0:0:0:
30,210,79151,5,4,0:3:0:0:
84,275,79293,1,4,0:3:0:0:
167,281,79434,1,0,0:0:0:0:
219,214,79576,1,0,0:0:0:0:
236,130,79717,2,0,P|260:109|291:101,1,65,4|0,0:3|0:0,0:0:0:0:
300,185,80000,2,0,P|324:206|355:214,1,65,4|0,0:3|0:0,0:0:0:0:
439,201,80283,1,0,0:0:0:0:
476,124,80425,1,0,3:0:0:0:
476,124,80495,1,0,3:0:0:0:
476,124,80566,2,0,P|447:80|441:35,2,97.5,0|0|0,3:0|3:0|3:0,0:0:0:0:
439,201,81132,6,0,P|420:235|418:263,1,65,4|0,0:3|0:0,0:0:0:0:
336,339,81415,2,0,P|329:307|313:280,1,65,4|0,0:3|0:0,0:0:0:0:
241,234,81698,2,0,P|209:236|146:211,1,97.5,4|0,0:2|0:0,0:0:0:0:
136,194,81981,2,0,P|147:136|132:94,1,97.5,4|0,0:2|0:0,0:0:0:0:
121,82,82264,2,0,P|150:56|182:44,1,65,4|0,0:3|0:0,0:0:0:0:
279,53,82547,5,0,0:0:0:0:
363,116,82689,2,0,P|402:135|438:134,2,65,0|0|0,0:0|0:0|0:0,0:0:0:0:
258,132,83113,2,0,P|223:146|200:171,1,65,4|0,0:3|0:0,0:0:0:0:
204,298,83396,2,0,P|225:273|235:243,1,65,4|0,0:3|0:0,0:0:0:0:
331,196,83679,1,0,0:0:0:0:
331,196,83821,2,0,P|340:227|360:253,1,65,4|0,0:3|0:0,0:0:0:0:
351,337,84104,5,4,0:3:0:0:
329,345,84175,1,4,0:3:0:0:
306,344,84245,1,0,0:0:0:0:
237,294,84387,1,4,0:3:0:0:
154,276,84528,1,0,0:0:0:0:
132,284,84599,1,4,0:3:0:0:
115,299,84670,2,0,P|81:320|24:320,2,97.5,0|4|4,0:0|0:3|0:2,0:0:0:0:
86,131,85378,1,0,0:0:0:0:
139,66,85519,1,0,0:0:0:0:
221,45,85661,1,0,0:0:0:0:
301,69,85802,1,0,0:0:0:0:
344,141,85944,5,4,0:3:0:0:
344,141,86085,2,0,P|369:159|401:163,1,65,4|0,0:3|0:0,0:0:0:0:
292,208,86368,1,0,0:0:0:0:
212,236,86510,2,0,P|175:252|154:276,1,65,4|0,0:3|0:0,0:0:0:0:
75,289,86793,2,0,P|50:248|48:228,1,65,0|0,0:0|0:0,0:0:0:0:
75,151,87076,1,4,0:2:0:0:
159,147,87217,1,0,3:0:0:0:
180,155,87287,1,0,0:0:0:0:
198,168,87358,1,0,3:0:0:0:
213,185,87429,1,0,3:0:0:0:
224,205,87500,2,0,P|235:255|202:329,1,130,0|0,3:0|3:0,0:0:0:0:
282,362,87925,6,0,P|318:351|350:324,1,65,4|0,0:3|0:0,0:0:0:0:
321,252,88208,2,0,P|338:218|342:177,1,65,0|0,0:3|0:0,0:0:0:0:
298,119,88491,2,0,P|297:78|365:8,1,130,4|4,0:2|0:2,0:0:0:0:
199,86,89057,2,0,P|166:86|136:75,1,65,4|0,0:3|0:0,0:0:0:0:
31,82,89340,2,0,P|47:111|72:132,1,65,4|0,0:3|0:0,0:0:0:0:
145,173,89623,1,0,0:0:0:0:
229,173,89764,2,0,P|269:180|326:255,1,130,0|0,0:0|3:0,0:0:0:0:
321,330,90189,1,4,0:3:0:0:
246,368,90330,1,4,0:3:0:0:
179,315,90472,6,0,P|133:304|70:316,1,86.6666666666667,4|0,0:3|0:0,0:0:0:0:
53,323,90755,2,0,P|18:298|3:258,1,86.6666666666667,0|0,0:0|0:0,0:0:0:0:
56,205,91038,2,0,P|100:185|130:126,1,86.6666666666667,4|0,0:3|0:0,0:0:0:0:
129,111,91321,2,0,P|116:69|131:5,1,86.6666666666667,0|0,0:0|0:0,0:0:0:0:
193,48,91604,2,0,P|237:66|368:23,1,173.333333333333,4|0,0:3|0:0,0:0:0:0:
397,30,92076,1,4,0:3:0:0:
438,41,92170,2,0,P|477:78|485:125,2,86.6666666666667,4|0|0,0:3|0:0|0:0,0:0:0:0:
388,125,92736,5,4,3:1:0:0:
155,132,96132,5,4,0:0:0:0:
155,132,97264,5,4,0:2:0:0:
166,156,97335,1,0,0:0:0:0:
182,177,97406,1,0,0:0:0:0:
206,189,97477,1,0,0:0:0:0:
232,191,97547,2,0,P|265:186|289:173,3,38.9999988098145,4|0|0|0,0:2|0:0|0:0|0:0,0:0:0:0:
289,164,97830,5,4,0:2:0:0:
307,144,97901,1,0,0:0:0:0:
333,137,97972,1,0,0:0:0:0:
360,137,98043,1,0,0:0:0:0:
385,144,98113,2,0,P|412:169|424:197,3,38.9999988098145,4|0|0|0,0:2|0:0|0:0|0:0,0:0:0:0:
422,196,98396,6,0,P|425:255|445:277,1,77.999997619629,4|0,0:2|0:0,0:0:0:0:
333,278,98679,2,0,P|287:291|263:322,1,77.999997619629,4|0,0:2|0:0,0:0:0:0:
166,297,98962,1,4,0:2:0:0:
143,281,99033,1,0,0:0:0:0:
127,258,99104,1,0,3:0:0:0:
119,231,99175,1,0,3:0:0:0:
123,204,99245,2,0,P|127:177|125:160,3,38.9999988098145,0|0|0|0,3:0|3:0|3:0|3:0,0:0:0:0:
113,141,99528,6,0,P|112:96|136:55,1,77.999997619629,0|0,0:0|0:0,0:0:0:0:
253,29,99811,2,0,P|245:67|222:98,1,77.999997619629,0|0,0:0|0:0,0:0:0:0:
219,200,100095,2,0,P|268:204|327:158,1,116.999996429443
336,143,100378,6,0,P|367:126|416:133,1,77.999997619629,2|0,0:3|0:0,0:0:0:0:
428,229,100661,2,0,P|458:247|476:293,1,77.999997619629,4|0,0:2|0:0,0:0:0:0:
380,319,100944,2,0,P|342:318|302:296,1,77.999997619629,2|0,0:3|0:0,0:0:0:0:
289,199,101227,2,0,P|286:153|265:113,1,77.999997619629,4|0,0:2|0:0,0:0:0:0:
174,99,101510,6,0,P|114:122|90:162,1,103.999996826172,2|0,0:3|0:0,0:0:0:0:
89,201,101793,2,0,P|125:226|145:270,1,77.999997619629,4|0,0:2|0:0,0:0:0:0:
200,352,102076,2,0,P|226:324|237:287,1,77.999997619629,2|0,0:3|0:0,0:0:0:0:
298,150,102359,2,0,P|316:185|317:224,1,77.999997619629,4|0,0:2|0:0,0:0:0:0:
362,342,102642,2,0,P|389:298|414:282,1,77.999997619629,2|0,0:3|0:0,0:0:0:0:
493,269,102925,5,4,0:1:0:0:
256,192,103066,12,0,104623,0:0:0:0:
299,90,105189,6,0,P|319:136|348:163,1,77.999997619629,4|0,0:2|0:0,0:0:0:0:
364,253,105472,2,0,P|327:265|288:262,1,77.999997619629,2|0,0:3|0:0,0:0:0:0:
197,216,105755,1,4,0:2:0:0:
155,123,105896,1,0,0:0:0:0:
138,100,105967,1,0,0:0:0:0:
114,86,106038,1,2,0:3:0:0:
30,142,106179,1,0,0:0:0:0:
30,169,106250,1,0,0:0:0:0:
39,194,106321,6,0,P|62:223|108:239,1,77.999997619629,4|0,0:2|0:0,0:0:0:0:
197,216,106604,1,2,0:3:0:0:
295,238,106745,1,0,0:0:0:0:
320,249,106816,1,0,0:0:0:0:
338,268,106887,1,4,0:2:0:0:
424,320,107028,1,0,0:0:0:0:
450,312,107099,1,0,0:0:0:0:
469,292,107170,2,0,P|477:263|474:250,2,38.9999988098145,2|0|0,0:3|0:0|0:0,0:0:0:0:
402,215,107453,2,0,P|412:182|451:150,1,77.999997619629,4|0,0:2|0:0,0:0:0:0:
356,101,107736,2,0,P|313:92|281:64,1,77.999997619629,2|0,0:3|0:0,0:0:0:0:
189,39,108019,5,4,0:2:0:0:
100,89,108161,1,0,0:0:0:0:
83,110,108231,1,0,0:0:0:0:
76,136,108302,2,0,P|70:175|46:205,1,77.999997619629,2|0,0:3|0:0,0:0:0:0:
41,306,108585,1,4,0:2:0:0:
66,316,108656,1,0,0:0:0:0:
93,318,108727,1,0,0:0:0:0:
177,263,108868,2,0,P|215:251|253:255,1,77.999997619629,2|0,0:3|0:0,0:0:0:0:
396,245,109151,2,0,P|362:227|338:198,1,77.999997619629,4|0,0:2|0:0,0:0:0:0:
310,100,109434,2,0,P|248:124|215:172,1,116.999996429443,2|0,0:3|0:0,0:0:0:0:
216,190,109717,6,0,P|197:143|175:121,1,77.999997619629,4|0,0:2|0:0,0:0:0:0:
93,180,110000,2,0,P|42:172|12:181,1,77.999997619629,2|0,0:3|0:0,0:0:0:0:
11,315,110283,2,0,P|49:307|81:286,1,77.999997619629,4|0,0:2|0:0,0:0:0:0:
99,265,110495,1,0,0:0:0:0:
121,250,110566,2,0,P|168:242|210:261,1,77.999997619629,2|0,0:3|0:0,0:0:0:0:
337,251,110849,2,0,P|303:230|282:198,1,77.999997619629,4|0,0:2|0:0,0:0:0:0:
246,86,111132,2,0,P|285:86|320:104,1,77.999997619629,2|0,0:3|0:0,0:0:0:0:
400,165,111415,6,0,P|444:157|481:125,1,77.999997619629,4|0,0:2|0:0,0:0:0:0:
451,38,111698,1,2,0:3:0:0:
425,27,111769,1,0,0:0:0:0:
397,24,111840,1,0,0:0:0:0:
307,71,111981,2,0,P|265:72|221:49,1,77.999997619629,4|0,0:2|0:0,0:0:0:0:
132,34,112264,2,0,P|129:72|143:108,1,77.999997619629,2|0,0:3|0:0,0:0:0:0:
234,153,112547,2,0,P|275:163|309:194,1,77.999997619629,4|0,0:2|0:0,0:0:0:0:
229,255,112830,2,0,P|198:289|187:324,1,77.999997619629,2|0,0:3|0:0,0:0:0:0:
287,337,113113,5,4,0:3:0:0:
386,316,113255,1,0,0:0:0:0:
426,223,113396,2,0,P|418:176|393:146,1,77.999997619629,4|0,0:3|0:0,0:0:0:0:
304,118,113679,1,4,0:2:0:0:
285,137,113749,1,0,0:0:0:0:
261,150,113820,1,0,0:0:0:0:
234,155,113891,1,0,0:0:0:0:
207,152,113962,2,0,P|163:134|145:110,1,77.999997619629,4|4,0:3|0:3,0:0:0:0:
44,104,114245,1,4,0:3:0:0:
44,205,114387,6,0,L|30:245,2,38.9999988098145,4|4|2,0:3|0:3|0:3,0:0:0:0:
120,272,114670,2,0,L|116:314,2,38.9999988098145,4|4|2,0:3|0:3|0:3,0:0:0:0:
213,311,114953,2,0,L|220:352,2,38.9999988098145,4|4|2,0:3|0:3|0:3,0:0:0:0:
314,317,115236,2,0,L|331:355,2,38.9999988098145,4|4|2,0:3|0:3|0:3,0:0:0:0:
251,236,115519,2,0,L|211:217,2,38.9999988098145,4|4|2,0:3|0:3|0:3,0:0:0:0:
280,138,115802,2,0,L|254:101,2,38.9999988098145,4|4|2,0:3|0:3|0:3,0:0:0:0:
367,85,116085,2,0,L|363:40,2,38.9999988098145,4|4|2,0:3|0:3|0:3,0:0:0:0:
468,88,116368,1,4,0:3:0:0:
468,88,116439,1,4,0:3:0:0:
468,88,116510,6,0,P|504:121|516:163,2,77.999997619629,8|8|8,0:2|0:2|0:2,0:0:0:0:
399,162,116934,2,0,P|352:175|317:165,2,77.999997619629,8|8|8,0:2|0:2|0:2,0:0:0:0:
468,236,117359,2,0,P|450:284|359:350,1,155.999995239258,4|0,0:2|0:0,0:0:0:0:
369,347,118208,6,0,P|339:323|293:311,1,77.999997619629,4|0,0:2|0:0,0:0:0:0:
157,276,118491,2,0,P|195:267|225:243,1,77.999997619629,2|0,0:3|0:0,0:0:0:0:
187,148,118774,2,0,P|197:110|191:72,1,77.999997619629,4|0,0:2|0:0,0:0:0:0:
279,23,119057,2,0,P|318:27|353:45,1,77.999997619629,2|0,0:3|0:0,0:0:0:0:
406,130,119340,6,0,L|421:220,2,77.999997619629,4|8|8,0:2|0:2|0:2,0:0:0:0:
321,185,119764,2,0,L|288:270,2,77.999997619629,8|8|8,0:2|0:2|0:2,0:0:0:0:
220,171,120189,2,0,L|149:228,2,77.999997619629,8|8|8,0:2|0:2|0:2,0:0:0:0:
134,117,120613,2,0,L|44:131,2,77.999997619629,8|8|8,0:2|0:2|0:2,0:0:0:0:
221,65,121038,1,0,0:0:0:0:
248,60,121109,1,0,0:0:0:0:
275,64,121179,1,0,0:0:0:0:
363,114,121321,1,0,0:0:0:0:
402,207,121462,1,0,0:0:0:0:
383,307,121604,6,0,P|335:320|260:291,1,103.999996826172,0|0,0:0|0:0,0:0:0:0:
251,272,121887,2,0,P|252:211|225:166,1,103.999996826172,0|0,0:0|0:0,0:0:0:0:
160,204,122170,2,0,P|111:207|43:179,1,103.999996826172,0|0,0:0|0:0,0:0:0:0:
80,139,122453,2,0,P|127:124|155:92,1,77.999997619629,4|0,0:3|0:0,0:0:0:0:
205,21,122736,1,4,0:2:0:0:
289,80,122878,1,4,0:3:0:0:
364,13,123019,2,0,P|392:21|434:103,1,116.999996429443,2|0,0:3|0:0,0:0:0:0:
433,119,123302,6,0,P|404:146|390:182,1,77.999997619629,4|0,0:2|0:0,0:0:0:0:
330,298,123585,2,0,P|322:260|299:228,1,77.999997619629,2|0,0:3|0:0,0:0:0:0:
284,128,123868,2,0,P|234:151|196:150,1,77.999997619629,4|0,0:2|0:0,0:0:0:0:
111,136,124151,1,2,0:3:0:0:
85,145,124222,1,0,0:0:0:0:
66,165,124293,1,0,0:0:0:0:
53,265,124434,2,0,P|97:310|105:338,1,77.999997619629,4|0,0:2|0:0,0:0:0:0:
172,216,124717,2,0,P|187:179|217:151,1,77.999997619629,2|0,0:3|0:0,0:0:0:0:
296,132,125000,6,0,L|373:148,1,65,8|0,0:3|0:0,0:0:0:0:
336,227,125283,2,0,L|401:270,1,65
332,327,125566,1,0,0:0:0:0:
247,321,125708,1,0,0:0:0:0:
225,312,125779,1,0,0:0:0:0:
209,295,125849,1,0,0:0:0:0:
200,273,125920,1,0,0:0:0:0:
201,250,125991,1,2,0:2:0:0:
211,165,126132,1,2,0:2:0:0:
168,91,126274,1,0,0:0:0:0:
184,74,126345,1,0,0:0:0:0:
204,64,126415,2,0,P|269:54|306:70,1,97.5,0|0,0:0|0:0,0:0:0:0:
314,87,126698,6,0,P|361:104|398:95,1,77.999997619629,4|0,0:2|0:0,0:0:0:0:
468,161,126981,2,0,P|451:208|460:245,1,77.999997619629,2|0,0:3|0:0,0:0:0:0:
390,312,127264,1,4,0:2:0:0:
362,310,127335,1,0,0:0:0:0:
338,296,127406,1,0,0:0:0:0:
297,203,127547,2,0,P|308:152|295:119,1,77.999997619629,2|0,0:3|0:0,0:0:0:0:
200,144,127830,2,0,P|171:100|139:86,1,77.999997619629,4|0,0:2|0:0,0:0:0:0:
107,181,128113,2,0,P|54:201|21:195,1,77.999997619629,2|0,0:3|0:0,0:0:0:0:
7,100,128396,5,4,0:3:0:0:
7,100,128467,1,0,0:0:0:0:
7,100,128538,2,0,P|25:65|71:35,1,77.999997619629,4|2,0:3|0:3,0:0:0:0:
151,74,128821,1,4,0:3:0:0:
151,74,128892,1,0,0:0:0:0:
151,74,128963,2,0,P|188:61|242:73,1,77.999997619629,4|0,0:3|0:0,0:0:0:0:
250,164,129245,1,2,0:3:0:0:
340,211,129387,1,0,0:0:0:0:
437,186,129528,2,0,P|475:196|503:223,1,77.999997619629,4|0,0:2|0:0,0:0:0:0:
448,309,129811,6,0,P|404:327|337:315,1,103.999996826172,2|0,0:3|0:0,0:0:0:0:
317,284,130095,2,0,P|294:242|244:218,1,103.999996826172,4|0,0:2|0:0,0:0:0:0:
201,235,130378,2,0,P|175:253|148:258,2,51.999998413086,2|0|0,0:3|0:0|0:0,0:0:0:0:
169,200,130661,2,0,P|137:194|115:178,2,51.999998413086,4|0|0,0:2|0:0|0:0,0:0:0:0:
172,153,130944,2,0,P|154:126|149:99,2,51.999998413086,2|0|0,0:3|0:0|0:0,0:0:0:0:
208,123,131227,6,0,P|255:110|360:206,1,195,8|0,0:3|0:0,0:0:0:0:
358,194,132359,6,0,P|333:229|330:268,1,77.999997619629,4|0,0:2|0:0,0:0:0:0:
228,271,132642,2,0,P|189:304|155:309,2,77.999997619629,2|0|0,0:3|0:0|0:0,0:0:0:0:
217,170,133066,2,0,P|174:156|134:167,1,77.999997619629,4|0,0:2|0:0,0:0:0:0:
17,144,133349,2,0,P|49:123|70:91,1,77.999997619629,2|0,0:3|0:0,0:0:0:0:
150,28,133632,6,0,P|201:53|232:94,1,77.999997619629,2|0,0:3|0:0,0:0:0:0:
321,154,133915,1,2,0:3:0:0:
321,154,134057,2,0,P|310:117|316:79,1,77.999997619629,0|2,0:0|0:3,0:0:0:0:
395,142,134340,2,0,P|421:113|457:99,1,77.999997619629,0|2,0:0|0:3,0:0:0:0:
444,200,134623,2,0,P|481:208|511:232,1,77.999997619629,0|2,0:0|0:2,0:0:0:0:
509,260,134835,1,0,0:0:0:0:
503,286,134906,1,0,0:0:0:0:
418,340,135047,6,0,P|379:344|342:332,1,77.999997619629,2|0,0:3|0:0,0:0:0:0:
300,239,135330,1,2,0:3:0:0:
276,224,135401,1,0,0:0:0:0:
248,225,135472,1,0,0:0:0:0:
155,264,135613,2,0,P|127:292|91:304,1,77.999997619629,2|0,0:3|0:0,0:0:0:0:
36,218,135896,2,0,P|26:197|7:182,2,38.9999988098145,4|0|0,0:2|0:0|0:0,0:0:0:0:
117,157,136179,2,0,P|124:135|121:111,2,38.9999988098145,4|0|0,0:2|0:0|0:0,0:0:0:0:
214,185,136462,1,2,0:3:0:0:
214,185,136604,2,0,P|253:177|303:114,1,116.999996429443,8|0,0:3|0:0,0:0:0:0:
300,96,136887,6,0,P|236:87|187:45,1,130,4|0,0:3|0:0,0:0:0:0:
104,36,137311,1,0,0:0:0:0:
82,43,137382,1,0,0:0:0:0:
67,60,137453,1,0,0:0:0:0:
97,226,137736,2,0,L|97:263,3,32.5,0|0|0|0,0:0|0:0|0:0|0:0,0:0:0:0:
134,237,138019,2,0,L|144:273,3,32.5,0|0|0|0,0:0|0:0|0:0|0:0,0:0:0:0:
171,237,138302,2,0,L|190:270,3,32.5,0|0|0|0,0:0|0:0|0:0|0:0,0:0:0:0:
206,227,138585,2,0,L|239:246,3,32.5,0|0|0|0,0:0|0:0|0:0|0:0,0:0:0:0:
233,201,138868,5,0,0:0:0:0:
244,181,138939,1,0,0:0:0:0:
245,158,139010,1,4,0:3:0:0:
235,137,139080,1,4,0:3:0:0:
218,121,139151,2,0,P|202:94|202:79,3,32.5,0|0|0|0,0:0|0:0|0:0|0:0,0:0:0:0:
203,71,139434,2,0,P|227:35|257:21,1,65,0|0,0:0|0:0,0:0:0:0:
316,70,139717,2,0,P|358:61|389:72,1,65,0|0,0:0|0:0,0:0:0:0:
429,134,140000,5,0,0:0:0:0:
418,154,140070,1,4,0:3:0:0:
413,176,140141,1,4,0:3:0:0:
413,198,140212,1,4,0:3:0:0:
419,220,140283,1,4,0:2:0:0:
382,296,140425,2,0,L|364:325,2,32.5,4|4|4,0:3|0:3|0:2,0:0:0:0:
307,255,140708,2,0,L|276:271,2,32.5,4|4|4,0:3|0:3|0:2,0:0:0:0:
270,178,140991,2,0,L|235:176,2,32.5,4|4|4,0:3|0:3|0:2,0:0:0:0:
296,97,141274,2,0,L|267:78,1,32.5,4|4,0:3|0:3,0:0:0:0:
58,55,141698,5,4,0:2:0:0:
114,118,141840,1,0,3:0:0:0:
114,118,141911,1,0,3:0:0:0:
114,118,141981,2,0,P|123:157|87:237,1,130,0|4,3:0|3:3,0:0:0:0:
113,317,142406,2,0,P|78:333|54:363,2,65,4|0|0,3:3|3:0|3:0,0:0:0:0:
196,324,142830,2,0,P|263:319|311:274,1,130,0|0,3:0|3:0,0:0:0:0:
315,194,143255,1,0,3:0:0:0:
278,117,143396,1,0,3:0:0:0:
198,113,143538,1,0,3:0:0:0:
166,185,143679,6,0,L|158:230,3,38.9999988098145,2|0|0|0,0:3|0:2|0:2|0:2,0:0:0:0:
121,189,143962,2,0,L|91:223,3,38.9999988098145,2|0|0|0,0:3|0:2|0:2|0:2,0:0:0:0:
78,170,144245,2,0,L|32:173,3,38.9999988098145,2|0|0|0,0:3|0:2|0:2|0:2,0:0:0:0:
60,127,144528,2,0,L|25:97,3,38.9999988098145,2|0|0|0,0:3|0:2|0:2|0:2,0:0:0:0:
70,90,144811,6,0,P|113:88|138:72,1,65,4|0,0:3|0:0,0:0:0:0:
205,34,145095,2,0,P|234:46|256:70,1,65,4|0,0:3|0:0,0:0:0:0:
265,154,145378,1,0,0:0:0:0:
321,216,145519,1,0,0:0:0:0:
343,222,145590,1,0,0:0:0:0:
365,222,145661,2,0,P|396:217|421:197,1,65,4|0,0:3|0:0,0:0:0:0:
425,112,145944,1,4,0:3:0:0:
412,93,146014,1,4,0:3:0:0:
392,81,146085,1,0,0:0:0:0:
369,75,146156,1,0,0:0:0:0:
347,82,146227,2,0,P|324:94|304:97,3,32.5,0|0|4|4,0:0|0:0|0:3|0:3,0:0:0:0:
295,97,146510,5,0,0:0:0:0:
274,88,146580,1,0,0:0:0:0:
257,72,146651,1,4,0:3:0:0:
252,49,146722,1,4,0:3:0:0:
251,26,146793,2,0,P|223:12|208:13,3,32.5,0|0|0|0,0:0|0:0|0:0|0:0,0:0:0:0:
200,17,147076,6,0,P|164:28|130:27,2,65,0|2|0,0:0|0:2|0:0,0:0:0:0:
207,122,147500,1,2,0:2:0:0:
207,122,147642,2,0,P|234:131|265:158,2,65,0|2|0,0:0|0:2|0:0,0:0:0:0:
122,128,148067,5,4,0:1:0:0:
69,193,148208,1,4,0:1:0:0:
377,330,148774,5,4,0:1:0:0:
39,321,149340,6,0,P|77:310|107:286,1,65,4|0,0:3|0:0,0:0:0:0:
117,148,149623,2,0,P|103:177|101:210,1,65,4|0,0:3|0:0,0:0:0:0:
171,257,149906,1,4,0:1:0:0:
253,238,150047,1,4,0:3:0:0:
270,155,150189,1,4,0:2:0:0:
242,25,150472,5,4,0:3:0:0:
326,19,150613,2,0,P|358:23|385:40,1,65,0|0,0:0|0:0,0:0:0:0:
444,100,150896,1,0,0:0:0:0:
456,183,151038,2,0,P|437:208|433:240,1,65,4|0,0:3|0:0,0:0:0:0:
388,335,151321,2,0,P|367:310|358:280,1,65,4|0,0:3|0:0,0:0:0:0:
361,195,151604,5,0,0:0:0:0:
381,113,151745,1,0,0:0:0:0:
364,97,151816,1,0,0:0:0:0:
343,87,151887,2,0,P|308:80|277:90,1,65,4|0,0:3|0:0,0:0:0:0:
254,168,152170,1,0,0:0:0:0:
232,174,152241,1,0,0:0:0:0:
209,172,152312,2,0,P|175:160|153:136,1,65,4|0,0:3|0:0,0:0:0:0:
13,47,152736,6,0,P|5:85|13:121,1,65,4|0,0:2|0:0,0:0:0:0:
47,186,153019,1,0,0:0:0:0:
186,282,153302,1,0,0:0:0:0:
263,131,153585,2,0,P|293:123|333:133,1,65,4|0,0:3|0:0,0:0:0:0:
396,175,153868,5,4,0:3:0:0:
429,252,154010,2,0,P|398:257|366:252,1,65,4|0,0:3|0:0,0:0:0:0:
295,205,154293,1,0,0:0:0:0:
211,213,154434,2,0,P|180:229|160:260,1,65,4|0,0:3|0:0,0:0:0:0:
65,331,154717,2,0,P|67:298|57:268,1,65,4|0,0:3|0:0,0:0:0:0:
16,193,155000,1,0,0:0:0:0:
37,111,155142,5,0,3:0:0:0:
37,111,155212,1,0,3:0:0:0:
37,111,155283,2,0,P|67:100|107:100,1,65,4|2,3:3|3:2,0:0:0:0:
160,157,155566,1,0,3:0:0:0:
160,157,155636,1,0,3:0:0:0:
160,157,155707,2,0,P|191:162|226:182,1,65,4|2,3:3|3:2,0:0:0:0:
236,261,155991,1,0,3:0:0:0:
236,261,156061,1,0,3:0:0:0:
236,261,156132,2,0,P|260:281|280:316,1,65,4|2,3:3|3:2,0:0:0:0:
356,340,156415,5,0,3:3:0:0:
377,334,156485,1,0,3:3:0:0:
397,322,156556,1,0,3:3:0:0:
413,307,156627,1,0,0:0:0:0:
425,287,156698,1,2,3:2:0:0:
414,203,156840,2,0,P|415:175|435:131,2,65,0|0|0,0:0|0:0|0:0,0:0:0:0:
347,254,157264,5,4,0:3:0:0:
283,197,157406,2,0,P|253:183|221:183,1,65,4|0,0:3|0:0,0:0:0:0:
146,223,157689,1,0,0:0:0:0:
95,290,157830,2,0,P|75:265|63:235,1,65,4|0,0:3|0:0,0:0:0:0:
93,156,158113,2,0,P|96:123|109:94,1,65,4|0,0:3|0:0,0:0:0:0:
183,52,158396,6,0,B|210:94|261:102|261:102|295:72|343:97|356:75,1,195,8|0,0:3|0:0,0:0:0:0:
482,50,159528,5,4,0:3:0:0:
422,207,159811,1,4,0:2:0:0:
314,75,160095,1,4,0:2:0:0:
480,105,160378,1,4,0:3:0:0:
349,210,160661,1,4,0:3:0:0:
322,42,160945,1,2,0:2:0:0:
238,42,161085,1,0,0:0:0:0:
216,49,161156,1,0,0:0:0:0:
199,64,161227,2,0,P|180:99|191:189,1,130,0|4,3:0|0:3,0:0:0:0:
243,250,161651,1,0,0:0:0:0:
290,160,161793,6,0,P|332:147|381:157,1,77.999997619629,4|0,0:2|0:0,0:0:0:0:
498,244,162076,2,0,P|459:247|423:234,1,77.999997619629,2|0,0:3|0:0,0:0:0:0:
320,107,162359,2,0,P|358:114|390:137,1,77.999997619629,4|0,0:2|0:0,0:0:0:0:
459,284,162642,2,0,P|425:267|400:238,1,77.999997619629,2|0,0:3|0:0,0:0:0:0:
368,76,162925,6,0,P|397:101|414:137,1,77.999997619629,4|0,0:2|0:0,0:0:0:0:
355,220,163208,2,0,P|320:242|276:247,1,77.999997619629,2|0,0:3|0:0,0:0:0:0:
224,165,163491,2,0,P|182:166|142:148,1,77.999997619629,4|0,0:2|0:0,0:0:0:0:
24,175,163774,2,0,P|50:203|62:239,1,77.999997619629,2|0,0:3|0:0,0:0:0:0:
63,324,164057,5,4,0:1:0:0:
256,192,164340,12,0,166887,0:0:0:0:
75,216,167453,5,2,0:0:0:0:
152,229,167595,2,0,P|138:269|115:292,2,65,0|2|0,0:0|0:0|0:0,0:0:0:0:
225,201,168020,2,0,P|232:242|224:274,2,65,2|0|0,0:2|0:0|0:0,0:0:0:0:
199,127,168444,1,0,0:0:0:0:
231,55,168585,2,0,P|259:40|291:37,1,65,2|0,0:0|0:0,0:0:0:0:
341,98,168868,2,0,P|373:122|411:130,1,65,0|0,0:0|0:0,0:0:0:0:
474,129,169151,5,0,0:0:0:0:
500,202,169293,1,0,0:0:0:0:
500,202,169363,1,0,0:0:0:0:
500,202,169434,2,0,P|484:240|404:276,1,130,0|2,0:0|0:0,0:0:0:0:
343,230,169859,1,0,0:0:0:0:
318,156,170000,2,0,P|284:144|253:148,1,65,0|0,0:0|0:0,0:0:0:0:
150,112,170283,2,0,P|181:105|207:85,1,65,0|0,0:0|0:0,0:0:0:0:
268,5,170566,2,0,P|270:38|283:68,1,65,2|0,0:0|0:0,0:0:0:0:
356,94,170849,5,2,0:0:0:0:
433,105,170991,2,0,P|485:141|501:203,1,130,0|0,0:0|0:0,0:0:0:0:
466,272,171415,1,0,0:0:0:0:
390,293,171557,1,0,0:0:0:0:
323,253,171698,1,0,0:0:0:0:
300,177,171840,1,0,0:0:0:0:
316,100,171981,2,0,P|281:84|246:88,1,65,2|0,0:0|0:0,0:0:0:0:
186,46,172264,2,0,P|149:59|128:87,1,65,2|0,0:0|0:0,0:0:0:0:
161,151,172547,5,0,0:0:0:0:
161,151,172689,2,0,P|153:207|94:265,1,130,0|0,0:0|0:0,0:0:0:0:
50,314,173113,2,0,P|29:296|-10:288,1,65,0|0,0:0|0:0,0:0:0:0:
33,220,173396,2,0,P|30:192|8:159,1,65,0|0,0:0|0:0,0:0:0:0:
80,125,173679,2,0,P|105:106|140:101,2,65,0|0|0,0:0|0:0|0:0,0:0:0:0:
135,270,174245,6,0,P|162:258|189:220,1,65,2|0,0:0|0:0,0:0:0:0:
201,154,174528,1,0,0:0:0:0:
245,89,174670,1,0,0:0:0:0:
322,79,174811,1,0,0:0:0:0:
388,119,174953,2,0,P|422:128|454:123,2,65,0|2|0,0:0|0:0|0:0,0:0:0:0:
321,160,175378,2,0,P|312:185|314:226,1,65
261,305,175661,2,0,P|249:274|228:249,1,65,0|0,0:0|0:0,0:0:0:0:
156,220,175944,6,0,P|123:225|81:219,2,65,2|0|0,0:0|0:0|0:0,0:0:0:0:
201,154,176368,2,0,P|243:133|268:131,2,65,0|2|0,0:0|0:0|0:0,0:0:0:0:
123,146,176793,1,0,0:0:0:0:
109,128,176863,1,0,0:0:0:0:
104,105,176934,1,0,0:0:0:0:
166,58,177076,2,0,P|212:57|238:44,1,65,2|0,0:0|0:0,0:0:0:0:
290,98,177359,2,0,P|334:108|363:103,1,65,2|0,0:0|0:0,0:0:0:0:
410,158,177642,6,0,P|446:209|440:273,1,130,2|0,0:0|0:0,0:0:0:0:
363,262,178066,1,0,0:0:0:0:
302,311,178208,1,2,0:0:0:0:
199,193,178491,1,2,0:0:0:0:
89,304,178774,1,0,0:0:0:0:
40,243,178915,1,0,0:0:0:0:
40,243,178986,1,0,0:0:0:0:
40,243,179057,2,0,P|36:210|43:179,1,65,0|0,0:0|0:0,0:0:0:0:
105,131,179340,6,0,P|135:135|173:124,1,65,2|0,0:0|0:0,0:0:0:0:
154,49,179623,2,0,P|181:37|209:8,1,65,0|0,0:0|0:0,0:0:0:0:
283,26,179906,1,2,0:0:0:0:
348,67,180047,1,0,0:0:0:0:
369,142,180189,1,0,0:0:0:0:
355,218,180330,1,0,0:0:0:0:
293,266,180472,2,0,P|252:275|219:264,1,65,2|0,0:0|0:0,0:0:0:0:
183,207,180755,1,0,0:0:0:0:
107,187,180896,1,0,0:0:0:0:
84,192,180967,1,0,0:0:0:0:
65,204,181038,6,0,P|41:239|41:274,1,65,2|0,0:0|0:0,0:0:0:0:
87,321,181321,1,0,0:0:0:0:
164,325,181462,1,0,0:0:0:0:
229,282,181604,1,2,0:0:0:0:
243,126,181887,1,0,0:0:0:0:
376,206,182170,1,2,0:0:0:0:
369,128,182311,1,0,0:0:0:0:
373,105,182382,1,0,0:0:0:0:
385,86,182453,2,0,P|409:63|439:54,1,65,0|0,0:0|0:0,0:0:0:0:
451,132,182736,5,2,0:0:0:0:
451,132,183019,1,2,0:0:0:0:
317,211,183302,1,2,0:0:0:0:
317,211,183585,1,2,0:0:0:0:
169,161,183868,1,2,0:0:0:0:
169,161,184151,1,2,0:0:0:0:
68,42,184434,6,0,P|34:34|4:39,2,65,0|0|0,0:0|0:0|0:0,0:0:0:0:
134,83,184859,2,0,P|181:75|203:60,2,65,0|2|0,0:0|0:0|0:0,0:0:0:0:
65,120,185283,2,0,P|33:132|10:156,2,65,2|0|2,0:0|0:0|0:0,0:0:0:0:
131,161,185708,1,0,0:0:0:0:
197,200,185849,1,2,0:0:0:0:
275,199,185991,1,0,0:0:0:0:
329,144,186132,5,2,0:0:0:0:
329,144,186203,1,0,0:0:0:0:
329,144,186274,2,0,P|373:134|446:181,1,130,0|0,0:0|0:0,0:0:0:0:
374,212,186698,2,0,P|364:240|366:276,1,65,2|0,0:0|0:0,0:0:0:0:
313,364,186981,2,0,P|297:336|275:313,1,65,0|0,0:0|0:0,0:0:0:0:
164,275,187264,2,0,P|196:269|224:253,1,65,2|0,0:0|0:0,0:0:0:0:
193,181,187547,2,0,P|217:160|233:132,1,65,0|0,0:0|0:0,0:0:0:0:
178,75,187830,5,2,0:0:0:0:
237,22,187972,2,0,P|300:13|360:37,1,130,0|0,0:0|0:0,0:0:0:0:
400,104,188396,2,0,P|394:132|401:173,1,65,2|0,0:0|0:0,0:0:0:0:
393,276,188679,2,0,P|376:248|351:229,1,65,2|0,0:0|0:0,0:0:0:0:
214,235,188962,2,0,P|243:249|276:252,1,65,2|0,0:0|0:0,0:0:0:0:
335,327,189245,2,0,P|303:322|272:330,1,65,0|0,0:0|0:0,0:0:0:0:
195,314,189528,6,0,P|144:333|70:312,1,130,2|2,0:0|0:0,0:0:0:0:
195,314,191227,5,2,0:0:0:0:
200,292,191297,1,0,0:0:0:0:
198,269,191368,1,0,0:0:0:0:
187,248,191439,1,0,0:0:0:0:
171,231,191510,2,0,P|152:211|148:197,3,32.5,2|0|0|0,0:0|0:0|0:0|0:0,0:0:0:0:
169,193,191793,2,0,P|164:165|168:151,2,32.5,2|0|0,0:0|0:0|0:0,0:0:0:0:
246,184,192076,2,0,P|278:183|306:168,1,65,2|0,0:0|0:0,0:0:0:0:
339,97,192359,1,2,0:0:0:0:
304,27,192500,1,0,0:0:0:0:
226,13,192642,1,2,0:0:0:0:
156,46,192783,1,0,0:0:0:0:
128,119,192925,5,2,0:0:0:0:
131,196,193066,1,0,0:0:0:0:
139,218,193137,1,0,0:0:0:0:
153,236,193208,2,0,P|179:253|280:226,1,130,2|2,0:0|0:0,0:0:0:0:
294,162,193632,1,0,0:0:0:0:
339,97,193774,2,0,P|373:85|409:89,1,65
405,159,194057,2,0,P|437:174|460:202,1,65,0|0,0:0|0:0,0:0:0:0:
441,272,194340,1,2,0:0:0:0:
418,270,194410,1,0,0:0:0:0:
395,273,194481,1,0,0:0:0:0:
322,302,194623,6,0,P|293:313|252:302,1,65,2|0,0:0|0:0,0:0:0:0:
260,229,194906,2,0,P|230:215|209:178,1,65,2|0,0:0|0:0,0:0:0:0:
237,114,195189,1,0,0:0:0:0:
194,48,195330,1,0,0:0:0:0:
116,41,195472,1,0,0:0:0:0:
53,87,195613,1,0,0:0:0:0:
66,164,195755,2,0,P|56:199|34:218,1,65,2|0,0:0|0:0,0:0:0:0:
100,260,196038,2,0,P|108:295|99:322,1,65,2|0,0:0|0:0,0:0:0:0:
172,350,196321,5,2,0:0:0:0:
194,354,196391,1,0,0:0:0:0:
216,355,196462,1,0,0:0:0:0:
239,350,196533,1,0,0:0:0:0:
260,342,196604,2,0,P|282:327|290:315,2,32.5,2|0|0,0:0|0:0|0:0,0:0:0:0:
220,275,196887,1,2,0:0:0:0:
180,207,197028,1,0,0:0:0:0:
186,129,197170,2,0,P|194:99|228:66,1,65,2|0,0:0|0:0,0:0:0:0:
341,62,197453,2,0,P|316:84|286:95,1,65,2|0,0:0|0:0,0:0:0:0:
259,187,197736,2,0,P|290:179|322:181,1,65,2|0,0:0|0:0,0:0:0:0:
392,216,198019,5,2,0:0:0:0:
467,196,198161,1,0,0:0:0:0:
467,196,198231,1,0,0:0:0:0:
467,196,198302,2,0,P|493:155|482:67,1,130,2|2,0:0|0:0,0:0:0:0:
411,57,198727,1,0,0:0:0:0:
337,82,198868,1,2,0:0:0:0:
302,152,199010,1,0,0:0:0:0:
288,228,199151,1,2,0:0:0:0:
280,249,199222,1,0,0:0:0:0:
267,267,199293,2,0,P|208:291|148:268,1,130,0|0,0:0|0:0,0:0:0:0:
122,195,199717,6,0,P|110:157|92:134,1,65,2|0,0:0|0:0,0:0:0:0:
170,115,200000,2,0,P|178:76|174:47,1,65,2|0,0:0|0:0,0:0:0:0:
252,35,200283,1,0,0:0:0:0:
324,64,200425,1,0,0:0:0:0:
365,129,200566,1,0,0:0:0:0:
373,206,200708,1,0,0:0:0:0:
329,270,200849,2,0,P|302:278|257:266,1,65,2|0,0:0|0:0,0:0:0:0:
250,194,201132,2,0,P|221:193|181:216,1,65,2|0,0:0|0:0,0:0:0:0:
140,269,201415,6,0,P|112:262|79:229,1,65,2|0,0:0|0:0,0:0:0:0:
54,53,202123,1,0,0:0:0:0:
100,115,202264,2,0,P|100:145|81:180,2,65,2|0|2,0:0|0:0|0:0,0:0:0:0:
155,59,202689,1,0,0:0:0:0:
232,57,202830,2,0,P|264:70|292:101,1,65,2|0,0:0|0:0,0:0:0:0:
375,165,203113,6,0,P|370:133|382:104,1,65,2|0,0:0|0:0,0:0:0:0:
430,18,203396,2,0,P|450:44|455:76,1,65,2|0,0:0|0:0,0:0:0:0:
453,154,203679,2,0,P|450:189|464:223,1,65,2|0,0:0|0:0,0:0:0:0:
482,291,203962,1,2,0:0:0:0:
462,302,204033,1,0,0:0:0:0:
439,305,204104,1,0,0:0:0:0:
416,300,204175,1,0,0:0:0:0:
396,288,204245,2,0,P|357:282|332:294,1,65,2|0,0:0|0:0,0:0:0:0:
259,269,204528,2,0,P|222:296|190:298,1,65,2|0,0:0|0:0,0:0:0:0:
128,279,204811,6,0,P|121:239|100:218,1,65,2|0,0:0|0:0,0:0:0:0:
74,115,205095,2,0,P|104:127|137:128,1,65,2|0,0:0|0:0,0:0:0:0:
204,90,205378,1,2,0:0:0:0:
338,13,205661,1,2,0:0:0:0:
422,144,205944,1,2,0:0:0:0:
354,182,206085,1,0,0:0:0:0:
340,200,206156,1,0,0:0:0:0:
334,222,206227,2,0,P|340:260|356:281,1,65,2|0,0:0|0:0,0:0:0:0:
432,294,206510,6,0,P|452:277|463:241,1,65,2|0,0:0|0:0,0:0:0:0:
492,168,206793,2,0,P|487:142|461:114,1,65,2|0,0:0|0:0,0:0:0:0:
383,109,207076,2,0,P|322:115|262:74,1,130,2|2,0:0|0:0,0:0:0:0:
221,15,207500,1,0,0:0:0:0:
143,22,207642,2,0,P|114:32|88:58,1,65,2|0,0:0|0:0,0:0:0:0:
123,126,207925,1,2,0:0:0:0:
96,199,208066,1,0,0:0:0:0:
103,221,208137,1,0,0:0:0:0:
117,238,208208,6,0,P|147:262|182:262,1,65,2|0,0:0|0:0,0:0:0:0:
211,196,208491,1,2,0:0:0:0:
283,169,208632,1,0,0:0:0:0:
306,168,208703,1,0,0:0:0:0:
328,175,208774,2,0,P|355:196|370:225,1,65,2|0,0:0|0:0,0:0:0:0:
347,339,209057,2,0,P|327:314|320:283,1,65,2|0,0:0|0:0,0:0:0:0:
242,270,209340,2,0,P|217:277|178:309,1,65,2|0,0:0|0:0,0:0:0:0:
85,326,209623,2,0,P|96:296|93:264,1,65,2|0,0:0|0:0,0:0:0:0:
48,200,209906,6,0,P|48:152|104:79,1,130,2|2,0:0|0:0,0:0:0:0:
115,85,210260,1,0,0:0:0:0:
138,89,210330,1,0,0:0:0:0:
189,148,210472,2,0,P|219:162|313:127,1,130,2|2,0:0|0:0,0:0:0:0:
314,112,210826,1,0,0:0:0:0:
314,89,210896,1,0,0:0:0:0:
370,34,211038,2,0,P|406:48|428:71,1,65,2|0,0:0|0:0,0:0:0:0:
409,142,211321,1,2,0:0:0:0:
380,295,211604,6,0,P|398:333|420:354,2,65,2|0|0,0:0|0:0|0:0,0:0:0:0:
320,245,212028,2,0,P|314:211|290:181,2,65,0|0|0,0:0|0:0|0:0,0:0:0:0:
261,296,212453,2,0,P|233:302|190:289,1,65,2|0,0:0|0:0,0:0:0:0:
215,217,212736,2,0,P|190:201|169:161,1,65,2|0,0:0|0:0,0:0:0:0:
174,92,213019,1,2,0:0:0:0:
228,36,213161,1,0,0:0:0:0:
301,62,213302,6,0,P|355:71|430:49,2,130,2|2|2,0:0|0:0|0:0,0:0:0:0:
228,36,214010,1,0,0:0:0:0:
152,54,214151,2,0,P|113:122|126:176,1,130,2|2,0:0|0:0,0:0:0:0:
174,227,214576,1,0,0:0:0:0:
249,210,214717,2,0,P|278:225|298:250,1,65,2|0,0:0|0:0,0:0:0:0:
321,325,215000,5,2,0:0:0:0:
397,339,215142,2,0,P|435:310|449:224,1,130,0|0,0:0|0:0,0:0:0:0:
380,201,215566,2,0,P|356:174|348:139,1,65,2|0,0:0|0:0,0:0:0:0:
366,70,215849,1,2,0:0:0:0:
441,47,215991,1,0,0:0:0:0:
492,104,216132,2,0,P|487:140|468:162,1,65,2|0,0:0|0:0,0:0:0:0:
398,195,216415,1,2,0:0:0:0:
319,196,216557,1,0,0:0:0:0:
253,153,216698,1,2,0:0:0:0:
204,92,216840,2,0,P|161:77|68:114,1,130
120,168,217264,6,0,P|106:227|48:287,2,130,2|0|0,0:0|0:0|0:0,0:0:0:0:
256,192,218467,12,2,221887,2:2:0:0:
256,192,222429,12,2,226816,0:0:0:0:
