osu file format v14

[General]
AudioFilename: 01_igorrr_tout_petit_moineau.mp3
AudioLeadIn: 0
PreviewTime: 96061
Countdown: 0
SampleSet: Normal
StackLeniency: 0.7
Mode: 0
LetterboxInBreaks: 0
WidescreenStoryboard: 0

[Editor]
DistanceSpacing: 0.7
BeatDivisor: 4
GridSize: 32
TimelineZoom: 0.9000008

[Metadata]
Title:Tout Petit Moineau
TitleUnicode:Tout Petit Moineau
Artist:Igorrr
ArtistUnicode:Igorrr
Creator:fergas
Version:Insane
Source:
Tags:hallelujah breakcore baroque baroquecore black death metal adn165 ad noiseam Laure Le Prunenec OnosakiHito
BeatmapID:519940
BeatmapSetID:212180

[Difficulty]
HPDrainRate:6
CircleSize:4.1
OverallDifficulty:7.5
ApproachRate:9
SliderMultiplier:1.6
SliderTickRate:1

[Events]
//Background and Video events
0,0,"zn1mLPDbJwM12.jpg",0,0
//Break Periods
2,92936,95532
//Storyboard Layer 0 (Background)
//Storyboard Layer 1 (Fail)
//Storyboard Layer 2 (Pass)
//Storyboard Layer 3 (Foreground)
//Storyboard Sound Samples

[TimingPoints]
24812,283.018867924528,6,1,1,50,1,0
24812,-200,6,1,1,50,0,0
25590,-200,6,1,1,15,0,0
25661,-100,6,1,1,30,0,0
25944,-100,6,1,1,50,0,0
27359,-100,6,1,1,30,0,0
27642,-100,6,1,1,40,0,0
27925,-100,6,1,1,50,0,0
32099,-100,6,1,1,30,0,0
32170,-100,6,1,1,50,0,0
32382,-100,6,1,1,30,0,0
32453,-100,6,1,1,50,0,0
32665,-100,6,1,1,30,0,0
32736,-200,6,1,1,50,0,0
33727,-200,6,1,1,40,0,0
33868,-100,6,1,1,50,0,0
38326,-100,6,1,1,30,0,0
38396,-100,6,1,1,50,0,0
41156,-100,6,1,1,30,0,0
41227,-100,6,1,1,50,0,0
41439,-100,6,1,1,30,0,0
41510,-100,6,1,1,57,0,0
41793,-100,6,1,1,50,0,0
43208,-100,6,1,1,40,0,0
43278,-100,6,1,1,50,0,0
43491,-100,6,1,1,40,0,0
43561,-100,6,1,1,50,0,0
43774,-100,6,1,1,40,0,0
43845,-100,6,1,1,50,0,0
44057,-100,6,1,1,40,0,0
44128,-100,6,1,1,50,0,0
44340,-100,6,1,1,40,0,0
44411,-100,6,1,1,50,0,0
45189,-100,6,1,1,45,0,0
45330,-100,6,1,1,50,0,0
45684,-100,6,1,1,30,0,0
45755,-100,6,1,1,50,0,0
45967,-100,6,1,1,30,0,0
46038,-100,6,1,1,50,0,0
46250,-100,6,1,1,30,0,0
46321,-200,6,1,1,50,0,0
47311,-200,6,1,1,40,0,0
47453,-100,6,1,1,50,0,0
51911,-100,6,1,1,30,0,0
51981,-100,6,1,1,50,0,0
54387,-100,6,1,1,40,0,0
54528,-100,6,1,1,30,0,0
54599,-100,6,1,1,40,0,0
54670,-100,6,1,1,35,0,0
54953,-100,6,1,1,50,0,0
56439,-100,6,1,1,30,0,0
56510,-100,6,1,1,50,0,0
56722,-100,6,1,1,30,0,0
56793,-100,6,1,1,50,0,0
58349,-100,6,1,1,40,0,0
58491,-100,6,1,1,50,0,0
59906,-200,6,1,1,50,0,0
60896,-200,6,1,1,40,0,0
61038,-100,6,1,1,50,0,0
65000,-100,6,1,1,45,0,0
65036,-100,6,1,1,50,0,0
65495,-100,6,1,1,30,0,0
65566,-100,6,1,1,50,0,0
66132,-100,6,1,1,57,0,0
66238,-100,6,1,1,50,0,0
66345,-100,6,1,1,57,0,0
66415,-100,6,1,1,50,0,0
68326,-100,6,1,1,30,0,0
68396,-100,6,1,1,50,0,0
68609,-100,6,1,1,30,0,0
68679,-100,6,1,1,50,0,0
73491,-100,6,1,1,40,0,0
74057,-100,6,1,1,50,0,0
76887,-100,6,1,1,60,0,1
79080,-100,6,1,1,30,0,1
79151,-100,6,1,1,50,0,0
81911,-100,6,1,1,30,0,0
81981,-100,6,1,1,50,0,0
82194,-100,6,1,1,30,0,0
82264,-100,6,1,1,50,0,0
85307,-100,6,1,1,30,0,0
85378,-100,6,1,1,50,0,0
88703,-100,6,1,1,30,0,0
88774,-100,6,1,1,50,0,0
88986,-100,6,1,1,30,0,0
89057,-100,6,1,1,50,0,0
89906,-100,6,1,1,57,0,0
90189,-100,6,1,1,50,0,0
92736,-100,6,1,1,50,0,1
92830,-100,6,1,1,50,0,0
96132,-100,6,1,1,50,0,1
96981,-83.3333333333334,6,1,1,30,0,1
97264,-83.3333333333334,6,1,1,60,0,1
99528,-83.3333333333334,6,1,1,45,0,1
100378,-83.3333333333334,6,1,1,60,0,1
102925,-100,6,1,1,50,0,0
104906,-100,6,1,1,5,0,0
105189,-83.3333333333333,6,1,1,60,0,1
109646,-100,6,1,1,50,0,0
109717,-83.3333333333333,6,1,1,50,0,1
117571,-83.3333333333333,6,1,1,50,0,1
117642,-83.3333333333333,6,1,1,50,0,1
123231,-100,6,1,1,30,0,0
123302,-83.3333333333333,6,1,1,50,0,1
125000,-100,6,2,2,70,0,0
126698,-83.3333333333333,6,1,1,50,0,1
131227,-133.333333333333,6,1,1,50,0,1
132359,-83.3333333333333,6,1,1,50,0,1
136816,-83.3333333333333,6,1,1,30,0,1
136887,-100,6,1,1,50,0,0
143679,-83.3333333333333,6,1,1,50,0,1
144811,-100,6,1,1,50,0,0
150401,-100,6,1,1,30,0,0
150472,-100,6,1,1,50,0,0
152453,-100,6,1,1,60,0,0
152665,-100,6,1,1,30,0,0
152736,-100,6,1,1,50,0,0
153019,-100,6,1,1,30,0,0
153302,-100,6,1,1,40,0,0
153585,-100,6,1,1,50,0,0
158396,-200,6,1,1,50,0,0
159387,-200,6,1,1,35,0,0
159528,-100,6,1,1,50,0,0
159741,-100,6,1,1,20,0,0
159811,-100,6,1,1,50,0,0
160024,-100,6,1,1,20,0,0
160095,-100,6,1,1,50,0,0
160307,-100,6,1,1,20,0,0
160378,-100,6,1,1,50,0,0
160590,-100,6,1,1,20,0,0
160661,-100,6,1,1,50,0,0
160873,-100,6,1,1,20,0,0
160944,-100,6,1,1,50,0,0
161227,-100,6,1,1,60,0,0
161510,-100,6,1,1,50,0,0
161793,-100,6,1,1,50,0,1
164057,-100,6,1,1,50,0,0
167170,-100,6,1,1,5,0,0
167453,-100,6,2,1,40,0,0
167595,-100,6,2,2,30,0,0
168585,-100,6,2,1,40,0,0
169293,-100,6,2,2,40,0,0
169717,-100,6,2,1,40,0,0
170991,-100,6,2,2,30,0,0
171557,-100,6,2,1,40,0,0
172689,-100,6,2,2,30,0,0
173821,-100,6,2,1,40,0,0
176793,-100,6,2,2,30,0,0
177076,-100,6,2,1,40,0,0
178420,-100,6,2,1,30,0,0
178491,-100,6,2,1,40,0,0
178703,-100,6,2,1,30,0,0
178774,-100,6,2,1,40,0,0
178915,-100,6,2,2,30,0,0
179340,-100,6,2,1,40,0,0
180896,-100,6,2,2,30,0,0
181038,-100,6,2,1,40,0,0
181816,-100,6,2,1,20,0,0
181887,-100,6,2,1,40,0,0
182099,-100,6,2,1,20,0,0
182170,-100,6,2,1,40,0,0
182311,-100,6,2,2,30,0,0
182736,-100,6,2,1,40,0,0
182948,-100,6,2,1,20,0,0
183019,-100,6,2,1,40,0,0
183231,-100,6,2,1,20,0,0
183302,-100,6,2,1,40,0,0
183514,-100,6,2,1,20,0,0
183585,-100,6,2,1,40,0,0
183797,-100,6,2,1,20,0,0
183868,-100,6,2,1,40,0,0
184080,-100,6,2,1,20,0,0
184151,-100,6,2,1,40,0,0
184363,-100,6,2,1,20,0,0
184434,-100,6,2,2,30,0,0
186698,-100,6,2,1,40,0,0
187972,-100,6,2,2,30,0,0
188962,-100,6,2,1,40,0,0
190095,-200,6,2,1,40,0,0
191085,-200,6,2,1,20,0,0
191191,-200,6,2,1,20,0,0
191227,-100,6,2,2,30,0,0
191934,-100,6,2,1,40,0,0
192359,-100,6,2,2,30,0,0
194623,-100,6,2,1,40,0,0
195189,-100,6,2,2,30,0,0
195755,-100,6,2,1,40,0,0
196462,-100,6,2,2,30,0,0
196887,-100,6,2,1,40,0,0
198161,-100,6,2,2,30,0,0
198727,-100,6,2,1,40,0,0
199151,-100,6,2,2,30,0,0
199717,-100,6,2,1,40,0,0
200283,-100,6,2,2,30,0,0
200849,-100,6,2,1,40,0,0
201698,-100,6,2,2,30,0,0
202123,-100,6,2,1,40,0,0
203326,-100,6,2,1,20,0,0
203396,-100,6,2,1,40,0,0
203821,-100,6,2,2,30,0,0
204811,-100,6,2,1,40,0,0
205590,-100,6,2,1,20,0,0
205661,-100,6,2,1,40,0,0
205873,-100,6,2,1,20,0,0
205944,-100,6,2,1,40,0,0
206085,-100,6,2,2,30,0,0
206510,-100,6,2,1,40,0,0
208066,-100,6,2,2,30,0,0
208208,-100,6,2,1,40,0,0
208632,-100,6,2,2,30,0,0
208774,-100,6,2,1,40,0,0
208915,-100,6,2,1,20,0,0
208986,-100,6,2,1,40,0,0
209269,-100,6,2,1,20,0,0
209340,-100,6,2,1,40,0,0
209481,-100,6,2,2,30,0,0
209906,-100,6,2,1,40,0,0
210118,-100,6,2,1,20,0,0
210189,-100,6,2,2,30,0,0
210472,-100,6,2,1,40,0,0
210684,-100,6,2,1,20,0,0
210755,-100,6,2,2,30,0,0
210896,-100,6,2,1,40,0,0
211038,-100,6,2,2,30,0,0
211179,-100,6,2,1,40,0,0
211533,-100,6,2,1,20,0,0
211604,-100,6,2,2,30,0,0
213868,-100,6,2,1,40,0,0
214151,-100,6,2,2,30,0,0
214434,-100,6,2,1,40,0,0
214717,-100,6,2,2,30,0,0
215000,-100,6,2,1,40,0,0
215142,-100,6,2,2,20,0,0
215212,-100,6,2,2,30,0,0
216840,-100,6,2,2,28,0,0
216911,-100,6,2,2,33,0,0
216981,-100,6,2,2,38,0,0
217052,-100,6,2,2,42,0,0
217123,-100,6,2,2,45,0,0
217264,-200,6,2,1,40,0,0
226816,-100,6,2,1,5,0,0

[Colours]
Combo1 : 172,196,11
Combo2 : 0,128,64
Combo3 : 64,128,128

[HitObjects]
158,263,24812,6,8,P|195:198|153:63,1,220,0|0,0:0|0:0,0:0:0:0:
91,97,25661,6,0,P|77:99|60:97,6,20,0|0|0|0|0|0|0,0:0|0:0|0:0|0:0|0:0|0:0|0:0,0:0:0:0:
93,169,25944,2,0,P|82:177|66:184,6,20,0|0|0|0|0|0|0,0:0|0:0|0:0|0:0|0:0|0:0|0:0,0:0:0:0:
155,132,26227,2,0,P|196:131|246:157,1,80,4|0,0:2|0:0,0:0:0:0:
363,248,26510,5,0,0:0:0:0:
357,220,26580,1,0,0:0:0:0:
358,191,26651,2,0,P|367:141|388:104,1,80,4|4,0:3|0:3,0:0:0:0:
230,282,27076,2,0,P|182:304|145:308,1,80,4|0,0:3|0:0,0:0:0:0:
52,263,27359,2,0,P|44:250|38:234,6,20,0|0|0|0|0|0|0,0:0|0:0|0:0|0:0|0:0|0:0|0:0,0:0:0:0:
105,214,27642,2,0,P|108:202|109:185,6,20,0|0|0|0|0|0|0,0:0|0:0|0:0|0:0|0:0|0:0|0:0,0:0:0:0:
171,240,27925,2,0,P|207:225|237:199,1,80,4|0,0:2|0:0,0:0:0:0:
309,47,28208,5,0,0:0:0:0:
307,158,28349,2,0,P|321:200|354:237,1,80,4|0,0:3|0:0,0:0:0:0:
446,271,28632,1,0,0:0:0:0:
357,340,28774,2,0,P|306:350|266:344,1,80,4|0,0:3|0:0,0:0:0:0:
146,285,29057,2,0,P|184:273|218:252,1,80,0|0,0:0|0:0,0:0:0:0:
281,95,29340,1,4,0:3:0:0:
281,95,29481,2,0,P|242:85|202:87,1,80,4|0,0:3|0:0,0:0:0:0:
92,112,29764,1,0,0:0:0:0:
168,193,29906,6,0,P|187:227|195:266,1,80,4|0,0:3|0:0,0:0:0:0:
287,201,30189,2,0,P|322:165|367:149,1,80,4|0,0:3|0:0,0:0:0:0:
459,135,30472,1,2,0:2:0:0:
388,48,30613,1,0,0:0:0:0:
360,42,30684,1,0,0:0:0:0:
331,41,30755,2,0,P|311:41|291:44,2,40,4|4|2,0:3|0:3|0:2,0:0:0:0:
234,132,31038,2,0,P|207:127|190:121,1,40,0|0,3:0|3:0,0:0:0:0:
189,163,31179,2,0,P|167:145|156:132,1,40,0|0,3:0|3:0,0:0:0:0:
138,177,31321,1,2,3:2:0:0:
54,291,31462,1,0,3:2:0:0:
81,286,31533,1,0,3:0:0:0:
109,288,31604,6,0,P|153:305|184:341,1,80,4|0,0:2|0:0,0:0:0:0:
390,326,31887,2,0,P|331:320|281:289,1,120,0|0,0:0|0:0,0:0:0:0:
264,266,32170,2,0,P|325:266|389:232,1,120,0|0,0:0|0:0,0:0:0:0:
397,221,32453,2,0,P|337:215|287:183,1,120,0|0,0:0|0:0,0:0:0:0:
277,173,32736,6,0,P|141:198|174:304,1,280,8|0,0:3|0:0,0:0:0:0:
342,298,33868,6,0,P|312:272|275:259,1,80,4|0,0:3|0:0,0:0:0:0:
162,254,34151,1,0,0:0:0:0:
318,192,34293,2,0,P|346:165|363:129,1,80,4|0,0:3|0:0,0:0:0:0:
211,154,34576,2,0,P|172:160|133:153,1,80,0|0,0:0|0:0,0:0:0:0:
46,82,34859,1,4,0:3:0:0:
72,247,35000,5,4,0:3:0:0:
162,314,35142,1,0,3:0:0:0:
188,321,35212,1,0,3:0:0:0:
215,323,35283,1,0,3:0:0:0:
243,322,35354,1,0,3:0:0:0:
269,313,35425,2,4,P|321:276|339:247,1,80,4|4,0:3|0:3,0:0:0:0:
236,205,35708,5,0,3:0:0:0:
209,197,35778,1,0,3:0:0:0:
185,181,35849,1,0,3:0:0:0:
167,159,35920,1,0,3:0:0:0:
157,132,35991,2,4,P|148:75|154:43,1,80,4|4,0:3|0:3,0:0:0:0:
261,76,36274,5,0,3:0:0:0:
287,86,36345,1,0,3:0:0:0:
314,90,36415,1,0,3:0:0:0:
342,90,36486,1,0,3:0:0:0:
369,85,36557,2,4,P|411:60|430:20,1,80,4|4,0:3|0:3,0:0:0:0:
437,145,36840,6,0,P|454:160|483:174,3,40,0|0|0|0,0:0|0:0|0:0|0:0,0:0:0:0:
439,235,37123,2,0,P|458:239|478:238,3,40,0|0|0|0,0:0|0:0|0:0|0:0,0:0:0:0:
378,191,37406,2,0,P|353:192|325:204,1,40,0|0,0:0|0:0,0:0:0:0:
372,261,37547,2,0,P|336:279|308:308,1,80,4|0,0:2|0:0,0:0:0:0:
228,232,37830,1,0,0:0:0:0:
121,196,37972,1,0,0:0:0:0:
121,196,38113,2,0,P|180:161|212:104,1,120,4|0,0:2|0:0,0:0:0:0:
215,91,38396,6,0,P|267:154|273:236,1,160,8|0,0:3|0:0,0:0:0:0:
341,350,38821,2,0,P|340:330|344:311,3,40,0|0|0|0,0:0|0:0|3:0|3:0,0:0:0:0:
357,286,39104,1,0,3:0:0:0:
376,265,39175,1,0,3:0:0:0:
400,252,39245,1,4,0:3:0:0:
199,306,39528,1,0,0:0:0:0:
275,112,39811,1,0,0:0:0:0:
69,143,40095,5,0,0:0:0:0:
69,143,40378,1,0,0:0:0:0:
41,139,40448,1,0,0:0:0:0:
12,138,40519,1,4,0:3:0:0:
162,96,40661,2,0,P|199:71|225:27,1,80,0|0,0:0|0:0,0:0:0:0:
315,80,40944,2,0,P|338:141|387:183,1,120,4|0,0:2|0:0,0:0:0:0:
403,188,41227,2,0,P|338:202|291:253,1,120,4|0,0:2|0:0,0:0:0:0:
296,265,41510,2,0,P|277:258|254:256,4,40,0|0|0|0|4,3:0|3:0|3:0|3:0|0:3,0:0:0:0:
397,312,41934,5,4,0:3:0:0:
288,341,42076,1,0,0:0:0:0:
384,239,42217,1,4,0:3:0:0:
393,127,42359,1,0,0:0:0:0:
376,104,42429,1,0,0:0:0:0:
352,88,42500,1,0,0:0:0:0:
324,81,42571,1,0,0:0:0:0:
295,81,42642,6,0,P|238:75|204:59,1,80,4|4,0:3|0:3,0:0:0:0:
105,69,42925,2,0,P|118:105|113:161,1,80,4|4,0:2|0:3,0:0:0:0:
229,146,43208,2,0,L|271:119,3,40,2|0|0|0,0:3|0:0|0:0|0:0,0:0:0:0:
270,179,43491,2,0,L|317:163,3,40,2|0|0|0,0:3|0:0|0:0|0:0,0:0:0:0:
303,222,43774,2,0,L|352:219,3,40,2|0|0|0,0:3|0:0|0:0|0:0,0:0:0:0:
322,271,44057,2,0,L|370:281,3,40,2|0|0|0,0:3|0:0|0:0|0:0,0:0:0:0:
328,325,44340,2,0,L|363:343,3,40,2|0|0|0,0:3|0:0|0:0|0:0,0:0:0:0:
276,302,44623,6,0,B|233:276|194:292|194:292|183:269|147:265,1,120,4|0,0:2|0:0,0:0:0:0:
141,263,44906,2,0,P|113:283|82:291,2,53.3333333333333,2|0|2,0:2|0:0|0:2,0:0:0:0:
184,201,45189,5,4,0:2:0:0:
228,103,45330,1,0,0:0:0:0:
247,123,45401,1,0,0:0:0:0:
270,138,45472,2,0,P|332:147|398:128,1,120,4|0,0:2|0:0,0:0:0:0:
383,105,45755,2,0,P|343:146|337:230,1,120,4|0,0:2|0:0,0:0:0:0:
332,233,46038,2,0,P|292:264|210:267,1,120,4|0,0:2|0:0,0:0:0:0:
197,263,46321,6,0,P|248:218|158:64,1,280,8|0,0:3|0:0,0:0:0:0:
51,83,47453,6,0,P|77:112|113:131,1,80,4|0,0:3|0:0,0:0:0:0:
225,135,47736,1,0,0:0:0:0:
66,190,47878,2,0,P|32:223|14:253,1,80,4|0,0:3|0:0,0:0:0:0:
200,237,48161,2,0,P|161:246|126:265,1,80,4|0,0:3|0:0,0:0:0:0:
151,155,48444,1,0,0:0:0:0:
222,69,48585,6,0,P|272:41|317:37,2,80,0|2|0,0:0|0:2|0:0,0:0:0:0:
317,128,49010,1,2,0:2:0:0:
317,128,49151,2,0,P|374:128|415:147,2,80,0|2|0,0:0|0:2|0:0,0:0:0:0:
151,156,49576,1,4,0:3:0:0:
73,236,49717,6,0,P|63:260|60:286,2,53.3333333333333,0|0|0,0:0|0:0|0:0,0:0:0:0:
136,278,50000,2,0,P|139:304|149:328,2,53.3333333333333,0|0|0,0:0|0:0|0:0,0:0:0:0:
211,282,50283,2,0,P|226:303|248:318,2,53.3333333333333,4|0|0,0:3|0:0|0:0,0:0:0:0:
279,251,50566,2,0,P|303:261|329:264,2,53.3333333333333,0|0|0,0:0|0:0|0:0,0:0:0:0:
322,189,50849,2,0,P|348:185|372:175,2,53.3333333333333,0|0|0,0:0|0:0|0:0,0:0:0:0:
248,173,51132,6,0,P|205:161|150:164,1,80,4|0,0:3|0:0,0:0:0:0:
58,176,51415,1,0,0:0:0:0:
15,71,51557,1,4,0:3:0:0:
115,23,51698,2,4,P|166:37|224:101,1,120,4|0,0:2|0:0,0:0:0:0:
221,109,51981,6,0,P|260:114|301:107,1,80,4|0,0:3|0:0,0:0:0:0:
398,52,52264,1,0,0:0:0:0:
483,124,52406,1,4,0:3:0:0:
378,163,52547,1,4,0:3:0:0:
465,234,52689,1,4,0:3:0:0:
360,274,52830,1,0,0:0:0:0:
332,280,52901,1,0,0:0:0:0:
303,281,52972,1,0,0:0:0:0:
275,277,53043,1,0,0:0:0:0:
248,264,53113,6,0,P|209:269|175:289,1,80,0|0,3:0|3:0,0:0:0:0:
109,199,53396,2,0,P|76:222|57:257,1,80,0|0,3:0|3:0,0:0:0:0:
207,144,53679,2,0,P|215:95|205:62,2,80,0|0|0,3:0|3:0|3:0,0:0:0:0:
314,109,54104,1,0,3:0:0:0:
425,109,54245,1,0,3:0:0:0:
479,207,54387,6,0,P|481:226|478:246,3,40,0|0|4|0,0:0|0:0|0:2|0:0,0:0:0:0:
429,219,54670,2,0,P|420:237|408:253,3,40,2|0|2|0,3:2|3:0|3:2|3:0,0:0:0:0:
375,208,54953,1,0,3:0:0:0:
347,200,55024,1,0,3:0:0:0:
319,196,55095,1,0,3:0:0:0:
291,196,55165,1,0,3:0:0:0:
263,201,55236,1,0,3:0:0:0:
236,208,55307,1,0,3:0:0:0:
210,220,55378,6,0,P|171:215|137:194,1,80,4|0,0:3|0:0,0:0:0:0:
226,125,55661,2,0,P|261:89|275:40,1,80,4|0,0:3|0:0,0:0:0:0:
104,56,55944,1,4,0:3:0:0:
93,81,56014,1,0,0:0:0:0:
88,108,56085,1,4,0:3:0:0:
87,136,56156,1,0,0:0:0:0:
92,163,56227,2,0,P|81:210|31:262,1,120,4|0,0:2|0:0,0:0:0:0:
7,274,56510,2,0,P|94:279|139:307,1,120,4|0,0:2|0:0,0:0:0:0:
140,314,56793,5,0,0:0:0:0:
251,308,56934,1,0,0:0:0:0:
277,299,57005,1,0,0:0:0:0:
300,283,57076,2,0,P|325:275|368:275,2,40,0|0|2,3:0|3:0|0:2,0:0:0:0:
210,215,57359,1,0,0:0:0:0:
182,210,57429,1,0,0:0:0:0:
157,196,57500,2,0,P|132:190|95:189,2,40,0|0|2,3:0|3:0|0:2,0:0:0:0:
216,100,57783,1,0,0:0:0:0:
228,75,57854,1,0,0:0:0:0:
234,47,57925,2,0,P|231:23|225:8,2,40,0|0|2,3:0|3:0|0:2,0:0:0:0:
338,85,58208,6,0,P|374:100|414:105,1,80,4|0,0:3|0:0,0:0:0:0:
346,193,58491,2,0,P|327:212|314:236,2,53.3333333333333,0|0|0,3:0|3:0|3:0,0:0:0:0:
262,182,58774,2,0,P|248:205|242:230,2,53.3333333333333,4|0|0,0:3|0:0|0:0,0:0:0:0:
180,189,59057,2,0,P|173:214|174:241,2,53.3333333333333,0|0|0,0:0|0:0|0:0,0:0:0:0:
101,219,59340,2,0,P|102:245|109:270,2,53.3333333333333,0|0|0,0:0|0:0|0:0,0:0:0:0:
34,271,59623,2,0,P|40:296|55:319,2,53.3333333333333,0|0|0,0:0|0:0|0:0,0:0:0:0:
31,195,59906,6,0,B|52:142|33:85|33:85|133:114|202:50,1,280,8|0,0:3|0:0,0:0:0:0:
299,91,61038,6,0,P|268:116|230:127,1,80,4|0,0:3|0:0,0:0:0:0:
252,237,61321,1,0,0:0:0:0:
252,237,61462,2,0,P|212:244|174:235,1,80,4|0,0:3|0:0,0:0:0:0:
345,174,61745,2,0,P|393:180|445:207,1,80,4|0,0:3|0:0,0:0:0:0:
506,265,62028,1,4,0:3:0:0:
393,269,62170,6,0,P|337:284|298:311,1,80,4|0,0:3|0:0,0:0:0:0:
228,362,62453,1,0,0:0:0:0:
259,197,62595,2,0,P|258:142|242:97,1,80,4|0,0:3|0:0,0:0:0:0:
82,81,62878,2,0,P|106:113|140:134,1,80,0|0,0:0|0:0,0:0:0:0:
206,43,63161,1,4,0:3:0:0:
206,43,63302,2,0,P|242:59|282:60,1,80,0|0,0:0|0:0,0:0:0:0:
390,29,63585,1,0,0:0:0:0:
465,112,63727,2,0,P|476:150|474:189,1,80,4|0,0:3|0:0,0:0:0:0:
362,211,64010,6,0,P|323:217|287:235,2,80,4|0|0,0:2|0:0|0:0,0:0:0:0:
282,134,64434,2,0,P|242:129|203:137,1,80,0|0,0:0|0:0,0:0:0:0:
56,192,64717,2,0,P|80:161|90:123,1,80,4|0,0:2|0:0,0:0:0:0:
158,239,65000,2,0,P|129:267|93:282,1,80,4|0,0:2|0:0,0:0:0:0:
267,262,65283,2,0,P|326:261|382:282,1,120,4|0,0:2|0:0,0:0:0:0:
403,300,65566,6,0,P|439:248|427:154,1,160,4|0,0:2|0:0,0:0:0:0:
327,128,65991,1,0,0:0:0:0:
300,120,66061,1,0,0:0:0:0:
275,106,66132,2,0,P|257:83|250:60,1,40,0|0,3:0|3:0,0:0:0:0:
105,118,66415,6,0,P|126:136|140:156,3,40
160,121,66698,2,0,P|169:147|171:171,3,40
209,147,66981,2,0,P|203:174|193:196,3,40,0|0|0|0,0:0|0:0|0:0|0:0,0:0:0:0:
252,200,67264,2,0,P|240:215|225:228,3,40,0|0|0|0,0:0|0:0|0:0|0:0,0:0:0:0:
281,133,67547,5,0,0:0:0:0:
302,114,67618,1,0,0:0:0:0:
328,103,67689,2,0,P|363:91|406:92,1,80,4|0,0:3|0:0,0:0:0:0:
512,125,67972,1,0,0:0:0:0:
478,231,68113,2,0,P|418:241|338:208,1,120,4|0,0:2|0:0,0:0:0:0:
338,208,68396,2,0,P|333:266|287:302,1,120,4|0,0:2|0:0,0:0:0:0:
259,298,68679,1,0,3:0:0:0:
231,290,68750,1,0,3:0:0:0:
203,285,68821,1,0,3:0:0:0:
174,286,68892,1,0,3:0:0:0:
148,296,68962,6,0,P|106:274|86:235,1,80,4|0,0:3|0:0,0:0:0:0:
74,135,69245,1,0,0:0:0:0:
178,176,69387,2,0,P|232:176|283:152,1,80,4|0,0:3|0:0,0:0:0:0:
352,29,69670,1,0,0:0:0:0:
352,140,69811,2,0,P|379:195|418:222,1,80,4|0,0:3|0:0,0:0:0:0:
460,296,70095,2,0,P|424:312|385:315,1,80,4|0,0:3|0:0,0:0:0:0:
279,276,70378,5,0,0:0:0:0:
170,246,70519,2,0,P|151:244|131:247,3,40,0|0|0|0,0:0|0:0|3:0|3:0,0:0:0:0:
103,245,70802,1,0,3:0:0:0:
79,229,70873,1,0,3:0:0:0:
64,204,70944,1,4,0:3:0:0:
81,93,71085,5,4,0:3:0:0:
168,164,71227,1,0,0:0:0:0:
186,53,71368,1,4,0:3:0:0:
272,124,71510,1,0,0:0:0:0:
297,134,71580,1,0,0:0:0:0:
324,140,71651,1,0,0:0:0:0:
352,141,71722,1,0,0:0:0:0:
379,135,71793,1,4,0:3:0:0:
475,78,71934,2,0,P|498:124|496:160,1,80,4|0,0:3|0:0,0:0:0:0:
474,261,72217,1,4,0:3:0:0:
361,244,72359,6,0,P|335:245|309:253,2,53.3333333333333,4|0|0,0:2|0:0|0:0,0:0:0:0:
301,178,72642,2,0,P|275:187|253:201,2,53.3333333333333,0|0|0,0:0|0:0|0:0,0:0:0:0:
228,129,72925,2,0,P|206:142|188:162,2,53.3333333333333,0|0|0,0:0|0:0|0:0,0:0:0:0:
146,99,73208,2,0,P|127:118|115:141,2,53.3333333333333,0|0|0,0:0|0:0|0:0,0:0:0:0:
207,56,73491,2,0,P|213:42|218:26,4,26.6666666666667,4|0|0|0|0,0:3|0:0|0:0|0:0|0:0,0:0:0:0:
279,74,73774,2,0,P|299:73|318:76,4,26.6666666666667,4|0|0|0|0,0:3|0:0|0:0|0:0|0:0,0:0:0:0:
229,129,74057,6,0,P|195:134|156:132,2,53.3333333333333,0|0|0,0:0|0:0|0:0,0:0:0:0:
221,203,74340,2,0,P|194:224|159:242,2,53.3333333333333,0|0|0,0:0|0:0|0:0,0:0:0:0:
251,271,74623,2,0,P|238:302|217:335,2,53.3333333333333,4|0|0,0:3|0:0|0:0,0:0:0:0:
317,305,74906,2,0,P|322:339|320:378,2,53.3333333333333,0|4|0,0:0|0:3|0:0,0:0:0:0:
391,315,75189,2,0,P|404:346|412:384,2,53.3333333333333,0|0|4,0:0|0:0|0:3,0:0:0:0:
465,302,75472,2,0,P|492:322|518:351,2,53.3333333333333,0|0|0,0:0|0:0|0:0,0:0:0:0:
414,244,75755,6,0,P|408:205|413:166,2,80,0|2|0,0:0|0:2|0:0,0:0:0:0:
307,216,76179,1,2,0:2:0:0:
307,216,76321,2,0,P|282:184|266:148,2,80,0|2|0,0:0|0:2|0:0,0:0:0:0:
156,296,76745,1,2,0:3:0:0:
88,234,76887,6,0,P|63:180|64:138,1,80,4|0,0:1|0:0,0:0:0:0:
173,161,77170,2,0,P|178:101|200:65,1,80,2|0,0:3|0:0,0:0:0:0:
285,137,77453,2,0,P|319:88|356:68,1,80,4|0,0:1|0:0,0:0:0:0:
396,170,77736,2,0,P|430:151|469:144,1,80,2|0,0:3|0:0,0:0:0:0:
367,306,78019,6,0,P|336:280|314:248,1,80,4|0,0:1|0:0,0:0:0:0:
218,307,78302,2,0,P|203:269|200:229,1,80,2|0,0:3|0:0,0:0:0:0:
88,231,78585,2,0,P|94:191|111:155,1,80,4|0,0:1|0:0,0:0:0:0:
13,100,78868,2,0,P|38:69|122:35,1,120,2|0,0:3|0:0,0:0:0:0:
133,38,79151,5,4,0:3:0:0:
225,101,79293,2,0,P|264:101|302:88,1,80,4|0,0:3|0:0,0:0:0:0:
393,22,79576,1,0,0:0:0:0:
409,132,79717,2,0,P|407:171|389:207,1,80,4|0,0:3|0:0,0:0:0:0:
474,280,80000,2,0,P|444:306|406:319,1,80,4|0,0:3|0:0,0:0:0:0:
301,277,80283,1,0,0:0:0:0:
188,259,80425,2,0,P|169:260|150:267,5,40,0|0|0|0|0|0,3:0|3:0|3:0|3:0|3:0|3:0,0:0:0:0:
122,269,80849,1,0,3:0:0:0:
96,256,80920,1,0,3:0:0:0:
81,232,80991,1,0,3:0:0:0:
81,204,81061,1,0,3:0:0:0:
100,182,81132,6,0,P|107:144|94:106,1,80,4|0,0:3|0:0,0:0:0:0:
211,193,81415,2,0,P|252:208|295:210,1,80,4|0,0:3|0:0,0:0:0:0:
493,141,81698,2,0,P|434:132|375:139,1,120,4|0,0:2|0:0,0:0:0:0:
350,152,81981,2,0,P|287:126|260:60,1,120,4|0,0:2|0:0,0:0:0:0:
254,54,82264,2,0,P|215:41|171:43,1,80,4|0,0:3|0:0,0:0:0:0:
13,78,82547,5,0,0:0:0:0:
117,118,82689,2,0,P|154:150|175:193,1,80,0|0,0:0|0:0,0:0:0:0:
205,283,82972,1,0,0:0:0:0:
310,319,83113,2,0,P|349:311|382:290,1,80,4|0,0:3|0:0,0:0:0:0:
451,201,83396,6,0,P|412:198|374:185,1,80,4|0,0:3|0:0,0:0:0:0:
290,111,83679,1,0,0:0:0:0:
270,221,83821,2,0,P|273:262|292:306,1,80,4|0,0:3|0:0,0:0:0:0:
386,351,84104,2,0,P|409:355|426:363,2,40,4|4|0,0:3|0:3|0:0,0:0:0:0:
219,327,84387,1,4,0:3:0:0:
108,312,84528,6,0,P|86:299|56:294,1,40,0|4,0:0|0:3,0:0:0:0:
110,275,84670,2,0,P|93:249|73:235,1,40,0|4,0:0|0:3,0:0:0:0:
125,240,84811,1,0,0:0:0:0:
144,219,84882,1,4,0:3:0:0:
158,194,84953,1,0,0:0:0:0:
166,167,85024,1,4,0:3:0:0:
166,138,85095,2,0,P|205:108|296:114,1,120,4|0,0:2|0:0,0:0:0:0:
298,117,85378,1,0,0:0:0:0:
395,170,85519,1,0,0:0:0:0:
300,230,85661,1,0,0:0:0:0:
398,282,85802,1,0,0:0:0:0:
303,342,85944,5,4,0:3:0:0:
303,342,86085,2,0,P|264:344|225:334,1,80,4|0,0:3|0:0,0:0:0:0:
223,221,86368,1,0,0:0:0:0:
223,221,86510,2,0,P|188:203|159:175,1,80,4|0,0:3|0:0,0:0:0:0:
84,33,86793,2,0,P|80:72|66:110,1,80,0|0,0:0|0:0,0:0:0:0:
173,77,87076,2,0,L|227:45,3,40,4|0|0|0,0:2|0:0|3:0|0:0,0:0:0:0:
215,95,87359,2,0,L|275:78,3,40,0|0|0|0,3:0|3:0|3:0|0:0,0:0:0:0:
254,124,87642,2,0,L|316:123,1,40,0|0,3:0|3:0,0:0:0:0:
284,162,87783,2,0,L|344:177,1,40,0|0,3:0|3:0,0:0:0:0:
302,207,87925,6,0,P|335:228|360:259,1,80,4|0,0:3|0:0,0:0:0:0:
463,216,88208,2,0,P|481:251|486:290,1,80,0|0,0:3|0:0,0:0:0:0:
399,363,88491,2,0,P|340:364|284:343,1,120,4|0,0:2|0:0,0:0:0:0:
262,325,88774,2,0,P|286:276|265:191,1,120,4|0,0:2|0:0,0:0:0:0:
259,191,89057,6,0,P|223:228|178:242,1,80,4|0,0:3|0:0,0:0:0:0:
148,137,89340,2,0,P|111:150|71:147,1,80,4|0,0:3|0:0,0:0:0:0:
213,44,89623,1,0,0:0:0:0:
263,143,89764,1,0,0:0:0:0:
280,164,89835,1,0,0:0:0:0:
304,178,89906,1,0,3:0:0:0:
330,186,89977,1,0,3:0:0:0:
357,190,90047,1,0,3:0:0:0:
385,187,90118,1,0,3:0:0:0:
411,178,90189,2,0,P|438:134|443:100,1,80,4|4,0:3|0:3,0:0:0:0:
333,81,90472,6,0,P|307:71|283:58,2,53.3333333333333,4|0|0,0:3|0:0|0:0,0:0:0:0:
245,122,90755,2,0,P|218:120|192:114,2,53.3333333333333,0|0|0,0:0|0:0|0:0,0:0:0:0:
179,187,91038,2,0,P|152:192|126:193,2,53.3333333333333,4|0|0,0:3|0:0|0:0,0:0:0:0:
150,265,91321,2,0,P|123:277|83:285,2,53.3333333333333,0|0|0,0:0|0:0|0:0,0:0:0:0:
222,251,91604,6,0,P|247:260|271:273,2,53.3333333333333,4|0|0,0:3|0:0|0:0,0:0:0:0:
296,201,91887,2,0,P|318:217|338:234,2,53.3333333333333,0|0|4,0:0|0:0|0:3,0:0:0:0:
374,169,92170,2,0,P|391:189|406:211,2,53.3333333333333,4|0|0,0:3|0:0|0:0,0:0:0:0:
460,161,92453,2,0,P|471:188|480:215,2,53.3333333333333,0|0|0,0:0|0:0|0:0,0:0:0:0:
411,103,92736,5,4,3:1:0:0:
51,183,96132,6,0,B|30:94|121:50|121:50|242:191|410:78,1,480,4|0,0:0|0:0,0:0:0:0:
390,360,97264,6,0,P|411:351|432:339,3,47.9999985351563,4|0|0|0,0:2|0:0|0:0|0:0,0:0:0:0:
392,326,97547,2,0,P|407:307|418:285,3,47.9999985351563,4|0|0|0,0:2|0:0|0:0|0:0,0:0:0:0:
376,293,97830,2,0,P|380:269|379:245,3,47.9999985351563,4|0|0|0,0:2|0:0|0:0|0:0,0:0:0:0:
344,270,98113,2,0,P|336:247|323:227,3,47.9999985351563,4|0|0|0,0:2|0:0|0:0|0:0,0:0:0:0:
300,263,98396,6,0,P|284:281|258:303,1,47.9999985351563,4|0,0:2|0:0,0:0:0:0:
258,253,98538,2,0,P|237:266|207:280,1,47.9999985351563,0|0,0:0|0:0,0:0:0:0:
223,234,98679,2,0,P|199:239|165:242,1,47.9999985351563,4|0,0:2|0:0,0:0:0:0:
197,204,98821,2,0,P|172:203|139:197,1,47.9999985351563,0|0,0:0|0:0,0:0:0:0:
176,166,98962,2,0,P|155:153|129:131,1,47.9999985351563,4|0,0:2|0:0,0:0:0:0:
179,127,99104,5,0,3:0:0:0:
211,134,99175,1,0,3:0:0:0:
244,135,99245,1,0,3:0:0:0:
277,127,99316,1,0,3:0:0:0:
307,110,99387,1,0,3:0:0:0:
330,85,99458,1,0,3:0:0:0:
343,55,99528,6,0,L|343:28,6,23.9999992675781,0|0|0|0|0|0|0,0:0|0:0|0:0|0:0|0:0|0:0|0:0,0:0:0:0:
371,73,99811,2,0,L|384:49,6,23.9999992675781,0|0|0|0|0|0|0,0:0|0:0|0:0|0:0|0:0|0:0|0:0,0:0:0:0:
393,98,100095,2,0,L|416:84,6,23.9999992675781,0|0|0|0|0|0|0,0:0|0:0|0:0|3:0|3:0|3:0|3:0,0:0:0:0:
395,131,100378,6,0,P|388:180|411:241,1,95.9999970703126,2|0,0:3|0:0,0:0:0:0:
285,237,100661,2,0,P|302:281|336:314,1,95.9999970703126,4|0,0:2|0:0,0:0:0:0:
186,296,100944,2,0,P|138:291|91:300,1,95.9999970703126,2|0,0:3|0:0,0:0:0:0:
82,185,101227,2,0,P|38:204|2:236,1,95.9999970703126,4|0,0:2|0:0,0:0:0:0:
196,197,101510,6,0,P|215:150|215:120,2,63.9999980468751,2|0|0,0:3|0:0|0:0,0:0:0:0:
271,211,101793,2,0,P|317:202|363:215,1,95.9999970703126,4|0,0:2|0:0,0:0:0:0:
316,109,102076,2,0,P|351:77|397:65,1,95.9999970703126,2|0,0:3|0:0,0:0:0:0:
204,139,102359,2,0,P|153:103|130:68,1,95.9999970703126,4|0,0:2|0:0,0:0:0:0:
118,190,102642,2,0,P|55:184|18:165,1,95.9999970703126,2|0,0:3|0:0,0:0:0:0:
2,76,102925,5,4,0:1:0:0:
256,192,103066,12,2,104906,2:2:0:0:
191,144,105189,6,0,P|236:101|252:62,1,95.9999970703126,4|0,0:2|0:0,0:0:0:0:
309,251,105472,2,0,P|325:206|324:159,1,95.9999970703126,2|0,0:3|0:0,0:0:0:0:
335,44,105755,2,0,P|382:57|423:85,1,95.9999970703126,4|0,0:2|0:0,0:0:0:0:
439,111,105967,1,0,0:0:0:0:
449,143,106038,1,2,0:3:0:0:
422,254,106179,1,0,0:0:0:0:
390,241,106250,1,0,0:0:0:0:
356,238,106321,6,0,P|308:244|262:266,1,95.9999970703126,4|0,0:2|0:0,0:0:0:0:
129,360,106604,2,0,P|150:318|149:271,1,95.9999970703126,2|0,0:3|0:0,0:0:0:0:
131,242,106816,1,0,0:0:0:0:
105,219,106887,1,4,0:2:0:0:
19,142,107028,2,0,P|14:112|16:88,1,47.9999985351563,0|0,0:0|0:0,0:0:0:0:
53,116,107170,2,0,P|63:87|77:67,1,47.9999985351563,2|0,0:3|0:0,0:0:0:0:
100,106,107311,1,0,0:0:0:0:
213,128,107453,2,0,P|260:129|306:117,1,95.9999970703126,4|0,0:2|0:0,0:0:0:0:
399,47,107736,6,0,P|417:70|427:90,1,47.9999985351563,2|0,0:3|0:0,0:0:0:0:
460,59,107878,2,0,P|464:87|462:110,1,47.9999985351563,0|0,0:0|0:0,0:0:0:0:
506,102,108019,2,0,P|495:129|482:147,1,47.9999985351563,4|0,0:2|0:0,0:0:0:0:
414,166,108161,5,0,0:0:0:0:
385,182,108231,1,0,0:0:0:0:
361,205,108302,2,0,P|355:233|358:254,1,47.9999985351563,2|0,0:3|0:0,0:0:0:0:
316,234,108444,2,0,P|317:257|325:280,1,47.9999985351563,0|0,0:0|0:0,0:0:0:0:
244,228,108585,5,4,0:2:0:0:
211,220,108656,1,0,0:0:0:0:
177,217,108727,1,0,0:0:0:0:
143,219,108797,1,0,0:0:0:0:
109,227,108868,2,0,P|86:230|62:227,1,47.9999985351563,2|0,0:3|0:0,0:0:0:0:
108,153,109010,5,0,0:0:0:0:
134,132,109080,1,0,0:0:0:0:
163,115,109151,1,4,0:2:0:0:
195,105,109222,1,0,0:0:0:0:
228,102,109293,2,0,P|256:108|290:106,1,47.9999985351563,0|0,0:0|0:0,0:0:0:0:
346,97,109434,6,0,P|310:142|329:243,1,143.999995605469,2|0,0:3|0:0,0:0:0:0:
336,249,109717,6,0,P|289:241|242:247,1,95.9999970703126,4|0,0:2|0:0,0:0:0:0:
165,160,110000,2,0,P|125:187|96:224,1,95.9999970703126,2|0,0:3|0:0,0:0:0:0:
72,338,110283,1,4,0:2:0:0:
105,337,110354,1,0,0:0:0:0:
137,326,110425,1,0,0:0:0:0:
229,258,110566,2,0,P|294:270|329:297,1,95.9999970703126,2|0,0:3|0:0,0:0:0:0:
320,169,110849,2,0,P|316:122|332:77,1,95.9999970703126,4|0,0:2|0:0,0:0:0:0:
424,148,111132,2,0,P|454:111|497:91,1,95.9999970703126,2|0,0:3|0:0,0:0:0:0:
467,255,111415,6,0,P|410:258|366:246,1,95.9999970703126,4|0,0:2|0:0,0:0:0:0:
266,202,111698,1,2,0:3:0:0:
232,202,111769,1,0,0:0:0:0:
199,211,111840,1,0,0:0:0:0:
95,261,111981,2,0,P|46:223|36:182,1,95.9999970703126,4|0,0:2|0:0,0:0:0:0:
141,143,112264,2,0,P|177:91|179:52,1,95.9999970703126,2|0,0:3|0:0,0:0:0:0:
279,119,112547,2,0,P|336:135|390:120,1,95.9999970703126,4|0,0:2|0:0,0:0:0:0:
335,238,112830,2,0,P|323:284|327:331,1,95.9999970703126,2|0,0:3|0:0,0:0:0:0:
447,207,113113,6,0,P|428:157|391:120,1,95.9999970703126,4|0,0:3|0:0,0:0:0:0:
291,167,113396,2,0,P|240:147|187:150,1,95.9999970703126,4|0,0:3|0:0,0:0:0:0:
111,222,113679,1,4,0:2:0:0:
80,206,113750,1,0,0:0:0:0:
58,179,113821,1,0,0:0:0:0:
45,147,113892,1,0,0:0:0:0:
44,113,113962,1,4,0:3:0:0:
159,102,114104,1,4,0:3:0:0:
258,44,114245,1,4,0:3:0:0:
368,76,114387,6,0,P|391:72|413:62,2,47.9999985351563,4|4|2,0:3|0:3|0:3,0:0:0:0:
359,192,114670,2,0,P|381:200|405:202,2,47.9999985351563,4|4|2,0:3|0:3|0:3,0:0:0:0:
298,290,114953,2,0,P|313:308|332:322,2,47.9999985351563,4|4|2,0:3|0:3|0:3,0:0:0:0:
189,330,115236,2,0,P|193:353|203:375,2,47.9999985351563,4|4|2,0:3|0:3|0:3,0:0:0:0:
113,242,115519,6,0,P|90:233|66:231,2,47.9999985351563,4|4|2,0:3|0:3|0:3,0:0:0:0:
226,221,115802,2,0,P|258:212|292:193,2,47.9999985351563,4|4|2,0:3|0:3|0:3,0:0:0:0:
210,106,116085,2,0,P|233:82|253:48,2,47.9999985351563,4|4|2,0:3|0:3|0:3,0:0:0:0:
325,104,116368,1,4,0:3:0:0:
358,106,116439,1,4,0:3:0:0:
389,117,116510,6,0,P|429:157|444:205,1,95.9999970703126,8|8,0:2|0:2,0:0:0:0:
326,199,116793,2,0,P|326:255|302:300,1,95.9999970703126,8|8,0:2|0:2,0:0:0:0:
221,216,117076,2,0,P|181:255|132:271,1,95.9999970703126,8|8,0:2|0:2,0:0:0:0:
145,153,117359,2,0,P|88:152|18:99,1,143.999995605469,4|0,0:2|0:0,0:0:0:0:
10,70,117642,5,0,0:0:0:0:
23,242,117783,1,0,0:0:0:0:
124,187,117925,1,0,0:0:0:0:
93,356,118066,1,0,0:0:0:0:
196,303,118208,2,0,P|210:285|218:262,3,47.9999985351563,4|0|0|0,0:2|0:0|0:0|0:0,0:0:0:0:
250,292,118491,2,0,P|259:270|261:246,3,47.9999985351563,2|0|0|0,0:3|0:0|0:0|0:0,0:0:0:0:
299,265,118774,2,0,P|321:258|345:257,1,47.9999985351563,4|0,0:2|0:0,0:0:0:0:
327,218,118915,2,0,P|350:216|374:222,1,47.9999985351563,0|0,0:0|0:0,0:0:0:0:
364,179,119057,2,0,P|386:186|407:198,1,47.9999985351563,2|0,0:3|0:0,0:0:0:0:
413,156,119198,2,0,P|430:172|443:192,1,47.9999985351563,0|0,0:0|0:0,0:0:0:0:
454,225,119340,6,0,P|463:156|487:117,1,95.9999970703126,4|8,0:2|0:2,0:0:0:0:
361,111,119623,2,0,P|386:71|424:42,1,95.9999970703126,8|8,0:2|0:2,0:0:0:0:
252,72,119906,2,0,P|189:66|151:48,1,95.9999970703126,8|8,0:2|0:2,0:0:0:0:
155,168,120189,2,0,P|97:194|55:197,1,95.9999970703126,8|8,0:2|0:2,0:0:0:0:
166,253,120472,2,0,P|206:290|224:335,1,95.9999970703126,8|8,0:2|0:2,0:0:0:0:
320,266,120755,2,0,P|335:311|331:358,1,95.9999970703126,8|8,0:2|0:2,0:0:0:0:
433,245,121038,6,0,P|460:236|495:237,2,47.9999985351563,0|0|0,0:0|0:0|0:0,0:0:0:0:
355,158,121321,2,0,P|386:123|399:77,1,95.9999970703126,0|0,0:0|0:0,0:0:0:0:
245,120,121604,2,0,P|205:121|172:115,2,63.9999980468751,0|0|0,0:0|0:0|0:0,0:0:0:0:
221,193,121887,2,0,P|187:214|155:225,2,63.9999980468751,0|0|0,0:0|0:0|0:0,0:0:0:0:
237,268,122170,2,0,P|218:303|196:328,2,63.9999980468751,0|0|0,0:0|0:0|0:0,0:0:0:0:
291,211,122453,2,0,P|337:200|383:209,1,95.9999970703126,4|0,0:3|0:0,0:0:0:0:
385,93,122736,2,0,P|431:105|467:136,1,95.9999970703126,4|4,0:2|0:3,0:0:0:0:
276,129,123019,2,0,P|211:115|142:48,1,143.999995605469,2|0,0:3|0:0,0:0:0:0:
144,33,123302,6,0,P|139:80|116:122,1,95.9999970703126,4|0,0:2|0:0,0:0:0:0:
209,190,123585,2,0,P|180:228|140:253,1,95.9999970703126,2|0,0:3|0:0,0:0:0:0:
310,244,123868,2,0,P|356:254|395:281,1,95.9999970703126,4|0,0:2|0:0,0:0:0:0:
362,170,124151,1,2,0:3:0:0:
360,136,124222,1,0,0:0:0:0:
364,102,124293,1,0,0:0:0:0:
376,71,124363,1,0,0:0:0:0:
394,43,124434,2,0,P|351:61|303:65,1,95.9999970703126,4|0,0:2|0:0,0:0:0:0:
107,44,124717,2,0,P|153:57|190:88,1,95.9999970703126,2|0,0:3|0:0,0:0:0:0:
142,189,125000,6,0,P|138:228|151:266,1,80,8|0,0:3|0:0,0:0:0:0:
251,164,125283,2,0,P|276:133|312:115,1,80,0|0,0:0|0:0,0:0:0:0:
424,116,125566,1,0,0:0:0:0:
372,215,125708,2,0,P|381:232|393:249,3,40,0|0|0|0,0:0|0:0|0:0|0:0,0:0:0:0:
344,277,125991,2,0,P|360:287|379:295,3,40,2|0|2|0,0:2|0:0|0:2|0:0,0:0:0:0:
302,222,126274,1,0,0:0:0:0:
275,213,126345,1,0,0:0:0:0:
247,210,126415,1,0,0:0:0:0:
218,210,126486,1,0,0:0:0:0:
190,213,126557,1,0,0:0:0:0:
162,220,126628,1,0,0:0:0:0:
137,231,126698,6,0,P|97:207|76:165,1,95.9999970703126,4|0,0:2|0:0,0:0:0:0:
179,126,126981,2,0,P|167:80|182:36,1,95.9999970703126,2|0,0:3|0:0,0:0:0:0:
291,75,127264,1,4,0:2:0:0:
323,82,127335,1,0,0:0:0:0:
356,85,127406,1,0,0:0:0:0:
389,81,127477,1,0,0:0:0:0:
419,67,127547,2,0,P|465:78|502:107,1,95.9999970703126,2|0,0:3|0:0,0:0:0:0:
351,161,127830,6,0,P|320:196|310:242,1,95.9999970703126,4|0,0:2|0:0,0:0:0:0:
323,357,128113,1,2,0:3:0:0:
235,281,128255,1,0,0:0:0:0:
207,261,128326,1,0,0:0:0:0:
174,250,128396,2,0,P|127:251|83:269,1,95.9999970703126,4|4,0:3|0:3,0:0:0:0:
141,169,128679,5,2,0:3:0:0:
160,140,128750,1,0,0:0:0:0:
168,106,128821,2,0,P|168:59|150:15,1,95.9999970703126,4|4,0:3|0:3,0:0:0:0:
253,66,129104,5,0,0:0:0:0:
286,77,129175,1,0,0:0:0:0:
320,80,129245,2,0,P|366:70|405:42,1,95.9999970703126,2|0,0:3|0:0,0:0:0:0:
504,93,129528,2,0,P|494:139|465:177,1,95.9999970703126,4|0,0:2|0:0,0:0:0:0:
348,176,129811,6,0,P|320:162|287:155,2,63.9999980468751,2|0|0,0:3|0:0|0:0,0:0:0:0:
295,233,130095,2,0,P|263:226|229:227,2,63.9999980468751,4|0|0,0:2|0:0|0:0,0:0:0:0:
254,298,130378,2,0,P|223:300|192:309,2,63.9999980468751,2|0|0,0:3|0:0|0:0,0:0:0:0:
154,241,130661,2,0,P|123:232|95:215,2,63.9999980468751,4|0|0,0:2|0:0|0:0,0:0:0:0:
151,163,130944,2,0,P|128:140|112:110,2,63.9999980468751,2|0|0,0:3|0:0|0:0,0:0:0:0:
221,130,131227,6,0,B|305:140|377:71|377:71|461:99|477:204|414:276,1,420.000016021729,8|0,0:3|0:0,0:0:0:0:
334,359,132359,6,0,P|280:352|238:322,1,95.9999970703126,4|0,0:2|0:0,0:0:0:0:
168,181,132642,2,0,P|165:228|145:272,2,95.9999970703126,2|0|0,0:3|0:0|0:0,0:0:0:0:
137,11,133066,1,4,0:2:0:0:
209,100,133208,1,0,0:0:0:0:
300,30,133349,1,2,0:3:0:0:
317,143,133491,6,0,P|311:190|288:231,1,95.9999970703126,0|2,0:0|0:3,0:0:0:0:
370,312,133774,2,0,P|332:341|286:354,1,95.9999970703126,0|2,0:0|0:3,0:0:0:0:
107,271,134057,2,0,P|154:264|201:276,1,95.9999970703126,0|2,0:0|0:3,0:0:0:0:
107,110,134340,2,0,P|151:127|186:161,1,95.9999970703126,0|2,0:0|0:3,0:0:0:0:
231,266,134623,5,0,0:0:0:0:
299,174,134764,1,2,0:2:0:0:
331,164,134835,1,0,0:0:0:0:
364,162,134906,1,0,0:0:0:0:
397,166,134977,1,0,0:0:0:0:
427,178,135047,1,2,0:3:0:0:
367,277,135189,1,0,0:0:0:0:
302,117,135330,1,2,0:3:0:0:
282,89,135401,1,0,0:0:0:0:
252,72,135472,1,0,0:0:0:0:
137,59,135613,6,0,P|89:65|48:88,1,95.9999970703126,2|0,0:3|0:0,0:0:0:0:
82,198,135896,2,0,L|57:249,2,47.9999985351563,4|0|0,0:2|0:0|0:0,0:0:0:0:
167,276,136179,2,0,L|156:331,2,47.9999985351563,4|0|0,0:2|0:0|0:0,0:0:0:0:
193,163,136462,1,2,0:3:0:0:
277,242,136604,2,0,P|330:266|429:252,1,143.999995605469,8|0,0:3|0:0,0:0:0:0:
439,247,136887,6,0,P|388:223|360:186,1,80,4|0,0:3|0:0,0:0:0:0:
310,49,137170,1,0,0:0:0:0:
285,157,137311,1,0,0:0:0:0:
259,167,137382,1,0,0:0:0:0:
230,169,137453,2,0,P|211:168|191:162,1,40,0|0,0:0|3:0,0:0:0:0:
57,126,137736,6,0,P|60:147|76:177,3,40,0|0|0|0,0:0|0:0|0:0|0:0,0:0:0:0:
40,174,138019,2,0,P|53:190|81:208,3,40,0|0|0|0,0:0|0:0|0:0|0:0,0:0:0:0:
44,228,138302,2,0,P|63:235|97:237,3,40,0|0|0|0,0:0|0:0|0:0|0:0,0:0:0:0:
79,278,138585,2,0,P|100:275|130:259,3,40,0|0|0|0,0:0|0:0|0:0|0:0,0:0:0:0:
150,202,138868,2,0,P|169:201|189:204,1,40,0|0,0:0|0:0,0:0:0:0:
194,131,139010,2,0,P|213:134|231:142,1,40,4|4,0:3|0:3,0:0:0:0:
251,162,139151,5,0,0:0:0:0:
275,175,139222,1,0,0:0:0:0:
302,181,139293,1,0,0:0:0:0:
329,182,139363,1,0,0:0:0:0:
356,174,139434,2,0,P|392:189|423:226,1,80,0|0,0:0|0:0,0:0:0:0:
328,285,139717,2,0,P|342:321|338:369,1,80,0|0,0:0|0:0,0:0:0:0:
230,336,140000,1,0,0:0:0:0:
203,328,140071,1,4,0:3:0:0:
175,324,140142,1,4,0:3:0:0:
147,325,140212,1,4,0:3:0:0:
119,331,140283,1,4,0:2:0:0:
65,232,140425,6,0,P|47:209|28:195,2,40,4|4|4,0:3|0:3|0:2,0:0:0:0:
144,153,140708,2,0,P|139:125|130:102,2,40,4|4|4,0:3|0:3|0:2,0:0:0:0:
254,135,140991,2,0,P|264:108|267:84,2,40,4|4|4,0:3|0:3|0:2,0:0:0:0:
216,240,141274,1,4,0:3:0:0:
216,240,141345,2,0,P|268:306|378:298,1,200,4|4,0:3|0:2,0:0:0:0:
422,207,141840,5,0,3:0:0:0:
411,180,141911,1,0,3:0:0:0:
408,152,141981,1,0,3:0:0:0:
411,124,142052,1,0,3:0:0:0:
418,96,142123,1,0,3:0:0:0:
431,71,142194,1,0,3:0:0:0:
451,52,142264,2,0,P|393:65|351:54,1,80,4|4,3:3|3:3,0:0:0:0:
263,41,142547,2,0,P|189:53|164:76,1,80,0|0,3:0|3:0,0:0:0:0:
148,160,142830,5,0,3:0:0:0:
157,186,142901,1,0,3:0:0:0:
162,213,142972,1,0,3:0:0:0:
161,241,143043,1,0,3:0:0:0:
153,267,143113,2,0,P|176:298|212:314,1,80,0|0,3:0|3:0,0:0:0:0:
377,255,143396,2,0,P|341:239|302:245,1,80,0|0,3:0|3:0,0:0:0:0:
256,139,143679,6,0,P|245:159|229:179,3,47.9999985351563,2|0|0|0,0:3|0:2|0:2|0:2,0:0:0:0:
207,99,143962,2,0,P|209:122|205:146,3,47.9999985351563,2|0|0|0,0:3|0:2|0:2|0:2,0:0:0:0:
146,89,144245,2,0,P|159:108|167:131,3,47.9999985351563,2|0|0|0,0:3|0:2|0:2|0:2,0:0:0:0:
89,107,144528,2,0,P|109:116|129:133,3,47.9999985351563,2|0|0|0,0:3|0:2|0:2|0:2,0:0:0:0:
113,156,144811,6,0,P|116:195|100:231,1,80,4|0,0:3|0:0,0:0:0:0:
13,349,145095,2,0,P|51:336|91:336,1,80,4|0,0:3|0:0,0:0:0:0:
193,356,145378,1,0,0:0:0:0:
286,308,145519,1,0,0:0:0:0:
301,284,145590,1,0,0:0:0:0:
308,255,145661,2,0,P|302:216|278:183,1,80,4|0,0:3|0:0,0:0:0:0:
176,136,145944,6,0,P|182:117|183:97,3,40,4|4|0|0,0:3|0:3|0:0|0:0,0:0:0:0:
226,119,146227,2,0,P|240:105|251:88,3,40,0|0|4|4,0:0|0:0|0:3|0:3,0:0:0:0:
279,128,146510,2,0,P|298:123|316:114,3,40,0|0|4|4,0:0|0:0|0:3|0:3,0:0:0:0:
315,162,146793,2,0,P|333:168|353:169,3,40,0|0|0|0,0:0|0:0|0:0|0:0,0:0:0:0:
304,208,147076,6,0,P|254:236|209:240,2,80,0|2|0,0:0|0:2|0:0,0:0:0:0:
412,236,147500,1,2,0:2:0:0:
412,236,147642,2,0,P|455:272|474:313,2,80,0|2|0,0:0|0:2|0:0,0:0:0:0:
381,127,148066,6,0,P|395:90|423:62,1,80,4|4,0:1|0:1,0:0:0:0:
423,62,148774,5,4,0:1:0:0:
423,62,149340,6,0,P|387:79|348:83,1,80,4|0,0:3|0:0,0:0:0:0:
180,69,149623,2,0,P|215:89|241:120,1,80,4|0,0:3|0:0,0:0:0:0:
280,283,149906,1,4,0:1:0:0:
311,177,150047,1,4,0:3:0:0:
202,210,150189,2,0,P|143:210|89:186,1,120,4|0,0:2|0:0,0:0:0:0:
70,165,150472,5,4,0:3:0:0:
102,271,150613,2,0,P|101:310|86:347,1,80,0|0,0:0|0:0,0:0:0:0:
185,292,150896,1,0,0:0:0:0:
285,342,151038,2,0,P|322:330|362:332,1,80,4|0,0:3|0:0,0:0:0:0:
511,334,151321,2,0,P|481:310|460:275,1,80,4|0,0:3|0:0,0:0:0:0:
433,167,151604,5,0,0:0:0:0:
356,85,151745,1,0,0:0:0:0:
331,71,151816,1,0,0:0:0:0:
303,64,151887,2,0,P|260:62|219:74,1,80,4|0,0:3|0:0,0:0:0:0:
139,144,152170,1,0,0:0:0:0:
111,150,152241,1,0,0:0:0:0:
83,145,152311,1,4,0:3:0:0:
251,151,152453,2,0,P|282:202|281:262,1,120,0|0,0:0|0:0,0:0:0:0:
272,287,152736,6,0,P|316:262|371:263,1,80,4|0,0:2|0:0,0:0:0:0:
451,293,153019,2,0,P|464:299|476:300,6,20,0|0|0|0|0|0|0,0:0|0:0|0:0|0:0|0:0|0:0|0:0,0:0:0:0:
478,226,153302,2,0,P|491:221|500:213,6,20,0|0|0|0|0|0|0,0:0|0:0|0:0|0:0|0:0|0:0|0:0,0:0:0:0:
434,168,153585,2,0,P|429:111|443:77,1,80,4|0,0:3|0:0,0:0:0:0:
512,14,153868,5,4,0:3:0:0:
354,72,154010,2,0,P|315:78|276:72,1,80,4|0,0:3|0:0,0:0:0:0:
169,32,154293,1,0,0:0:0:0:
77,96,154434,2,0,P|66:134|68:174,1,80,4|0,0:3|0:0,0:0:0:0:
209,245,154717,2,0,P|201:207|179:173,1,80,4|0,0:3|0:0,0:0:0:0:
313,232,155000,5,0,0:0:0:0:
401,177,155142,1,0,3:0:0:0:
412,151,155212,1,0,3:0:0:0:
414,123,155283,2,0,P|412:96|403:72,2,40,4|4|2,3:3|3:3|3:2,3:0:0:0:
286,152,155566,5,0,3:0:0:0:
264,169,155637,1,0,3:0:0:0:
248,193,155708,2,0,P|243:212|241:231,2,40,4|0|2,3:3|3:0|3:2,3:0:0:0:
142,261,155991,5,0,3:0:0:0:
115,269,156061,1,0,3:0:0:0:
86,269,156132,2,0,P|60:266|45:257,2,40,4|4|2,3:3|3:3|3:2,3:0:0:0:
91,164,156415,5,0,3:3:0:0:
110,144,156486,1,0,3:3:0:0:
135,131,156557,1,0,3:3:0:0:
162,126,156628,1,0,0:0:0:0:
189,127,156698,2,0,P|227:137|260:159,1,80,2|0,3:2|0:0,0:0:0:0:
239,262,156981,2,0,P|271:285|295:316,1,80,0|0,0:0|0:0,0:0:0:0:
338,213,157264,5,4,0:3:0:0:
383,109,157406,2,0,P|409:79|445:62,1,80,4|0,0:3|0:0,0:0:0:0:
277,75,157689,1,0,0:0:0:0:
277,75,157830,2,0,P|239:83|199:79,1,80,4|0,0:3|0:0,0:0:0:0:
93,38,158113,1,4,0:3:0:0:
43,138,158255,1,0,0:0:0:0:
36,249,158396,6,0,B|37:317|103:362|103:362|130:279|214:279,1,280,8|0,0:3|0:0,0:0:0:0:
386,289,159528,6,0,P|332:263|299:215,1,120,4|0,0:3|0:0,0:0:0:0:
296,187,159811,2,0,P|236:182|175:223,1,120,4|0,0:2|0:0,0:0:0:0:
177,238,160095,2,0,P|159:171|103:129,1,120,4|0,0:2|0:0,0:0:0:0:
101,119,160378,2,0,P|187:129|245:93,1,120,4|0,0:3|0:0,0:0:0:0:
236,97,160661,2,0,P|289:74|347:86,1,120,4|0,0:3|0:0,0:0:0:0:
369,106,160944,5,2,0:2:0:0:
341,214,161085,1,0,0:0:0:0:
338,241,161156,1,0,0:0:0:0:
338,269,161227,2,0,P|351:293|372:313,1,40,0|0,3:0|3:0,0:0:0:0:
314,357,161368,2,0,P|329:369|349:374,1,40,0|0,3:0|3:0,0:0:0:0:
264,303,161510,2,0,P|221:297|184:305,1,80,4|0,0:3|0:0,0:0:0:0:
89,245,161793,6,0,L|70:280,3,40,4|0|0|0,0:2|0:0|0:0|0:0,0:0:0:0:
80,189,162076,2,0,L|45:210,3,40,2|0|0|0,0:3|0:0|0:0|0:0,0:0:0:0:
104,138,162359,2,0,L|64:139,3,40,4|0|0|0,0:2|0:0|0:0|0:0,0:0:0:0:
146,100,162642,2,0,L|110:81,3,40,2|0|0|0,0:3|0:0|0:0|0:0,0:0:0:0:
184,141,162925,6,0,L|197:185,3,40,4|0|0|0,0:2|0:0|0:0|0:0,0:0:0:0:
239,144,163208,2,0,L|272:175,3,40,2|0|0|0,0:3|0:0|0:0|0:0,0:0:0:0:
296,123,163491,2,0,L|341:133,3,40,4|0|0|0,0:2|0:0|0:0|0:0,0:0:0:0:
334,75,163774,2,0,L|378:61,3,40,2|0|0|0,0:3|0:0|0:0|0:0,0:0:0:0:
334,21,164057,5,4,0:1:0:0:
256,192,164198,12,2,167170,0:2:0:0:
215,78,167453,5,2,0:0:0:0:
309,101,167595,2,0,L|347:113,1,40,0|0,0:0|0:0,0:0:0:0:
327,133,167736,2,0,L|373:163,1,40,2|0,0:0|0:0,0:0:0:0:
335,167,167878,2,0,L|372:208,1,40,0|0,0:0|0:0,0:0:0:0:
333,198,168019,2,0,L|351:233,1,40,2|0,0:2|0:0,0:0:0:0:
304,198,168161,1,0,0:0:0:0:
276,193,168231,1,0,0:0:0:0:
247,191,168302,1,2,0:2:0:0:
219,193,168373,1,0,0:0:0:0:
192,202,168444,2,0,P|143:206|105:194,1,80,0|2,0:0|0:0,0:0:0:0:
85,66,168727,2,0,P|121:81|151:109,1,80,0|0,0:0|0:0,0:0:0:0:
233,58,169010,2,0,P|247:94|249:134,1,80,0|0,0:0|0:0,0:0:0:0:
208,272,169293,5,0,0:0:0:0:
229,253,169363,1,0,0:0:0:0:
254,241,169434,1,0,0:0:0:0:
281,236,169505,1,0,0:0:0:0:
309,235,169576,1,0,0:0:0:0:
336,238,169646,1,0,0:0:0:0:
361,250,169717,2,0,P|400:243|431:218,1,80,2|0,0:0|0:0,0:0:0:0:
414,81,170000,2,0,P|384:107|369:144,1,80,0|0,0:0|0:0,0:0:0:0:
284,97,170283,2,0,P|242:124|200:122,1,80,0|0,0:0|0:0,0:0:0:0:
109,52,170566,2,0,P|120:90|116:130,1,80,2|0,0:0|0:0,0:0:0:0:
56,261,170849,5,2,0:0:0:0:
131,201,170991,1,0,0:0:0:0:
158,198,171061,1,0,0:0:0:0:
185,202,171132,1,0,0:0:0:0:
210,213,171203,1,0,0:0:0:0:
230,231,171274,1,0,0:0:0:0:
246,253,171345,1,0,0:0:0:0:
255,279,171415,2,0,P|291:294|330:290,1,80,0|0,0:0|0:0,0:0:0:0:
449,225,171698,2,0,P|409:222|375:204,1,80,0|0,0:0|0:0,0:0:0:0:
273,112,171981,2,0,P|313:118|352:110,1,80,2|0,0:0|0:0,0:0:0:0:
431,55,172264,2,0,P|465:74|487:107,1,80,2|0,0:0|0:0,0:0:0:0:
416,172,172547,5,0,0:0:0:0:
365,307,172689,2,0,L|339:321,10,20,0|0|0|0|0|0|0|0|0|0|0,0:0|0:0|0:0|0:0|0:0|0:0|0:0|0:0|0:0|0:0|0:0,0:0:0:0:
373,280,173113,1,0,0:0:0:0:
304,212,173255,1,0,0:0:0:0:
211,187,173396,1,0,0:0:0:0:
114,192,173538,1,0,0:0:0:0:
22,219,173679,2,0,B|-12:172|9:134|9:134|46:135|81:99,1,160,0|0,0:0|0:0,0:0:0:0:
249,37,174245,6,0,P|242:76|218:107,1,80,2|0,0:0|0:0,0:0:0:0:
337,74,174528,1,0,0:0:0:0:
337,74,174670,2,0,P|399:66|440:77,1,80,0|0,0:0|0:0,0:0:0:0:
381,159,174953,2,0,P|430:197|451:233,1,80,0|2,0:0|0:0,0:0:0:0:
358,262,175236,2,0,P|344:301|349:354,2,80
285,196,175661,2,0,P|246:191|208:201,1,80,0|0,0:0|0:0,0:0:0:0:
84,273,175944,5,2,0:0:0:0:
84,273,176085,2,0,P|104:239|111:200,1,80
100,103,176368,2,0,P|133:81|172:74,1,80,0|2,0:0|0:0,0:0:0:0:
263,104,176651,1,0,0:0:0:0:
192,169,176793,1,0,0:0:0:0:
179,193,176863,1,0,0:0:0:0:
177,221,176934,1,0,0:0:0:0:
182,248,177005,1,0,0:0:0:0:
196,271,177076,2,0,P|171:301|133:312,1,80,2|0,0:0|0:0,0:0:0:0:
288,299,177359,2,0,P|327:302|362:321,1,80,2|0,0:0|0:0,0:0:0:0:
309,205,177642,6,0,P|299:167|307:128,1,80,2|0,0:0|0:0,0:0:0:0:
402,20,177925,1,0,0:0:0:0:
310,47,178066,1,0,0:0:0:0:
213,44,178208,2,0,P|130:57|87:95,1,120,2|0,0:0|0:0,0:0:0:0:
94,104,178491,2,0,P|146:115|191:166,1,120,2|0,0:0|0:0,0:0:0:0:
195,190,178774,1,0,0:0:0:0:
195,285,178915,1,0,0:0:0:0:
222,281,178986,1,0,0:0:0:0:
248,271,179057,1,0,0:0:0:0:
270,253,179128,1,0,0:0:0:0:
285,229,179198,1,0,0:0:0:0:
292,202,179269,1,0,0:0:0:0:
292,173,179340,6,0,P|272:119|244:97,1,80,2|0,0:0|0:0,0:0:0:0:
104,132,179623,2,0,P|137:154|177:159,1,80,0|0,0:0|0:0,0:0:0:0:
310,104,179906,1,2,0:0:0:0:
388,49,180047,2,0,P|423:66|452:94,1,80,0|0,0:0|0:0,0:0:0:0:
498,179,180330,1,0,0:0:0:0:
400,175,180472,2,0,P|361:181|330:205,1,80,2|0,0:0|0:0,0:0:0:0:
280,341,180755,1,0,0:0:0:0:
259,247,180896,1,0,0:0:0:0:
247,221,180967,1,0,0:0:0:0:
227,198,181038,6,0,P|193:179|153:177,1,80,2|0,0:0|0:0,0:0:0:0:
14,214,181321,1,0,0:0:0:0:
83,147,181462,1,0,0:0:0:0:
125,60,181604,2,0,P|185:44|261:65,1,120,2|0,0:0|0:0,0:0:0:0:
262,72,181887,2,0,P|333:95|397:54,1,120,0|0,0:0|0:0,0:0:0:0:
395,63,182170,1,2,0:0:0:0:
485,33,182311,2,0,P|505:50|517:68,1,40,0|0,0:0|0:0,0:0:0:0:
492,80,182453,1,0,0:0:0:0:
490,108,182524,1,0,0:0:0:0:
481,134,182595,1,0,0:0:0:0:
464,155,182665,1,0,0:0:0:0:
436,164,182736,6,0,P|397:207|396:266,1,120,2|0,0:0|0:0,0:0:0:0:
408,292,183019,2,0,P|357:250|272:252,1,120,2|0,0:0|0:0,0:0:0:0:
277,248,183302,2,0,P|220:265|151:235,1,120,2|0,0:0|0:0,0:0:0:0:
141,230,183585,2,0,P|198:182|208:135,1,120,2|0,0:0|0:0,0:0:0:0:
205,112,183868,2,0,P|255:134|323:128,1,120,2|0,0:0|0:0,0:0:0:0:
341,146,184151,2,0,P|308:195|253:216,1,120,2|0,0:0|0:0,0:0:0:0:
225,211,184434,6,0,P|157:195|121:205,2,80,0|0|0,0:0|0:0|0:0,0:0:0:0:
229,303,184859,2,0,P|169:339|151:372,2,80,0|2|0,0:0|0:0|0:0,0:0:0:0:
319,269,185283,2,0,P|362:258|393:237,1,80,2|0,0:0|0:0,0:0:0:0:
318,175,185566,2,0,P|339:136|346:99,1,80,2|0,0:0|0:0,0:0:0:0:
268,45,185849,2,0,P|224:39|169:65,1,80,2|0,0:0|0:0,0:0:0:0:
212,144,186132,5,2,0:0:0:0:
212,172,186203,1,0,0:0:0:0:
205,199,186274,1,0,0:0:0:0:
191,223,186345,1,0,0:0:0:0:
167,237,186415,1,0,0:0:0:0:
139,243,186486,1,0,0:0:0:0:
111,238,186557,1,0,0:0:0:0:
86,224,186628,1,0,0:0:0:0:
67,202,186698,2,0,P|35:225|21:261,1,80,2|0,0:0|0:0,0:0:0:0:
134,159,186981,2,0,P|129:120|105:89,1,80,0|0,0:0|0:0,0:0:0:0:
248,112,187264,2,0,P|287:114|324:100,1,80,2|0,0:0|0:0,0:0:0:0:
398,38,187547,2,0,P|433:54|459:85,1,80,0|0,0:0|0:0,0:0:0:0:
484,178,187830,5,2,0:0:0:0:
391,151,187972,1,0,0:0:0:0:
363,154,188043,1,0,0:0:0:0:
338,167,188113,1,0,0:0:0:0:
320,188,188184,1,0,0:0:0:0:
311,214,188255,1,0,0:0:0:0:
311,242,188326,1,0,0:0:0:0:
320,267,188396,2,0,P|294:296|256:309,1,80,2|0,0:0|0:0,0:0:0:0:
115,277,188679,1,2,0:0:0:0:
183,344,188821,1,0,0:0:0:0:
145,203,188962,2,0,P|131:167|100:142,1,80,2|0,0:0|0:0,0:0:0:0:
213,135,189245,2,0,P|218:95|204:58,1,80,0|0,0:0|0:0,0:0:0:0:
308,120,189528,5,2,0:0:0:0:
400,147,189670,2,0,L|425:137,10,20,0|0|0|0|0|0|0|0|0|0|0,0:0|0:0|0:0|0:0|0:0|0:0|0:0|0:0|0:0|0:0|0:0,0:0:0:0:
386,167,190095,6,0,B|326:200|352:299|352:299|290:325|246:292|231:258,1,280,2|0,0:0|0:0,0:0:0:0:
200,128,191227,6,0,P|176:125|149:126,1,40,2|0,0:0|0:0,0:0:0:0:
182,167,191368,2,0,P|159:176|136:190,1,40,0|0,0:0|0:0,0:0:0:0:
184,214,191510,2,0,P|169:233|156:257,1,40,2|0,0:0|0:0,0:0:0:0:
209,245,191651,2,0,P|206:269|206:296,1,40,0|0,0:0|0:0,0:0:0:0:
248,259,191793,1,2,0:0:0:0:
272,246,191863,1,0,0:0:0:0:
297,235,191934,2,0,P|350:235|399:271,1,80,0|2,0:0|0:0,0:0:0:0:
445,321,192217,1,0,0:0:0:0:
403,170,192359,2,0,P|413:150|446:119,1,40,2|0,0:0|0:0,0:0:0:0:
372,84,192500,2,0,P|388:73|407:66,1,40,0|0,0:0|0:0,0:0:0:0:
331,146,192642,1,2,0:0:0:0:
304,155,192712,1,0,0:0:0:0:
275,156,192783,1,0,0:0:0:0:
247,151,192854,1,0,0:0:0:0:
222,138,192925,1,2,0:0:0:0:
156,68,193066,6,0,P|134:60|95:56,1,40,0|0,0:0|0:0,0:0:0:0:
123,105,193208,2,0,P|99:109|64:125,1,40,2|0,0:0|0:0,0:0:0:0:
120,145,193349,1,0,0:0:0:0:
122,173,193420,1,0,0:0:0:0:
114,200,193491,1,2,0:0:0:0:
58,278,193632,2,0,P|92:298|132:303,1,80,0|0,0:0|0:0,0:0:0:0:
275,238,193915,2,0,P|237:227|198:234,1,80,0|0,0:0|0:0,0:0:0:0:
74,160,194198,1,0,0:0:0:0:
203,94,194340,1,2,0:0:0:0:
230,99,194411,1,0,0:0:0:0:
253,113,194481,1,0,0:0:0:0:
270,134,194552,1,0,0:0:0:0:
279,160,194623,6,0,P|317:169|356:162,1,80,2|0,0:0|0:0,0:0:0:0:
317,73,194906,2,0,P|350:52|372:19,1,80,2|0,0:0|0:0,0:0:0:0:
467,37,195189,1,0,0:0:0:0:
492,129,195330,1,0,0:0:0:0:
467,222,195472,1,0,0:0:0:0:
389,277,195613,1,0,0:0:0:0:
293,265,195755,2,0,P|238:269|199:295,1,80,2|0,0:0|0:0,0:0:0:0:
94,357,196038,2,0,P|116:325|120:286,1,80,2|0,0:0|0:0,0:0:0:0:
86,195,196321,5,2,0:0:0:0:
22,123,196462,2,0,P|20:100|25:81,1,40,0|0,0:0|0:0,0:0:0:0:
68,103,196604,2,0,P|77:82|91:68,1,40,2|0,0:0|0:0,0:0:0:0:
114,111,196745,2,0,P|132:97|151:92,1,40,0|0,0:0|0:0,0:0:0:0:
154,141,196887,2,0,P|190:155|217:184,1,80,2|0,0:0|0:0,0:0:0:0:
271,296,197170,2,0,P|279:257|304:226,1,80,2|0,0:0|0:0,0:0:0:0:
383,171,197453,2,0,P|352:147|314:137,1,80,2|0,0:0|0:0,0:0:0:0:
319,41,197736,2,0,P|279:45|245:65,1,80,2|0,0:0|0:0,0:0:0:0:
172,129,198019,5,2,0:0:0:0:
263,159,198161,1,0,0:0:0:0:
285,174,198231,1,0,0:0:0:0:
300,197,198302,1,2,0:0:0:0:
303,224,198373,1,0,0:0:0:0:
295,251,198444,1,0,0:0:0:0:
276,271,198514,1,0,0:0:0:0:
248,281,198585,2,0,P|240:319|253:356,1,80,2|0,0:0|0:0,0:0:0:0:
152,278,198868,2,0,P|112:256|61:259,1,80,2|0,0:0|0:0,0:0:0:0:
22,175,199151,1,2,0:0:0:0:
30,148,199222,1,0,0:0:0:0:
28,119,199293,2,0,P|25:105|18:88,10,20,0|0|0|0|0|0|0|0|0|0|0,0:0|0:0|0:0|0:0|0:0|0:0|0:0|0:0|0:0|0:0|0:0,0:0:0:0:
55,123,199717,6,0,P|108:115|139:93,1,80,2|0,0:0|0:0,0:0:0:0:
200,34,200000,2,0,P|239:38|273:58,1,80,2|0,0:0|0:0,0:0:0:0:
306,149,200283,1,0,0:0:0:0:
282,242,200425,1,0,0:0:0:0:
200,291,200566,1,0,0:0:0:0:
104,275,200708,1,0,0:0:0:0:
55,192,200849,2,0,P|61:153|86:121,1,80,2|0,0:0|0:0,0:0:0:0:
149,193,201132,2,0,P|181:170|221:164,1,80,2|0,0:0|0:0,0:0:0:0:
214,260,201415,6,0,P|252:266|285:291,1,80,2|0,0:0|0:0,0:0:0:0:
373,328,201698,1,0,0:0:0:0:
457,282,201840,1,0,0:0:0:0:
479,189,201981,1,0,0:0:0:0:
434,102,202123,2,0,P|404:78|365:69,1,80,0|2,0:0|0:0,0:0:0:0:
269,73,202406,1,0,0:0:0:0:
319,154,202547,2,0,P|299:184|244:202,1,80,2|0,0:0|0:0,0:0:0:0:
174,156,202830,2,0,P|142:133|103:126,1,80,2|0,0:0|0:0,0:0:0:0:
102,223,203113,6,0,P|103:270|56:330,1,120,2|0,0:0|0:0,0:0:0:0:
36,339,203396,2,0,P|75:341|112:357,1,80,2|0,0:0|0:0,0:0:0:0:
207,367,203679,2,0,P|239:345|256:309,1,80,2|0,0:0|0:0,0:0:0:0:
245,212,203962,1,2,0:0:0:0:
266,193,204033,1,0,0:0:0:0:
291,181,204104,1,0,0:0:0:0:
320,179,204175,1,0,0:0:0:0:
346,183,204245,2,0,P|383:170|409:140,1,80,2|0,0:0|0:0,0:0:0:0:
373,275,204528,2,0,P|364:316|374:352,1,80,2|0,0:0|0:0,0:0:0:0:
244,284,204811,6,0,P|207:271|168:273,1,80,2|0,0:0|0:0,0:0:0:0:
76,307,205095,2,0,P|49:279|38:241,1,80,2|0,0:0|0:0,0:0:0:0:
120,192,205378,2,0,P|154:139|144:57,1,120,2|0,0:0|0:0,0:0:0:0:
142,56,205661,2,0,P|197:34|254:41,1,120,2|0,0:0|0:0,0:0:0:0:
280,54,205944,5,2,0:0:0:0:
352,128,206085,2,0,P|356:147|355:168,1,40,0|0,0:0|0:0,0:0:0:0:
282,156,206227,1,2,0:0:0:0:
270,181,206297,1,0,0:0:0:0:
251,202,206368,1,0,0:0:0:0:
225,214,206439,1,0,0:0:0:0:
196,218,206510,6,0,P|164:240|144:274,1,80,2|0,0:0|0:0,0:0:0:0:
128,147,206793,2,0,P|113:111|83:85,1,80,2|0,0:0|0:0,0:0:0:0:
210,97,207076,1,2,0:0:0:0:
298,61,207217,2,0,P|345:60|391:82,1,80,0|2,0:0|0:0,0:0:0:0:
327,154,207500,1,0,0:0:0:0:
414,191,207642,2,0,P|447:223|464:271,1,80,2|0,0:0|0:0,0:0:0:0:
377,301,207925,1,2,0:0:0:0:
287,334,208066,1,0,0:0:0:0:
260,343,208137,1,0,0:0:0:0:
232,350,208208,6,0,P|186:348|146:333,1,80,2|0,0:0|0:0,0:0:0:0:
62,307,208491,1,2,0:0:0:0:
130,240,208632,1,0,0:0:0:0:
148,218,208703,1,0,0:0:0:0:
157,190,208774,2,0,P|157:151|141:115,1,80,2|0,0:0|0:0,0:0:0:0:
122,94,208986,1,0,0:0:0:0:
96,82,209057,2,0,P|148:56|208:57,1,120,2|0,0:0|0:0,0:0:0:0:
233,68,209340,5,2,0:0:0:0:
296,139,209481,1,0,0:0:0:0:
304,165,209552,1,0,0:0:0:0:
304,193,209623,2,0,P|293:220|283:231,1,40,2|0,0:0|0:0,0:0:0:0:
229,182,209764,2,0,P|205:199|191:204,1,40,0|0,0:0|0:0,0:0:0:0:
167,134,209906,2,0,P|110:149|71:193,1,120,2|0,0:0|0:0,0:0:0:0:
133,231,210189,2,0,P|124:255|123:281,1,40,2|0,0:0|0:0,0:0:0:0:
194,271,210330,2,0,P|198:296|210:319,1,40,0|0,0:0|0:0,0:0:0:0:
268,274,210472,6,0,P|320:295|398:284,1,120,2|0,0:0|0:0,0:0:0:0:
361,221,210755,2,0,P|385:208|404:185,1,40,2|0,0:0|0:0,0:0:0:0:
337,152,210896,2,0,P|346:114|337:75,1,80,0|2,0:0|0:0,0:0:0:0:
319,53,211109,1,0,0:0:0:0:
294,39,211179,1,0,0:0:0:0:
221,103,211321,2,0,P|171:133|111:134,1,120,2|0,0:0|0:0,0:0:0:0:
86,121,211604,5,2,0:0:0:0:
77,216,211745,1,0,0:0:0:0:
142,286,211887,1,0,0:0:0:0:
233,313,212028,1,0,0:0:0:0:
328,303,212170,1,0,0:0:0:0:
410,254,212311,1,0,0:0:0:0:
325,207,212453,2,0,P|308:196|283:175,1,40,2|0,0:0|0:0,0:0:0:0:
336,163,212595,2,0,P|326:144|315:114,1,40,0|0,0:0|0:0,0:0:0:0:
366,134,212736,5,2,0:0:0:0:
393,138,212807,1,0,0:0:0:0:
421,137,212878,1,0,0:0:0:0:
446,127,212948,1,0,0:0:0:0:
465,106,213019,1,2,0:0:0:0:
399,35,213161,1,0,0:0:0:0:
305,56,213302,1,2,0:0:0:0:
278,65,213373,1,0,0:0:0:0:
250,69,213444,1,0,0:0:0:0:
222,68,213514,1,0,0:0:0:0:
193,60,213585,2,0,P|174:58|154:59,1,40,2|0,0:0|0:0,0:0:0:0:
168,105,213727,2,0,P|150:112|133:123,1,40,0|0,0:0|0:0,0:0:0:0:
164,158,213868,6,0,P|146:192|143:232,1,80,2|0,0:0|0:0,0:0:0:0:
260,172,214151,2,0,P|279:174|303:183,1,40,2|0,0:0|0:0,0:0:0:0:
317,135,214293,2,0,P|332:146|348:166,1,40,2|0,0:0|0:0,3:0:0:0:
376,124,214434,2,0,P|399:157|409:203,1,80,2|0,0:0|0:0,0:0:0:0:
410,310,214717,2,0,P|393:300|379:286,1,40,2|0,0:0|0:0,0:0:0:0:
321,331,214859,2,0,P|308:306|305:280,1,40,0|0,0:0|0:0,0:0:0:0:
235,313,215000,6,0,P|229:274|238:232,1,80,2|0,0:0|0:0,0:0:0:0:
253,212,215212,1,0,0:0:0:0:
268,188,215283,1,2,0:0:0:0:
275,160,215354,1,0,0:0:0:0:
273,131,215425,1,0,0:0:0:0:
263,105,215495,1,0,0:0:0:0:
239,87,215566,2,0,P|233:69|231:49,1,40,2|0,0:0|0:0,0:0:0:0:
196,76,215708,2,0,P|184:59|178:40,1,40
152,76,215849,2,0,P|113:74|79:53,1,80,2|0,0:0|0:0,0:0:0:0:
119,180,216132,6,0,P|116:203|102:229,1,40,2|0,0:0|0:0,0:0:0:0:
170,258,216274,2,0,P|155:276|130:291,1,40,0|0,0:0|0:0,0:0:0:0:
184,344,216415,2,0,P|148:358|108:360,1,80,2|0,0:0|0:0,0:0:0:0:
263,287,216698,1,2,0:0:0:0:
290,282,216769,1,0,0:0:0:0:
317,285,216840,2,0,P|335:290|348:299,10,20,0|0|0|0|0|0|0|0|0|0|0,0:0|0:0|0:0|0:0|0:0|0:0|0:0|0:0|0:0|0:0|0:0,0:0:0:0:
318,256,217264,6,0,B|289:188|362:97|362:97|304:110|233:82|233:82|224:87|213:85,1,320,2|0,0:0|0:0,0:0:0:0:
256,192,218467,12,2,221887,2:2:0:0:
256,192,222429,12,2,226816,0:0:0:0:
