osu file format v12

[General]
AudioFilename: Tout Petit Moineau 192.mp3
AudioLeadIn: 0
PreviewTime: 111549
Countdown: 0
SampleSet: None
StackLeniency: 0.7
Mode: 0
LetterboxInBreaks: 1

[Editor]
Bookmarks: 109497
DistanceSpacing: 2
BeatDivisor: 4
GridSize: 4

[Metadata]
Title:Tout Petit Moineau
TitleUnicode:Tout Petit Moineau
Artist:Igorrr
ArtistUnicode:Igorrr
Creator:Deni
Version:Death
Source:
Tags:baroque breakcore
BeatmapID:248056
BeatmapSetID:91644

[Difficulty]
HPDrainRate:7
CircleSize:4
OverallDifficulty:7
ApproachRate:9
SliderMultiplier:1.4
SliderTickRate:1

[Events]
//Background and Video events
0,0,"bg-igorrr.jpg",0,0
//Break Periods
//Storyboard Layer 0 (Background)
//Storyboard Layer 1 (Fail)
//Storyboard Layer 2 (Pass)
//Storyboard Layer 3 (Foreground)
//Storyboard Sound Samples
//Background Colour Transformations
3,100,163,162,255

[TimingPoints]
93505,283.053582043081,4,1,0,100,1,0
94566,-100,4,2,0,5,0,0
98033,-100,4,3,0,80,0,0
106030,-100,4,3,0,5,0,0
107020,-100,4,3,0,80,0,0
109992,-100,4,2,0,70,0,0
110771,-100,4,3,0,80,0,0
111620,-100,4,1,0,80,0,0
111691,-100,4,3,0,80,0,0
112469,-100,4,1,0,80,0,0
113389,-100,4,3,0,80,0,0
114167,-100,4,1,0,80,0,0
114521,-100,4,3,0,80,0,0
118696,-100,4,1,0,80,0,0
119616,-100,4,3,0,5,0,0
120607,-100,4,3,0,80,0,0
126339,-100,4,2,0,40,0,0
128532,-100,4,3,0,80,0,0
132283,-100,4,1,0,50,0,0
133132,-100,4,3,0,5,0,0
134193,-100,4,3,0,80,0,0
138793,-100,4,2,0,70,0,0
138864,-100,4,3,0,80,0,0
141341,-100,4,1,0,65,0,0
142048,-100,4,3,0,80,0,0

[Colours]
Combo1 : 172,172,172
Combo2 : 9,56,128
Combo3 : 88,88,88

[HitObjects]
256,192,94637,12,0,97750,0:0:0:0:
160,120,98033,5,4,0:0:0:0:
436,316,98883,1,0,0:0:0:0:
405,298,98953,1,0,0:0:0:0:
373,285,99024,1,0,0:0:0:0:
339,277,99095,1,0,0:0:0:0:
304,275,99166,1,2,0:0:0:0:
269,279,99236,1,2,0:0:0:0:
235,288,99307,1,2,0:0:0:0:
204,303,99378,1,2,0:0:0:0:
160,248,99449,6,0,P|200:224|252:212,1,70,4|0,0:0|0:0,0:0:0:0:
360,192,99732,1,0,0:0:0:0:
288,68,99873,2,0,L|216:104,1,70,4|4,0:0|0:0,0:0:0:0:
476,224,100298,1,0,0:0:0:0:
232,168,100581,1,0,0:0:0:0:
196,168,100652,1,0,0:0:0:0:
212,200,100722,1,0,0:0:0:0:
280,224,100864,2,0,L|312:200,3,35,2|2|2|2,0:0|0:0|0:0|0:0,0:0:0:0:
340,268,101147,5,4,0:0:0:0:
416,152,101288,1,0,0:0:0:0:
288,92,101430,2,0,L|220:76,1,70,4|4,0:0|0:0,0:0:0:0:
121,175,101713,1,0,0:0:0:0:
221,273,101855,1,0,0:0:0:0:
317,171,101996,6,0,L|384:211,1,70,4|0,0:0|0:0,0:0:0:0:
195,171,102279,2,0,L|128:211,1,70,4|0,0:0|0:0,0:0:0:0:
256,136,102562,1,4,0:0:0:0:
256,136,102704,1,4,0:0:0:0:
124,88,102845,2,0,P|89:103|56:122,1,70,0|0,0:0|0:0,0:0:0:0:
105,252,103128,1,4,0:0:0:0:
220,332,103270,1,0,0:0:0:0:
332,248,103411,1,4,0:0:0:0:
435,152,103553,6,0,L|356:86,1,70
254,46,103836,1,0,0:0:0:0:
219,46,103907,1,0,0:0:0:0:
187,60,103977,1,0,0:0:0:0:
163,85,104048,1,0,0:0:0:0:
151,118,104119,1,0,0:0:0:0:
230,234,104261,5,0,0:0:0:0:
265,234,104331,1,0,0:0:0:0:
297,220,104402,1,0,0:0:0:0:
320,194,104473,1,0,0:0:0:0:
332,162,104544,1,0,0:0:0:0:
248,136,104685,5,0,0:0:0:0:
248,136,104756,1,0,0:0:0:0:
248,136,104827,1,4,0:0:0:0:
132,208,104968,1,0,0:0:0:0:
228,312,105110,2,0,L|316:304,1,70
424,244,105393,2,0,L|432:156,1,70
332,76,105676,2,0,L|260:48,1,70
136,100,105959,1,0,0:0:0:0:
256,192,106100,12,0,106950,0:0:0:0:
136,308,107091,6,0,L|192:256,1,70,4|0,0:0|0:0,0:0:0:0:
288,160,107374,1,0,0:0:0:0:
344,288,107516,2,0,L|400:236,1,70,4|0,0:0|0:0,0:0:0:0:
256,228,107799,2,0,L|184:164,1,70,4|0,0:0|0:0,0:0:0:0:
100,88,108082,1,4,0:0:0:0:
232,44,108223,1,4,0:0:0:0:
372,60,108365,5,0,0:0:0:0:
402,76,108435,1,0,0:0:0:0:
425,103,108506,1,0,0:0:0:0:
436,135,108577,1,0,0:0:0:0:
435,170,108648,1,4,0:0:0:0:
296,156,108789,5,4,0:0:0:0:
208,264,108931,5,0,0:0:0:0:
178,248,109001,1,0,0:0:0:0:
155,221,109072,1,0,0:0:0:0:
144,189,109143,1,0,0:0:0:0:
145,154,109214,1,4,0:0:0:0:
232,44,109356,5,4,0:0:0:0:
372,60,109497,5,0,0:0:0:0:
402,76,109567,1,0,0:0:0:0:
425,103,109638,1,0,0:0:0:0:
436,135,109709,1,0,0:0:0:0:
435,170,109780,1,4,0:0:0:0:
352,284,109922,5,0,0:0:0:0:
228,344,110063,2,0,L|172:360,1,35,0|0,0:0|0:0,0:0:0:0:
180,324,110205,2,0,L|120:328,1,35
132,296,110346,2,0,L|88:288,1,35
88,260,110488,2,0,L|40:256,1,35,2|0,0:0|0:0,0:0:0:0:
48,224,110629,2,0,L|8:216,1,35
32,148,110771,6,0,P|76:136|112:100,1,70
212,44,111054,1,0,0:0:0:0:
256,176,111195,2,0,P|212:164|176:128,1,70
316,80,111478,1,0,0:0:0:0:
420,172,111620,6,0,L|368:240,1,70,4|0,0:0|0:0,0:0:0:0:
296,340,111903,1,0,0:0:0:0:
164,296,112045,1,0,0:0:0:0:
131,282,112115,1,0,0:0:0:0:
106,259,112186,1,0,0:0:0:0:
89,228,112257,1,0,0:0:0:0:
83,194,112328,1,0,0:0:0:0:
89,159,112398,1,0,0:0:0:0:
106,129,112469,5,4,0:0:0:0:
348,272,112752,1,4,0:0:0:0:
184,48,113035,1,4,0:0:0:0:
232,324,113318,1,4,0:0:0:0:
392,96,113601,5,0,0:0:0:0:
368,124,113672,1,0,0:0:0:0:
344,152,113743,1,4,0:0:0:0:
208,128,113884,1,0,0:0:0:0:
124,240,114026,2,0,L|196:256,1,70,0|4,0:0|0:0,0:0:0:0:
460,176,114450,1,4,0:0:0:0:
208,52,114734,6,0,P|196:40|152:32,3,35
156,96,115017,6,0,L|104:144,1,70,4|0,0:0|0:0,0:0:0:0:
236,188,115300,2,0,L|288:140,1,70,0|4,0:0|0:0,0:0:0:0:
372,28,115583,1,0,0:0:0:0:
403,43,115653,1,0,0:0:0:0:
424,70,115724,1,0,0:0:0:0:
433,103,115795,1,0,0:0:0:0:
426,137,115866,1,4,0:0:0:0:
336,244,116007,5,4,0:0:0:0:
196,268,116149,2,0,P|168:244|108:232,1,70
200,108,116432,2,0,L|220:68,3,35
276,112,116715,2,0,L|256:152,3,35,0|0|0|0,0:0|0:0|0:0|0:0,0:0:0:0:
324,172,116998,2,0,L|344:132,3,35,0|0|0|0,0:0|0:0|0:0|0:0,0:0:0:0:
404,164,117281,2,0,L|424:124,3,35,0|0|0|0,0:0|0:0|0:0|0:0,0:0:0:0:
472,180,117564,2,0,L|452:220,3,35,0|0|0|0,0:0|0:0|0:0|0:0,0:0:0:0:
392,240,117847,5,4,0:0:0:0:
272,312,117989,1,0,0:0:0:0:
208,188,118130,2,0,P|156:160|128:160,1,70
264,80,118413,2,0,L|296:144,1,70
312,172,118626,1,0,0:0:0:0:
328,204,118696,5,4,0:0:0:0:
68,304,118979,1,4,0:0:0:0:
148,36,119262,1,4,0:0:0:0:
300,272,119545,1,4,0:0:0:0:
256,192,119687,12,0,120536,0:0:0:0:
336,48,120678,6,0,P|384:80|420:108,1,70,4|0,0:0|0:0,0:0:0:0:
296,188,120961,1,0,0:0:0:0:
204,296,121102,2,0,P|156:264|120:236,1,70,4|0,0:0|0:0,0:0:0:0:
120,120,121385,1,4,0:0:0:0:
232,204,121527,1,0,0:0:0:0:
332,104,121668,1,0,0:0:0:0:
468,136,121810,2,0,L|440:232,1,70
352,304,122093,1,0,0:0:0:0:
164,212,122234,6,0,L|100:156,1,70
248,136,122517,2,0,L|316:156,1,70,0|0,0:0|0:0,0:0:0:0:
416,56,122801,1,4,0:0:0:0:
440,192,122942,5,4,0:0:0:0:
409,227,123036,1,0,0:0:0:0:
373,256,123130,1,0,0:0:0:0:
332,279,123225,1,0,0:0:0:0:
288,293,123319,1,0,0:0:0:0:
242,299,123413,1,0,0:0:0:0:
196,288,123508,6,0,L|144:324,1,46.6666666666667,4|0,0:0|0:0,0:0:0:0:
128,276,123697,2,0,L|60:284,1,46.6666666666667
80,236,123886,2,0,L|32:220,1,46.6666666666667
52,176,124074,2,0,L|16:144,1,46.6666666666667
56,120,124263,2,0,L|44:68,1,46.6666666666667,0|4,0:0|0:0,0:0:0:0:
184,44,124499,5,0,0:0:0:0:
324,48,124640,2,0,L|392:88,1,70,0|4,0:0|0:0,0:0:0:0:
248,116,124923,2,0,P|232:136|196:188,1,70
368,176,125207,1,4,0:0:0:0:
300,300,125348,2,0,L|220:320,1,70
92,312,125631,1,0,0:0:0:0:
200,224,125773,1,0,0:0:0:0:
68,176,125914,1,0,0:0:0:0:
160,72,126056,5,0,0:0:0:0:
194,64,126126,1,0,0:0:0:0:
228,65,126197,1,0,0:0:0:0:
262,74,126268,1,0,0:0:0:0:
293,91,126339,5,0,0:0:0:0:
384,200,126480,2,0,L|292:212,1,70,0|0,0:0|0:0,0:0:0:0:
180,168,126763,1,0,0:0:0:0:
92,280,126905,1,0,0:0:0:0:
228,308,127046,2,0,L|320:296,1,70,0|0,0:0|0:0,0:0:0:0:
324,160,127329,2,0,L|392:104,1,70
456,232,127612,5,0,0:0:0:0:
425,249,127682,1,0,0:0:0:0:
392,260,127753,1,0,0:0:0:0:
357,263,127824,1,0,0:0:0:0:
323,259,127895,1,2,0:0:0:0:
196,196,128037,1,2,0:0:0:0:
84,80,128603,6,0,L|168:60,1,70,4|0,0:0|0:0,0:0:0:0:
292,56,128886,2,0,P|336:60|376:88,1,70,4|0,0:0|0:0,0:0:0:0:
452,176,129169,5,4,0:0:0:0:
439,208,129239,1,4,0:0:0:0:
415,233,129310,1,4,0:0:0:0:
383,248,129381,1,4,0:0:0:0:
349,250,129452,5,8,0:0:0:0:
100,124,129735,1,0,0:0:0:0:
268,348,130018,2,0,L|196:304,1,70
176,296,130231,1,0,0:0:0:0:
148,280,130301,1,0,0:0:0:0:
116,264,130372,1,0,0:0:0:0:
88,244,130443,1,0,0:0:0:0:
72,104,130585,6,0,L|56:56,1,35
128,52,130726,2,0,L|144:100,1,35
204,56,130868,1,0,0:0:0:0:
344,64,131009,1,0,0:0:0:0:
374,80,131079,1,0,0:0:0:0:
396,107,131150,1,0,0:0:0:0:
407,140,131221,1,0,0:0:0:0:
404,175,131292,1,0,0:0:0:0:
268,212,131434,5,4,0:0:0:0:
36,56,131717,2,0,L|104:28,2,46.6666666666667
52,100,132000,1,4,0:0:0:0:
64,144,132094,1,0,0:0:0:0:
89,183,132188,1,0,0:0:0:0:
126,211,132283,1,4,0:0:0:0:
168,232,132377,6,0,L|200:176,1,46.6666666666667,0|4,0:0|0:0,0:0:0:0:
216,232,132566,2,0,L|248:176,1,46.6666666666667,0|4,0:0|0:0,0:0:0:0:
264,232,132755,2,0,L|296:176,1,46.6666666666667,0|4,0:0|0:0,0:0:0:0:
312,228,132943,2,0,L|344:172,1,46.6666666666667,0|4,0:0|0:0,0:0:0:0:
256,192,133132,12,0,134123,0:0:0:0:
88,88,134264,6,0,L|184:68,1,70,4|0,0:0|0:0,0:0:0:0:
292,116,134547,2,0,L|196:136,1,70,0|4,0:0|0:0,0:0:0:0:
108,212,134830,1,0,0:0:0:0:
244,252,134972,2,0,L|300:324,1,70,0|0,0:0|0:0,0:0:0:0:
340,176,135255,2,0,L|396:248,1,70,4|0,0:0|0:0,0:0:0:0:
456,112,135538,1,0,0:0:0:0:
332,52,135679,2,0,P|296:40|240:40,1,70,0|4,0:0|0:0,0:0:0:0:
124,40,135963,5,0,0:0:0:0:
36,148,136104,1,0,0:0:0:0:
96,276,136246,1,0,0:0:0:0:
204,188,136387,2,0,L|272:136,1,70,4|0,0:0|0:0,0:0:0:0:
372,232,136670,2,0,L|440:180,1,70
392,52,136953,5,4,0:0:0:0:
252,72,137095,1,0,0:0:0:0:
292,208,137236,1,0,0:0:0:0:
192,308,137378,2,0,L|124:280,1,70
96,144,137661,2,0,L|160:76,1,70
252,184,137944,1,0,0:0:0:0:
380,128,138085,2,0,L|460:88,1,70,0|2,0:0|0:0,0:0:0:0:
440,236,138368,2,0,L|360:196,2,70
304,276,138793,6,0,L|216:296,1,70,4|0,0:0|0:0,0:0:0:0:
120,212,139076,1,0,0:0:0:0:
184,88,139218,5,0,0:0:0:0:
215,72,139288,1,0,0:0:0:0:
248,64,139359,1,0,0:0:0:0:
284,72,139430,1,0,0:0:0:0:
380,172,139571,1,0,0:0:0:0:
363,202,139641,1,0,0:0:0:0:
336,224,139712,1,0,0:0:0:0:
302,232,139783,1,0,0:0:0:0:
268,226,139854,1,0,0:0:0:0:
240,206,139924,5,0,0:0:0:0:
196,180,139996,2,0,L|236:132,1,35
164,160,140138,2,0,L|164:104,1,35
136,172,140279,2,0,L|84:140,1,35
128,200,140421,2,0,L|72:224,1,35
148,224,140562,2,0,L|136:268,1,35
184,228,140704,2,0,L|220:284,1,35
220,288,140845,1,0,0:0:0:0:
236,320,140916,5,4,0:0:0:0:
376,304,141058,2,0,P|400:268|452:248,1,70
308,172,141341,5,4,0:0:0:0:
68,320,141624,1,4,0:0:0:0:
88,180,142190,6,0,L|152:132,1,70,4|0,0:0|0:0,0:0:0:0:
256,52,142473,1,0,0:0:0:0:
388,96,142614,2,0,P|412:128|440:180,1,70,4|0,0:0|0:0,0:0:0:0:
372,284,142897,2,0,P|348:252|320:200,1,70,0|4,0:0|0:0,0:0:0:0:
212,156,143180,1,0,0:0:0:0:
80,104,143322,2,0,P|112:48|116:16,1,70,4|0,0:0|0:0,0:0:0:0:
