osu file format v13

[General]
AudioFilename: Igorrr-Tendon.mp3
AudioLeadIn: 0
PreviewTime: -1
Countdown: 1
SampleSet: Normal
StackLeniency: 0.7
Mode: 0
LetterboxInBreaks: 1
WidescreenStoryboard: 0

[Editor]
DistanceSpacing: 0.5
BeatDivisor: 4
GridSize: 8
TimelineZoom: 0.9999998

[Metadata]
Title:Tendon
TitleUnicode:Tendon
Artist:Igorrr
ArtistUnicode:Igorrr
Creator:Shiikou
Version:Shii-nsane
Source:
Tags:
BeatmapID:624039
BeatmapSetID:275083

[Difficulty]
HPDrainRate:7
CircleSize:4
OverallDifficulty:9
ApproachRate:10
SliderMultiplier:2.99999990463257
SliderTickRate:1

[Events]
//Background and Video events
//Break Periods
//Storyboard Layer 0 (Background)
//Storyboard Layer 1 (Fail)
//Storyboard Layer 2 (Pass)
//Storyboard Layer 3 (Foreground)
//Storyboard Sound Samples

[TimingPoints]
95,258.620689655172,4,1,0,100,1,0
8801,-133.333333333333,4,1,0,100,0,0
8901,-100,4,1,0,100,0,0
42691,-133.333333333333,4,1,0,100,0,0

[HitObjects]
86,165,95,5,0,0:0:0:0:
160,164,224,1,0,0:0:0:0:
158,238,353,1,0,0:0:0:0:
83,238,482,1,0,0:0:0:0:
88,162,612,1,0,0:0:0:0:
162,159,741,1,0,0:0:0:0:
158,238,870,1,0,0:0:0:0:
83,238,1000,1,0,0:0:0:0:
64,328,1129,5,0,0:0:0:0:
101,329,1194,1,0,0:0:0:0:
138,330,1258,1,0,0:0:0:0:
175,329,1323,1,0,0:0:0:0:
212,322,1388,1,0,0:0:0:0:
247,312,1452,1,0,0:0:0:0:
283,304,1517,1,0,0:0:0:0:
319,295,1582,1,0,0:0:0:0:
425,53,1646,6,0,L|343:54,3,74.9999976158143,0|0|0|0,0:0|0:0|0:0|0:0,0:0:0:0:
220,190,1905,5,0,0:0:0:0:
82,186,2034,1,0,0:0:0:0:
83,81,2163,1,0,0:0:0:0:
227,83,2293,1,0,0:0:0:0:
413,81,2421,5,0,0:0:0:0:
405,80,2486,1,0,0:0:0:0:
397,78,2551,1,0,0:0:0:0:
389,76,2615,1,0,0:0:0:0:
381,75,2680,1,0,0:0:0:0:
373,74,2745,1,0,0:0:0:0:
365,73,2809,1,0,0:0:0:0:
357,73,2874,1,0,0:0:0:0:
349,73,2939,1,0,0:0:0:0:
341,74,3003,1,0,0:0:0:0:
333,75,3068,1,0,0:0:0:0:
326,78,3133,1,0,0:0:0:0:
320,80,3198,1,0,0:0:0:0:
312,80,3263,1,0,0:0:0:0:
196,185,3327,6,0,L|285:186,6,74.9999976158143,0|0|0|0|0|0|0,0:0|0:0|0:0|0:0|0:0|0:0|0:0,0:0:0:0:
247,194,3974,5,0,0:0:0:0:
337,66,4103,1,0,0:0:0:0:
400,200,4232,1,0,0:0:0:0:
179,184,4362,1,0,0:0:0:0:
356,23,4491,1,0,0:0:0:0:
453,228,4620,1,0,0:0:0:0:
281,178,4750,1,0,0:0:0:0:
323,116,4879,1,0,0:0:0:0:
345,195,5008,1,0,0:0:0:0:
90,282,5267,6,0,L|189:282,7,74.9999976158143,0|0|0|0|0|0|0|0,0:0|0:0|0:0|0:0|0:0|0:0|0:0|0:0,0:0:0:0:
163,160,5913,5,0,0:0:0:0:
267,89,6043,1,0,0:0:0:0:
163,160,6172,1,0,0:0:0:0:
172,94,6301,2,0,L|213:32,2,74.9999976158143,0|0|0,0:0|0:0|0:0,0:0:0:0:
225,126,6431,2,0,L|273:54,2,74.9999976158143,0|0|0,0:0|0:0|0:0,0:0:0:0:
280,154,6560,2,0,L|320:91,2,74.9999976158143,0|0|0,0:0|0:0|0:0,0:0:0:0:
334,184,6689,2,0,L|374:121,2,74.9999976158143,0|0|0,0:0|0:0|0:0,0:0:0:0:
393,214,6819,2,0,L|442:136,2,74.9999976158143,0|0|0,0:0|0:0|0:0,0:0:0:0:
366,263,6948,2,0,L|316:343,2,74.9999976158143,0|0|0,0:0|0:0|0:0,0:0:0:0:
305,231,7077,2,0,L|262:294,2,74.9999976158143,0|0|0,0:0|0:0|0:0,0:0:0:0:
250,204,7207,2,0,L|204:267,2,74.9999976158143,0|0|0,0:0|0:0|0:0,0:0:0:0:
194,170,7336,2,0,L|148:232,2,74.9999976158143,0|0|0,0:0|0:0|0:0,0:0:0:0:
140,131,7465,2,0,L|95:196,2,74.9999976158143,0|0|0,0:0|0:0|0:0,0:0:0:0:
98,61,7659,5,0,0:0:0:0:
127,37,7724,1,0,0:0:0:0:
163,30,7788,1,0,0:0:0:0:
200,31,7853,1,0,0:0:0:0:
234,46,7918,1,0,0:0:0:0:
263,68,7982,1,0,0:0:0:0:
287,96,8047,1,0,0:0:0:0:
319,114,8112,1,0,0:0:0:0:
356,111,8176,1,0,0:0:0:0:
390,94,8241,1,0,0:0:0:0:
419,70,8306,1,0,0:0:0:0:
61,309,8370,6,0,L|230:309,1,149.999995231629
383,330,8629,5,0,0:0:0:0:
351,262,8758,6,0,L|226:263,2,112.500000715256,0|0|0,0:0|0:0|0:0,0:0:0:0:
87,58,9017,5,0,0:0:0:0:
168,65,9146,1,0,0:0:0:0:
249,75,9276,1,0,0:0:0:0:
322,84,9405,1,0,0:0:0:0:
260,185,9534,5,0,0:0:0:0:
260,185,9663,1,0,0:0:0:0:
260,185,9793,1,0,0:0:0:0:
461,259,9922,5,0,0:0:0:0:
392,320,10051,1,0,0:0:0:0:
301,339,10181,1,0,0:0:0:0:
209,341,10310,1,0,0:0:0:0:
126,321,10439,1,0,0:0:0:0:
101,241,10569,1,0,0:0:0:0:
234,176,10698,5,0,0:0:0:0:
234,176,10763,1,0,0:0:0:0:
234,176,10828,1,0,0:0:0:0:
61,61,10957,5,0,0:0:0:0:
62,118,11086,1,0,0:0:0:0:
60,180,11215,1,0,0:0:0:0:
58,248,11344,1,0,0:0:0:0:
233,294,11474,6,0,B|800:311|558:-89|-11:-47|1:344,1,1049.9999666214,0|0,0:0|0:0,0:0:0:0:
111,167,12508,5,0,0:0:0:0:
59,143,12638,1,0,0:0:0:0:
44,84,12767,1,0,0:0:0:0:
139,38,12896,5,0,0:0:0:0:
139,38,12961,1,0,0:0:0:0:
139,38,13026,1,0,0:0:0:0:
450,319,13155,5,0,0:0:0:0:
364,253,13284,1,0,0:0:0:0:
308,325,13413,1,0,0:0:0:0:
244,263,13543,1,0,0:0:0:0:
164,316,13672,2,0,P|78:293|125:184,1,225.000001430512
137,104,14060,5,0,0:0:0:0:
187,45,14189,1,0,0:0:0:0:
237,106,14319,1,0,0:0:0:0:
285,49,14448,1,0,0:0:0:0:
61,237,14577,5,0,0:0:0:0:
106,259,14642,1,0,0:0:0:0:
156,264,14707,1,0,0:0:0:0:
202,246,14771,1,0,0:0:0:0:
241,213,14836,1,0,0:0:0:0:
276,176,14901,1,0,0:0:0:0:
317,147,14965,1,0,0:0:0:0:
367,142,15030,1,0,0:0:0:0:
410,167,15094,1,0,0:0:0:0:
437,209,15159,1,0,0:0:0:0:
451,257,15224,1,0,0:0:0:0:
417,294,15288,1,0,0:0:0:0:
371,319,15353,1,0,0:0:0:0:
314,326,15418,1,0,0:0:0:0:
264,296,15482,1,0,0:0:0:0:
226,255,15612,6,0,B|264:138|368:368|400:24,1,299.999990463257
192,320,16000,2,0,P|109:289|282:150,1,449.999985694885
265,122,16517,5,0,0:0:0:0:
462,49,16646,5,0,0:0:0:0:
464,158,16776,1,0,0:0:0:0:
370,159,16905,1,0,0:0:0:0:
369,47,17034,1,0,0:0:0:0:
276,49,17163,1,0,0:0:0:0:
276,159,17293,1,0,0:0:0:0:
188,158,17422,1,0,0:0:0:0:
188,49,17551,1,0,0:0:0:0:
61,42,17681,6,0,L|62:297,1,225.000001430512
208,324,18069,5,0,0:0:0:0:
366,246,18198,1,0,0:0:0:0:
246,117,18327,1,0,0:0:0:0:
110,197,18457,1,0,0:0:0:0:
68,330,18586,6,0,L|192:332,1,112.500000715256
179,265,18844,2,0,L|51:264,1,112.500000715256
69,196,19103,2,0,L|193:196,1,112.500000715256
179,129,19362,2,0,L|23:128,1,112.500000715256
66,48,19620,5,0,0:0:0:0:
163,49,19749,1,0,0:0:0:0:
332,52,19879,5,0,0:0:0:0:
324,135,20008,1,0,0:0:0:0:
332,52,20138,1,0,0:0:0:0:
324,135,20267,1,0,0:0:0:0:
332,52,20396,1,0,0:0:0:0:
324,135,20526,1,0,0:0:0:0:
332,52,20655,1,0,0:0:0:0:
324,135,20784,1,0,0:0:0:0:
70,300,21043,5,0,0:0:0:0:
95,256,21107,1,0,0:0:0:0:
78,207,21172,1,0,0:0:0:0:
84,156,21237,1,0,0:0:0:0:
77,106,21301,1,0,0:0:0:0:
96,58,21366,1,0,0:0:0:0:
143,40,21431,1,0,0:0:0:0:
193,41,21495,1,0,0:0:0:0:
237,66,21560,1,0,0:0:0:0:
260,111,21625,1,0,0:0:0:0:
289,130,21689,1,0,0:0:0:0:
420,309,21819,6,0,P|202:187|284:76,1,450.000002861023
397,64,22336,6,0,L|395:216,3,149.999995231629,0|0|0|0,0:0|0:0|0:0|0:0,0:0:0:0:
283,77,22853,6,0,L|152:274,1,225.000001430512
333,134,23370,2,0,L|444:341,1,225.000001430512
303,117,23888,2,0,B|198:162|259:218|124:323,1,225.000001430512
249,306,24276,5,0,0:0:0:0:
249,306,24340,1,0,0:0:0:0:
249,306,24405,1,0,0:0:0:0:
205,193,24534,6,0,L|74:193,2,112.500000715256,0|0|0,0:0|0:0|0:0,0:0:0:0:
205,193,24922,6,0,P|437:193|421:129,1,374.999988079071
328,104,25439,5,0,0:2:0:0:
328,104,25504,1,0,0:2:0:0:
328,104,25569,1,0,0:2:0:0:
424,176,25698,5,0,0:0:0:0:
320,248,25827,5,0,0:0:0:0:
400,272,25957,1,0,0:0:0:0:
328,328,26086,1,0,0:0:0:0:
256,296,26215,1,0,0:0:0:0:
256,216,26344,1,0,0:0:0:0:
184,256,26474,1,0,0:0:0:0:
72,160,26603,6,0,L|144:104,4,74.9999976158143,0|0|0|0|0,0:0|0:0|0:0|0:0|0:0,0:0:0:0:
72,320,26991,6,0,P|240:16|432:392,1,899.999971389771
336,264,28026,6,0,L|336:184,8,74.9999976158143,0|0|0|0|0|0|0|0|0,0:0|0:0|0:0|0:0|0:0|0:0|0:0|0:0|0:0,0:0:0:0:
272,240,28607,2,0,L|272:160,2,74.9999976158143,0|0|0,0:0|0:0|0:0,0:0:0:0:
208,216,28737,2,0,L|208:136,2,74.9999976158143,0|0|0,0:0|0:0|0:0,0:0:0:0:
144,184,28931,2,0,L|144:88,2,74.9999976158143,0|0|0,0:0|0:0|0:0,0:0:0:0:
160,40,29189,6,0,L|240:112,4,74.9999976158143,0|0|0|0|0,0:0|0:0|0:0|0:0|0:0,0:0:0:0:
280,120,29577,5,0,0:0:0:0:
280,120,29642,1,0,0:0:0:0:
280,120,29707,1,0,0:0:0:0:
360,128,29836,1,0,0:0:0:0:
360,128,29901,1,0,0:0:0:0:
360,128,29965,1,0,0:0:0:0:
160,304,30224,5,0,0:0:0:0:
288,312,30353,1,0,0:0:0:0:
160,304,30482,1,0,0:0:0:0:
288,312,30612,1,0,0:0:0:0:
240,240,30741,5,0,0:0:0:0:
240,240,30806,1,0,0:0:0:0:
240,240,30870,1,0,0:0:0:0:
64,328,31129,5,0,0:0:0:0:
72,288,31194,1,0,0:0:0:0:
80,248,31258,1,0,0:0:0:0:
96,216,31323,1,0,0:0:0:0:
112,184,31388,1,0,0:0:0:0:
136,152,31452,1,0,0:0:0:0:
160,120,31517,1,0,0:0:0:0:
184,88,31582,1,0,0:0:0:0:
216,64,31646,1,0,0:0:0:0:
328,160,31776,5,0,0:0:0:0:
384,96,31905,1,0,0:0:0:0:
408,168,32034,1,0,0:0:0:0:
296,256,32163,6,0,L|376:256,8,74.9999976158143,0|0|0|0|0|0|0|0|0,0:0|0:0|0:0|0:0|0:0|0:0|0:0|0:0|0:0,0:0:0:0:
256,192,32810,12,0,33198,0:0:0:0:
144,328,33327,5,0,0:0:0:0:
64,256,33456,1,0,0:0:0:0:
144,192,33585,1,0,0:0:0:0:
56,128,33714,1,0,0:0:0:0:
120,56,33844,1,0,0:0:0:0:
208,24,33973,1,0,0:0:0:0:
288,88,34102,1,0,0:0:0:0:
400,96,34232,2,0,B|432:176|424:320|336:328|72:320|64:200|80:96,1,599.999980926514
184,32,34879,5,0,0:0:0:0:
240,112,35008,1,0,0:0:0:0:
128,160,35138,1,0,0:0:0:0:
80,56,35267,1,0,0:0:0:0:
184,32,35396,1,0,0:0:0:0:
328,48,35526,5,0,0:0:0:0:
416,48,35655,1,0,0:0:0:0:
328,48,35784,1,0,0:0:0:0:
416,48,35913,1,0,0:0:0:0:
328,48,36043,1,0,0:0:0:0:
416,48,36172,1,0,0:0:0:0:
312,120,36301,6,0,L|264:192,3,74.9999976158143,0|0|0|0,0:0|0:0|0:0|0:0,0:0:0:0:
48,32,36819,6,0,B|48:320|152:208|168:208|216:56|288:200|416:200|352:352,1,599.999980926514
64,280,37724,5,0,0:0:0:0:
64,144,37853,1,0,0:0:0:0:
168,288,37982,2,0,B|168:168|168:120|360:144,1,299.999990463257
344,320,38370,6,0,P|136:216|232:104,1,449.999985694885
32,296,43543,5,0,0:0:0:0:
40,264,43607,1,0,0:0:0:0:
56,232,43672,1,0,0:0:0:0:
72,200,43737,1,0,0:0:0:0:
96,176,43801,1,0,0:0:0:0:
128,152,43866,1,0,0:0:0:0:
152,128,43931,1,0,0:0:0:0:
184,104,43995,1,0,0:0:0:0:
216,80,44060,2,0,L|192:32,2,49.9999984105428,0|0|0,0:0|0:0|0:0,0:0:0:0:
248,72,44254,1,0,0:0:0:0:
288,64,44319,1,0,0:0:0:0:
328,72,44383,1,0,0:0:0:0:
368,80,44448,5,0,0:0:0:0:
400,96,44513,1,0,0:0:0:0:
424,128,44577,1,0,0:0:0:0:
440,152,44642,2,0,L|344:184,2,56.2500003576279,0|0|0,0:0|0:0|0:0,0:0:0:0:
456,192,44836,1,0,0:0:0:0:
456,232,44901,1,0,0:0:0:0:
440,264,44965,1,0,0:0:0:0:
408,288,45030,1,0,0:0:0:0:
368,288,45094,5,0,0:0:0:0:
328,280,45159,1,0,0:0:0:0:
304,264,45224,2,0,L|328:192,2,56.2500003576279,0|0|0,0:0|0:0|0:0,0:0:0:0:
264,240,45418,1,0,0:0:0:0:
232,216,45482,1,0,0:0:0:0:
200,192,45547,1,0,0:0:0:0:
176,160,45612,1,0,0:0:0:0:
