osu file format v12

[General]
AudioFilename: Pavor nocturnus.mp3
AudioLeadIn: 3000
PreviewTime: 66295
Countdown: 0
SampleSet: Normal
StackLeniency: 0.7
Mode: 1
LetterboxInBreaks: 0

[Editor]
Bookmarks: 80,16641,33192,49744,61114,62148,66295,82847,99399,115951,132502,149054,165606,182157,198709,215261,231813,257666
DistanceSpacing: 0.6
BeatDivisor: 4
GridSize: 4

[Metadata]
Title:Pavor Nocturnus
TitleUnicode:Pavor Nocturnus
Artist:Igorrr
ArtistUnicode:Igorrr
Creator:grumd
Version:Taikolor Muzukashii
Source:
Tags:breakcore baroquecore Loctav [Luanny] Mr Color
BeatmapID:249796
BeatmapSetID:57525

[Difficulty]
HPDrainRate:4
CircleSize:5
OverallDifficulty:5
ApproachRate:5
SliderMultiplier:1.4
SliderTickRate:1

[Events]
//Background and Video events
0,0,"325103.jpg",0,0
//Break Periods
//Storyboard Layer 0 (Background)
//Storyboard Layer 1 (Fail)
//Storyboard Layer 2 (Pass)
//Storyboard Layer 3 (Foreground)
//Storyboard Sound Samples
//Background Colour Transformations
3,100,0,0,0

[TimingPoints]
80,344.827586206897,3,1,0,75,1,0
99390,-100,3,1,0,75,0,1
115942,-100,3,1,0,75,0,0
165597,-100,3,1,0,75,0,1
182148,-100,3,1,0,75,0,0

[Colours]
Combo1 : 75,122,137
Combo2 : 155,77,57

[HitObjects]
256,192,80,1,0,0:0:0:0:
256,192,252,1,0,0:0:0:0:
256,192,424,1,8,0:0:0:0:
256,192,597,1,0,0:0:0:0:
256,192,769,1,0,0:0:0:0:
256,192,1114,1,8,0:0:0:0:
256,192,1459,1,0,0:0:0:0:
256,192,1631,1,8,0:0:0:0:
256,192,1804,1,0,0:0:0:0:
256,192,2148,1,0,0:0:0:0:
256,192,2321,1,0,0:0:0:0:
256,192,2493,1,8,0:0:0:0:
256,192,2666,1,0,0:0:0:0:
256,192,3011,1,0,0:0:0:0:
256,192,3183,1,8,0:0:0:0:
256,192,3355,1,0,0:0:0:0:
256,192,3528,1,0,0:0:0:0:
256,192,3700,1,8,0:0:0:0:
256,192,3873,1,0,0:0:0:0:
256,192,4217,1,0,0:0:0:0:
256,192,4390,1,0,0:0:0:0:
256,192,4562,1,8,0:0:0:0:
256,192,4735,1,0,0:0:0:0:
256,184,4907,1,0,0:0:0:0:
256,192,5252,1,8,0:0:0:0:
256,192,5597,1,0,0:0:0:0:
256,192,5769,1,8,0:0:0:0:
256,192,6114,1,0,0:0:0:0:
264,192,6286,1,8,0:0:0:0:
264,192,6459,1,8,0:0:0:0:
264,192,6631,1,0,0:0:0:0:
264,192,6804,1,0,0:0:0:0:
264,192,6976,1,8,0:0:0:0:
264,192,7321,1,0,0:0:0:0:
264,192,7493,1,8,0:0:0:0:
272,188,7666,1,8,0:0:0:0:
272,188,7752,1,8,0:0:0:0:
272,188,7838,1,8,0:0:0:0:
276,180,8011,1,8,0:0:0:0:
276,180,8183,1,0,0:0:0:0:
276,180,8355,2,0,B|272:176|272:176|280:184|280:184|268:180|268:180|284:180|284:180|264:184|264:184|288:176|288:176|260:188|260:188|292:172|292:172|256:192|256:192|296:172,1,210
280,176,9045,1,8,0:0:0:0:
280,176,9217,1,0,0:0:0:0:
280,176,9390,1,8,0:0:0:0:
280,176,9562,1,0,0:0:0:0:
280,176,9735,1,8,0:0:0:0:
280,176,9821,1,8,0:0:0:0:
280,176,9907,1,8,0:0:0:0:
280,176,10080,1,8,0:0:0:0:
280,176,10252,1,0,0:0:0:0:
280,176,10424,1,0,0:0:0:0:
280,176,10597,1,0,0:0:0:0:
292,168,10942,1,0,0:0:0:0:
292,168,11114,1,0,0:0:0:0:
292,168,11286,1,0,0:0:0:0:
292,168,11459,1,8,0:0:0:0:
300,164,11631,1,8,0:0:0:0:
300,164,11804,1,0,0:0:0:0:
300,164,11890,1,0,0:0:0:0:
300,164,11976,1,0,0:0:0:0:
300,164,12148,1,8,0:0:0:0:
300,164,12321,1,8,0:0:0:0:
300,164,12407,1,8,0:0:0:0:
300,164,12493,1,8,0:0:0:0:
300,164,12666,1,8,0:0:0:0:
300,164,13011,1,0,0:0:0:0:
300,164,13183,1,8,0:0:0:0:
300,164,13528,1,0,0:0:0:0:
300,164,13700,1,8,0:0:0:0:
300,164,14045,1,0,0:0:0:0:
300,164,14217,1,8,0:0:0:0:
300,164,14390,1,8,0:0:0:0:
300,164,14562,1,0,0:0:0:0:
308,160,14735,1,0,0:0:0:0:
308,160,14907,1,8,0:0:0:0:
316,160,15080,1,0,0:0:0:0:
316,160,15252,1,8,0:0:0:0:
324,160,15424,1,0,0:0:0:0:
324,160,15597,1,0,0:0:0:0:
324,160,15769,1,8,0:0:0:0:
324,160,15855,1,8,0:0:0:0:
324,160,15942,1,8,0:0:0:0:
324,160,16114,1,0,0:0:0:0:
324,160,16286,1,8,0:0:0:0:
324,160,16459,1,0,0:0:0:0:
324,160,16631,1,4,0:0:0:0:
324,160,16804,1,0,0:0:0:0:
324,160,16976,1,8,0:0:0:0:
324,160,17148,1,0,0:0:0:0:
324,160,17321,1,0,0:0:0:0:
324,160,17493,1,0,0:0:0:0:
324,160,17666,1,8,0:0:0:0:
324,160,18011,1,0,0:0:0:0:
332,160,18183,1,8,0:0:0:0:
332,160,18355,1,0,0:0:0:0:
340,156,18528,1,0,0:0:0:0:
348,152,18700,1,0,0:0:0:0:
348,152,18873,1,0,0:0:0:0:
348,152,19045,1,8,0:0:0:0:
348,152,19390,1,0,0:0:0:0:
348,152,19562,1,0,0:0:0:0:
348,152,19735,1,8,0:0:0:0:
348,152,20080,1,0,0:0:0:0:
348,152,20252,1,8,0:0:0:0:
348,152,20424,1,0,0:0:0:0:
348,152,20597,1,0,0:0:0:0:
336,152,20769,1,0,0:0:0:0:
328,152,21114,1,0,0:0:0:0:
320,152,21286,1,0,0:0:0:0:
308,152,21631,1,0,0:0:0:0:
300,152,21804,1,8,0:0:0:0:
300,152,22148,1,0,0:0:0:0:
300,152,22321,1,8,0:0:0:0:
300,152,22493,1,0,0:0:0:0:
300,152,22838,1,0,0:0:0:0:
300,152,23011,1,0,0:0:0:0:
300,152,23183,1,8,0:0:0:0:
300,152,23355,1,0,0:0:0:0:
300,152,23528,1,8,0:0:0:0:
300,152,23700,1,0,0:0:0:0:
300,152,23873,1,8,0:0:0:0:
300,152,24045,1,0,0:0:0:0:
300,152,24131,1,0,0:0:0:0:
300,152,24217,1,0,0:0:0:0:
300,152,24390,1,8,0:0:0:0:
300,152,24562,1,0,0:0:0:0:
300,152,24735,1,0,0:0:0:0:
300,152,24907,1,4,0:0:0:0:
288,160,25252,1,0,0:0:0:0:
288,160,25424,1,8,0:0:0:0:
288,160,25597,1,0,0:0:0:0:
288,160,25942,1,8,0:0:0:0:
288,160,26286,1,0,0:0:0:0:
288,160,26459,1,8,0:0:0:0:
288,160,26631,1,0,0:0:0:0:
288,160,26976,1,0,0:0:0:0:
288,160,27148,1,0,0:0:0:0:
288,160,27321,1,8,0:0:0:0:
288,160,27493,1,0,0:0:0:0:
288,160,27666,1,0,0:0:0:0:
276,164,28011,1,8,0:0:0:0:
268,168,28183,1,0,0:0:0:0:
264,168,28269,1,0,0:0:0:0:
260,168,28355,1,0,0:0:0:0:
252,172,28528,1,8,0:0:0:0:
276,164,28700,1,0,0:0:0:0:
240,180,28873,1,0,0:0:0:0:
232,184,29045,1,8,0:0:0:0:
224,188,29217,1,0,0:0:0:0:
216,192,29390,1,0,0:0:0:0:
208,196,29562,1,0,0:0:0:0:
208,196,29907,1,0,0:0:0:0:
208,196,30080,1,8,0:0:0:0:
208,196,30424,1,0,0:0:0:0:
208,196,30597,1,8,0:0:0:0:
208,196,30769,1,0,0:0:0:0:
220,196,31114,1,0,0:0:0:0:
228,196,31286,1,0,0:0:0:0:
236,196,31459,1,8,0:0:0:0:
244,196,31631,1,0,0:0:0:0:
244,196,31976,1,0,0:0:0:0:
252,196,32148,1,8,0:0:0:0:
244,196,32321,1,8,0:0:0:0:
244,196,32493,1,0,0:0:0:0:
244,196,32666,1,8,0:0:0:0:
244,196,32838,1,0,0:0:0:0:
244,196,32924,1,0,0:0:0:0:
244,196,33011,1,0,0:0:0:0:
244,196,33183,1,4,0:0:0:0:
244,196,33528,1,0,0:0:0:0:
252,196,33700,1,0,0:0:0:0:
244,196,33873,1,8,0:0:0:0:
244,196,34045,1,0,0:0:0:0:
244,196,34217,1,8,0:0:0:0:
244,196,34562,1,0,0:0:0:0:
244,196,34735,1,8,0:0:0:0:
244,196,34907,1,0,0:0:0:0:
244,196,35252,1,0,0:0:0:0:
248,188,35424,1,0,0:0:0:0:
244,196,35597,1,0,0:0:0:0:
244,196,35769,1,0,0:0:0:0:
244,196,36114,1,0,0:0:0:0:
244,196,36286,1,8,0:0:0:0:
244,196,36631,1,0,0:0:0:0:
244,196,36804,1,8,0:0:0:0:
248,188,36976,1,0,0:0:0:0:
244,196,37062,1,0,0:0:0:0:
244,196,37148,1,0,0:0:0:0:
244,196,37321,1,0,0:0:0:0:
248,188,37666,1,0,0:0:0:0:
248,188,37838,1,0,0:0:0:0:
248,188,38011,1,0,0:0:0:0:
248,188,38355,1,8,0:0:0:0:
248,188,38700,1,0,0:0:0:0:
248,188,38873,1,8,0:0:0:0:
248,188,39045,1,0,0:0:0:0:
248,188,39390,1,0,0:0:0:0:
248,188,39562,1,0,0:0:0:0:
248,188,39735,1,8,0:0:0:0:
248,188,39907,1,0,0:0:0:0:
248,188,40080,1,8,0:0:0:0:
248,188,40424,1,8,0:0:0:0:
248,188,40597,1,8,0:0:0:0:
248,188,40769,1,0,0:0:0:0:
248,188,40942,1,8,0:0:0:0:
248,188,41114,1,8,0:0:0:0:
248,188,41286,1,0,0:0:0:0:
248,188,41459,1,4,0:0:0:0:
248,188,41804,1,0,0:0:0:0:
248,188,41976,1,0,0:0:0:0:
248,188,42148,1,0,0:0:0:0:
248,188,42321,1,0,0:0:0:0:
248,188,42493,1,8,0:0:0:0:
248,188,42838,1,0,0:0:0:0:
248,188,43011,1,8,0:0:0:0:
248,188,43183,1,0,0:0:0:0:
248,188,43355,1,0,0:0:0:0:
248,188,43528,1,0,0:0:0:0:
248,188,43700,1,0,0:0:0:0:
248,188,44045,1,0,0:0:0:0:
248,188,44217,1,8,0:0:0:0:
248,188,44562,1,8,0:0:0:0:
248,188,44735,1,0,0:0:0:0:
248,188,44821,1,0,0:0:0:0:
252,188,44907,1,0,0:0:0:0:
252,188,45080,1,8,0:0:0:0:
252,188,45252,1,0,0:0:0:0:
252,188,45424,1,0,0:0:0:0:
252,188,45597,1,0,0:0:0:0:
252,188,45769,1,0,0:0:0:0:
252,188,45942,1,8,0:0:0:0:
252,188,46114,1,0,0:0:0:0:
252,188,46286,1,8,0:0:0:0:
252,188,46631,1,8,0:0:0:0:
252,188,46976,1,0,0:0:0:0:
252,188,47148,1,8,0:0:0:0:
252,188,47321,1,0,0:0:0:0:
252,188,47666,1,0,0:0:0:0:
252,188,47838,1,0,0:0:0:0:
252,188,48011,1,0,0:0:0:0:
252,188,48183,1,0,0:0:0:0:
252,188,48355,1,8,0:0:0:0:
252,188,48700,1,8,0:0:0:0:
252,188,48873,1,8,0:0:0:0:
252,188,49045,1,8,0:0:0:0:
260,188,49217,1,8,0:0:0:0:
268,188,49390,1,8,0:0:0:0:
276,188,49562,1,8,0:0:0:0:
252,188,49735,1,4,0:0:0:0:
252,188,50080,1,0,0:0:0:0:
252,188,50252,1,8,0:0:0:0:
252,188,50424,1,0,0:0:0:0:
252,188,50597,1,0,0:0:0:0:
260,188,50769,1,8,0:0:0:0:
252,188,51114,1,0,0:0:0:0:
252,188,51286,1,8,0:0:0:0:
252,188,51459,1,0,0:0:0:0:
252,188,51804,1,0,0:0:0:0:
252,188,51976,1,0,0:0:0:0:
252,188,52148,1,0,0:0:0:0:
260,188,52321,1,0,0:0:0:0:
252,188,52666,1,0,0:0:0:0:
252,188,52838,1,8,0:0:0:0:
252,188,53183,1,0,0:0:0:0:
252,188,53355,1,8,0:0:0:0:
252,188,53528,1,0,0:0:0:0:
260,188,53873,1,0,0:0:0:0:
252,188,54045,1,0,0:0:0:0:
252,188,54217,1,0,0:0:0:0:
252,188,54390,1,0,0:0:0:0:
252,188,54735,1,0,0:0:0:0:
252,188,54907,1,8,0:0:0:0:
252,188,55252,1,0,0:0:0:0:
260,188,55424,1,8,0:0:0:0:
252,188,55597,1,0,0:0:0:0:
252,188,55942,1,0,0:0:0:0:
252,188,56114,1,0,0:0:0:0:
252,188,56286,1,8,0:0:0:0:
252,188,56459,1,0,0:0:0:0:
252,188,56631,1,8,0:0:0:0:
260,188,56976,1,8,0:0:0:0:
260,188,57148,1,8,0:0:0:0:
260,188,57321,1,0,0:0:0:0:
260,188,57493,1,8,0:0:0:0:
260,188,57666,1,0,0:0:0:0:
260,188,57752,1,0,0:0:0:0:
260,188,57838,1,0,0:0:0:0:
260,188,58011,1,4,0:0:0:0:
260,188,58355,1,0,0:0:0:0:
260,188,58528,1,8,0:0:0:0:
260,188,58700,1,0,0:0:0:0:
260,188,59045,1,8,0:0:0:0:
260,188,59390,1,0,0:0:0:0:
260,188,59562,1,8,0:0:0:0:
260,188,59735,1,0,0:0:0:0:
260,188,60080,1,0,0:0:0:0:
260,188,60252,1,0,0:0:0:0:
260,188,60424,1,8,0:0:0:0:
256,192,60597,1,0,0:0:0:0:
256,192,60769,1,0,0:0:0:0:
256,192,61114,1,8,0:0:0:0:
256,192,61286,1,0,0:0:0:0:
256,192,61373,1,0,0:0:0:0:
256,192,61459,1,0,0:0:0:0:
256,192,61631,1,8,0:0:0:0:
256,192,61804,1,0,0:0:0:0:
256,192,62148,1,0,0:0:0:0:
256,192,62493,1,0,0:0:0:0:
256,192,62666,1,0,0:0:0:0:
256,192,62838,1,0,0:0:0:0:
256,192,63183,1,8,0:0:0:0:
256,192,63528,1,0,0:0:0:0:
256,192,63700,1,8,0:0:0:0:
256,192,63873,1,0,0:0:0:0:
256,192,64217,1,0,0:0:0:0:
256,192,64390,1,0,0:0:0:0:
256,192,64562,1,0,0:0:0:0:
256,192,64907,1,0,0:0:0:0:
256,192,65252,1,8,0:0:0:0:
256,192,65424,1,8,0:0:0:0:
256,192,65597,1,8,0:0:0:0:
256,192,65769,1,8,0:0:0:0:
256,192,65942,1,8,0:0:0:0:
256,192,66114,1,8,0:0:0:0:
256,192,66286,2,4,B|248:192|248:192|248:200|248:200|256:200|256:200|264:200|264:200|264:192|264:192|264:184|264:184|256:184|256:184|248:184|248:184|260:196|260:196|252:196|252:196|260:188|260:188|252:188|252:188|268:196|268:196|260:204|260:204|268:188|268:188|252:204|252:204|260:180|260:180|244:196|244:196|252:180|252:180|244:188|244:188|256:176|256:176|240:192|240:192|256:208|256:208|272:192|272:192|256:180,1,350
256,192,67321,1,0,0:0:0:0:
256,192,67493,1,0,0:0:0:0:
256,192,67666,1,8,0:0:0:0:
256,192,67752,1,8,0:0:0:0:
256,192,67838,1,8,0:0:0:0:
256,192,67924,1,8,0:0:0:0:
256,192,68011,1,8,0:0:0:0:
256,192,68355,1,0,0:0:0:0:
256,192,68528,1,0,0:0:0:0:
256,192,68873,1,0,0:0:0:0:
256,192,69045,1,0,0:0:0:0:
256,192,69390,1,8,0:0:0:0:
256,192,69562,1,0,0:0:0:0:
256,192,69648,1,0,0:0:0:0:
256,192,69735,1,0,0:0:0:0:
256,192,69907,1,8,0:0:0:0:
256,192,70080,1,0,0:0:0:0:
256,192,70166,1,0,0:0:0:0:
256,192,70252,1,0,0:0:0:0:
256,192,70424,1,0,0:0:0:0:
256,192,70597,1,8,0:0:0:0:
256,192,70769,1,0,0:0:0:0:
256,192,70942,1,0,0:0:0:0:
256,192,71286,1,0,0:0:0:0:
256,192,71459,1,8,0:0:0:0:
256,192,71631,1,0,0:0:0:0:
256,192,71804,1,0,0:0:0:0:
256,192,71976,1,8,0:0:0:0:
256,192,72321,1,0,0:0:0:0:
256,192,72493,1,0,0:0:0:0:
256,192,72666,1,8,0:0:0:0:
256,192,72752,1,8,0:0:0:0:
256,192,72838,1,8,0:0:0:0:
256,192,73011,1,0,0:0:0:0:
256,192,73355,1,0,0:0:0:0:
256,192,73528,2,0,B|220:192|220:192|200:192|184:220|200:248|220:248|220:248|292:248|292:248|312:248|328:220|312:192|292:192|292:192|192:192,1,350
256,192,74562,1,4,0:0:0:0:
256,192,74735,1,8,0:0:0:0:
256,192,74907,1,8,0:0:0:0:
256,192,75080,1,0,0:0:0:0:
256,192,75252,1,8,0:0:0:0:
256,192,75424,1,8,0:0:0:0:
256,192,75597,1,4,0:0:0:0:
256,192,75942,1,8,0:0:0:0:
256,192,76114,1,0,0:0:0:0:
256,192,76286,1,8,0:0:0:0:
256,192,76631,1,4,0:0:0:0:
256,192,76804,1,4,0:0:0:0:
256,192,76976,1,8,0:0:0:0:
256,192,77148,1,0,0:0:0:0:
256,192,77321,1,8,0:0:0:0:
256,192,77666,1,12,0:0:0:0:
256,192,77838,1,12,0:0:0:0:
256,192,78011,1,0,0:0:0:0:
256,192,78183,1,8,0:0:0:0:
256,192,78355,1,0,0:0:0:0:
256,192,78442,1,0,0:0:0:0:
256,192,78528,1,0,0:0:0:0:
256,192,78700,1,0,0:0:0:0:
256,192,78873,1,0,0:0:0:0:
256,192,79045,1,8,0:0:0:0:
256,192,79217,1,0,0:0:0:0:
256,192,79390,1,8,0:0:0:0:
256,192,79735,1,8,0:0:0:0:
256,192,79907,1,0,0:0:0:0:
256,192,80080,1,0,0:0:0:0:
256,192,80252,1,8,0:0:0:0:
256,192,80424,1,0,0:0:0:0:
256,192,80511,1,0,0:0:0:0:
256,192,80597,1,0,0:0:0:0:
256,192,80769,1,8,0:0:0:0:
256,192,80942,1,8,0:0:0:0:
256,192,81114,1,0,0:0:0:0:
256,192,81286,1,0,0:0:0:0:
256,192,81459,1,0,0:0:0:0:
256,192,81804,1,12,0:0:0:0:
256,192,81976,1,0,0:0:0:0:
256,192,82148,1,0,0:0:0:0:
256,192,82321,1,8,0:0:0:0:
256,192,82493,1,0,0:0:0:0:
256,192,82580,1,0,0:0:0:0:
256,192,82666,1,0,0:0:0:0:
256,192,82838,1,4,0:0:0:0:
256,192,83011,1,0,0:0:0:0:
256,192,83183,1,0,0:0:0:0:
256,192,83269,1,0,0:0:0:0:
256,192,83355,1,0,0:0:0:0:
256,192,83528,1,0,0:0:0:0:
256,192,83614,1,0,0:0:0:0:
256,192,83700,1,0,0:0:0:0:
256,192,83873,1,8,0:0:0:0:
256,192,84217,1,0,0:0:0:0:
256,192,84390,1,8,0:0:0:0:
256,192,84562,1,0,0:0:0:0:
256,192,84735,1,0,0:0:0:0:
256,192,84907,1,8,0:0:0:0:
256,192,85080,1,8,0:0:0:0:
256,192,85252,1,8,0:0:0:0:
256,192,85424,1,0,0:0:0:0:
256,192,85597,1,8,0:0:0:0:
256,192,85769,1,0,0:0:0:0:
256,192,85942,1,8,0:0:0:0:
256,192,86114,1,8,0:0:0:0:
256,192,86200,1,8,0:0:0:0:
256,192,86286,1,8,0:0:0:0:
256,192,86459,1,0,0:0:0:0:
256,192,86631,1,8,0:0:0:0:
256,192,86804,1,0,0:0:0:0:
256,192,87148,1,8,0:0:0:0:
256,192,87235,1,8,0:0:0:0:
256,192,87321,1,8,0:0:0:0:
256,192,87407,1,8,0:0:0:0:
256,192,87493,1,8,0:0:0:0:
256,192,87666,1,0,0:0:0:0:
256,192,87838,1,0,0:0:0:0:
256,192,88011,1,8,0:0:0:0:
256,192,88355,1,0,0:0:0:0:
256,192,88528,1,8,0:0:0:0:
256,192,88700,1,0,0:0:0:0:
256,192,89045,1,0,0:0:0:0:
256,192,89131,1,0,0:0:0:0:
256,192,89217,1,0,0:0:0:0:
256,192,89390,1,8,0:0:0:0:
256,192,89562,1,0,0:0:0:0:
256,192,89735,1,8,0:0:0:0:
256,192,90080,1,0,0:0:0:0:
256,192,90424,1,0,0:0:0:0:
256,192,90597,1,0,0:0:0:0:
256,192,90769,1,8,0:0:0:0:
256,192,91114,1,0,0:0:0:0:
256,192,91286,1,8,0:0:0:0:
256,192,91459,1,8,0:0:0:0:
256,192,91631,1,0,0:0:0:0:
256,192,91804,1,8,0:0:0:0:
256,192,92148,1,8,0:0:0:0:
256,192,92493,1,0,0:0:0:0:
256,192,92666,1,8,0:0:0:0:
256,192,92838,1,0,0:0:0:0:
256,192,93183,1,0,0:0:0:0:
256,192,93355,1,8,0:0:0:0:
256,192,93528,1,0,0:0:0:0:
256,192,93700,1,0,0:0:0:0:
256,192,93873,1,8,0:0:0:0:
256,192,94217,1,12,0:0:0:0:
256,192,94562,1,0,0:0:0:0:
256,192,94735,1,0,0:0:0:0:
256,192,94907,1,0,0:0:0:0:
256,192,95080,1,8,0:0:0:0:
256,192,95252,1,0,0:0:0:0:
256,192,95597,1,0,0:0:0:0:
256,192,95769,1,0,0:0:0:0:
256,192,95942,1,0,0:0:0:0:
256,192,96028,1,0,0:0:0:0:
256,192,96114,1,0,0:0:0:0:
256,192,96286,1,8,0:0:0:0:
256,192,96631,1,0,0:0:0:0:
256,192,96804,1,8,0:0:0:0:
256,192,96976,1,0,0:0:0:0:
256,192,97321,1,8,0:0:0:0:
256,192,97493,1,0,0:0:0:0:
256,192,97580,1,0,0:0:0:0:
256,192,97666,1,0,0:0:0:0:
256,192,97838,1,0,0:0:0:0:
256,192,98011,1,8,0:0:0:0:
256,192,98183,1,4,0:0:0:0:
256,192,98355,1,12,0:0:0:0:
256,192,98528,1,12,0:0:0:0:
256,192,98700,1,4,0:0:0:0:
256,192,98873,1,12,0:0:0:0:
256,192,99045,1,4,0:0:0:0:
256,192,99217,1,12,0:0:0:0:
256,192,99390,2,12,B|256:152|256:152|296:152|296:152|220:228|220:228|256:228|256:228|256:168|256:168|272:152|272:152|284:164|284:164|264:184,1,350
256,192,100424,1,0,0:0:0:0:
256,192,100597,1,0,0:0:0:0:
256,192,100769,1,8,0:0:0:0:
256,192,100855,1,8,0:0:0:0:
256,192,100942,1,8,0:0:0:0:
256,192,101028,1,8,0:0:0:0:
256,192,101114,1,8,0:0:0:0:
256,192,101459,1,0,0:0:0:0:
256,192,101631,1,0,0:0:0:0:
256,192,101804,1,0,0:0:0:0:
256,192,101976,1,8,0:0:0:0:
256,192,102148,1,0,0:0:0:0:
256,192,102321,1,0,0:0:0:0:
256,192,102493,1,8,0:0:0:0:
256,192,102666,1,8,0:0:0:0:
256,192,102752,1,8,0:0:0:0:
256,192,102838,1,8,0:0:0:0:
256,192,103011,1,8,0:0:0:0:
256,192,103183,1,8,0:0:0:0:
256,192,103269,1,8,0:0:0:0:
256,192,103355,1,8,0:0:0:0:
256,192,103528,1,0,0:0:0:0:
256,192,103700,1,8,0:0:0:0:
256,192,103873,1,8,0:0:0:0:
256,192,104045,1,8,0:0:0:0:
256,192,104217,1,0,0:0:0:0:
256,192,104390,1,0,0:0:0:0:
256,192,104562,1,8,0:0:0:0:
256,192,104907,1,0,0:0:0:0:
256,192,105080,1,8,0:0:0:0:
256,192,105252,1,0,0:0:0:0:
256,192,105424,1,0,0:0:0:0:
256,192,105597,1,0,0:0:0:0:
256,192,105769,1,8,0:0:0:0:
256,192,105855,1,8,0:0:0:0:
256,192,105942,1,8,0:0:0:0:
256,192,106114,1,0,0:0:0:0:
256,192,106286,1,0,0:0:0:0:
256,192,106458,1,0,0:0:0:0:
256,192,106631,2,8,B|216:192|216:192|252:188|256:152|256:152|260:188|296:192|296:192|260:196|256:232|256:232|252:196|240:176|240:176|272:176|272:176|256:212,1,350
256,192,107666,1,4,0:0:0:0:
256,192,108011,1,8,0:0:0:0:
256,192,108183,1,0,0:0:0:0:
256,192,108355,1,0,0:0:0:0:
256,192,108528,1,0,0:0:0:0:
256,192,108700,1,8,0:0:0:0:
256,192,109045,1,8,0:0:0:0:
256,192,109217,1,8,0:0:0:0:
256,192,109390,1,0,0:0:0:0:
256,192,109562,1,0,0:0:0:0:
256,192,109735,1,4,0:0:0:0:
256,192,109907,1,4,0:0:0:0:
256,192,110080,1,8,0:0:0:0:
256,192,110252,1,0,0:0:0:0:
256,192,110424,1,8,0:0:0:0:
256,192,110597,1,0,0:0:0:0:
256,192,110769,1,12,0:0:0:0:
256,192,110942,1,12,0:0:0:0:
256,192,111114,1,0,0:0:0:0:
256,192,111200,1,0,0:0:0:0:
256,192,111286,1,0,0:0:0:0:
256,192,111459,1,8,0:0:0:0:
256,192,111631,1,0,0:0:0:0:
256,192,111804,1,0,0:0:0:0:
256,192,112148,1,0,0:0:0:0:
256,192,112321,1,8,0:0:0:0:
256,192,112493,1,0,0:0:0:0:
256,192,112580,1,0,0:0:0:0:
256,192,112666,1,0,0:0:0:0:
256,192,112838,1,8,0:0:0:0:
256,192,113183,1,0,0:0:0:0:
256,192,113355,1,8,0:0:0:0:
256,192,113528,1,0,0:0:0:0:
256,192,113873,1,8,0:0:0:0:
256,192,114045,1,0,0:0:0:0:
256,192,114131,1,0,0:0:0:0:
256,192,114217,1,0,0:0:0:0:
256,192,114390,1,8,0:0:0:0:
256,192,114562,1,0,0:0:0:0:
256,192,114735,1,0,0:0:0:0:
256,192,114907,1,8,0:0:0:0:
256,192,115080,1,8,0:0:0:0:
256,192,115252,1,0,0:0:0:0:
256,192,115338,1,0,0:0:0:0:
256,192,115424,1,0,0:0:0:0:
256,192,115597,1,8,0:0:0:0:
256,192,115769,1,0,0:0:0:0:
256,192,115942,1,4,0:0:0:0:
256,192,116286,1,0,0:0:0:0:
256,192,116459,1,0,0:0:0:0:
256,192,116804,1,0,0:0:0:0:
256,192,116976,1,8,0:0:0:0:
256,192,117321,1,0,0:0:0:0:
256,192,117493,1,8,0:0:0:0:
256,192,117666,1,0,0:0:0:0:
256,192,118011,1,0,0:0:0:0:
256,192,118355,1,0,0:0:0:0:
256,192,118528,1,0,0:0:0:0:
256,192,118873,1,0,0:0:0:0:
256,192,119045,1,8,0:0:0:0:
256,192,119390,1,0,0:0:0:0:
256,192,119562,1,8,0:0:0:0:
256,192,119735,1,0,0:0:0:0:
256,192,120080,1,0,0:0:0:0:
256,192,120252,1,0,0:0:0:0:
256,192,120424,1,0,0:0:0:0:
256,192,120597,1,0,0:0:0:0:
256,192,120769,1,0,0:0:0:0:
256,192,121114,1,8,0:0:0:0:
256,192,121286,1,0,0:0:0:0:
256,192,121459,1,0,0:0:0:0:
256,192,121631,1,8,0:0:0:0:
256,192,121804,1,0,0:0:0:0:
256,192,122148,1,0,0:0:0:0:
256,192,122321,1,0,0:0:0:0:
256,192,122493,1,8,0:0:0:0:
256,192,122666,1,0,0:0:0:0:
256,192,122838,1,0,0:0:0:0:
256,192,123183,1,8,0:0:0:0:
256,192,123355,1,8,0:0:0:0:
256,192,123528,1,0,0:0:0:0:
256,192,123614,1,0,0:0:0:0:
256,192,123700,1,8,0:0:0:0:
256,192,123873,1,8,0:0:0:0:
256,192,124045,1,0,0:0:0:0:
256,192,124217,1,0,0:0:0:0:
256,192,124562,1,0,0:0:0:0:
256,192,124735,1,0,0:0:0:0:
256,192,124907,1,0,0:0:0:0:
256,192,125252,1,8,0:0:0:0:
256,192,125597,1,0,0:0:0:0:
256,192,125769,1,8,0:0:0:0:
256,192,125942,1,0,0:0:0:0:
256,192,126286,1,0,0:0:0:0:
256,192,126459,1,0,0:0:0:0:
256,192,126631,1,0,0:0:0:0:
256,192,126804,1,0,0:0:0:0:
256,192,126976,1,0,0:0:0:0:
256,192,127321,1,8,0:0:0:0:
256,192,127493,1,0,0:0:0:0:
256,192,127666,1,0,0:0:0:0:
256,192,127838,1,8,0:0:0:0:
256,192,128011,1,0,0:0:0:0:
256,192,128355,1,0,0:0:0:0:
256,192,128700,1,0,0:0:0:0:
256,192,128873,1,0,0:0:0:0:
256,192,129045,1,8,0:0:0:0:
256,192,129217,1,0,0:0:0:0:
256,192,129390,1,8,0:0:0:0:
256,192,129735,1,0,0:0:0:0:
256,192,129907,1,8,0:0:0:0:
256,192,130080,1,0,0:0:0:0:
256,192,130424,1,0,0:0:0:0:
256,192,130597,1,0,0:0:0:0:
256,192,130769,1,0,0:0:0:0:
256,192,130942,1,0,0:0:0:0:
256,192,131114,1,0,0:0:0:0:
256,192,131286,1,0,0:0:0:0:
256,192,131459,1,8,0:0:0:0:
256,192,131545,1,8,0:0:0:0:
256,192,131631,1,8,0:0:0:0:
256,192,131804,1,0,0:0:0:0:
256,192,131890,1,0,0:0:0:0:
256,192,131976,1,0,0:0:0:0:
256,192,132148,1,0,0:0:0:0:
256,192,132321,1,0,0:0:0:0:
256,192,132493,1,4,0:0:0:0:
256,192,132838,1,0,0:0:0:0:
256,192,133011,1,8,0:0:0:0:
256,192,133183,1,0,0:0:0:0:
256,192,133528,1,8,0:0:0:0:
256,192,133873,1,0,0:0:0:0:
256,192,134045,1,0,0:0:0:0:
256,192,134217,1,0,0:0:0:0:
256,192,134562,1,0,0:0:0:0:
256,192,134735,1,0,0:0:0:0:
256,192,134907,1,8,0:0:0:0:
256,192,135080,1,0,0:0:0:0:
256,192,135252,1,0,0:0:0:0:
256,192,135597,1,8,0:0:0:0:
256,192,135769,1,0,0:0:0:0:
256,192,135942,1,0,0:0:0:0:
256,192,136114,1,8,0:0:0:0:
256,192,136286,1,0,0:0:0:0:
256,192,136631,1,0,0:0:0:0:
256,192,136976,1,0,0:0:0:0:
256,192,137148,1,0,0:0:0:0:
256,192,137321,1,0,0:0:0:0:
256,192,137666,1,8,0:0:0:0:
256,192,138011,1,0,0:0:0:0:
256,192,138183,1,8,0:0:0:0:
256,192,138355,1,0,0:0:0:0:
256,192,138528,1,0,0:0:0:0:
256,192,138700,1,0,0:0:0:0:
256,192,138873,1,0,0:0:0:0:
256,192,139045,1,8,0:0:0:0:
256,192,139217,1,0,0:0:0:0:
256,192,139390,1,8,0:0:0:0:
256,192,139735,1,8,0:0:0:0:
256,192,139907,1,0,0:0:0:0:
256,192,140080,1,0,0:0:0:0:
256,192,140252,1,8,0:0:0:0:
256,192,140424,1,8,0:0:0:0:
256,192,140597,1,0,0:0:0:0:
256,192,140769,1,8,0:0:0:0:
256,192,141114,1,8,0:0:0:0:
256,192,141286,1,0,0:0:0:0:
256,192,141459,1,8,0:0:0:0:
256,192,141804,1,8,0:0:0:0:
256,192,142148,1,0,0:0:0:0:
256,192,142321,1,8,0:0:0:0:
256,192,142493,1,0,0:0:0:0:
256,192,142838,1,0,0:0:0:0:
256,192,143011,1,0,0:0:0:0:
256,192,143183,1,8,0:0:0:0:
256,192,143355,1,0,0:0:0:0:
256,192,143700,1,0,0:0:0:0:
256,192,143873,1,8,0:0:0:0:
256,192,144217,1,0,0:0:0:0:
256,192,144390,1,8,0:0:0:0:
256,192,144562,1,0,0:0:0:0:
256,192,144735,1,0,0:0:0:0:
256,192,144907,1,0,0:0:0:0:
256,192,145252,1,0,0:0:0:0:
256,192,145424,1,0,0:0:0:0:
256,192,145597,1,0,0:0:0:0:
256,192,145769,1,0,0:0:0:0:
256,192,145942,1,8,0:0:0:0:
256,192,146286,1,0,0:0:0:0:
256,192,146459,1,8,0:0:0:0:
256,192,146631,1,0,0:0:0:0:
256,192,146976,1,0,0:0:0:0:
256,192,147148,1,0,0:0:0:0:
256,192,147321,1,8,0:0:0:0:
256,192,147493,1,0,0:0:0:0:
256,192,147838,2,0,B|208:192|208:192|200:164|216:132|248:132|256:132|256:132|288:132|328:148|344:208|320:256|256:260|224:252|192:216|204:160,1,420
256,192,149045,1,4,0:0:0:0:
256,192,149217,1,4,0:0:0:0:
256,192,149390,1,4,0:0:0:0:
256,192,149735,1,0,0:0:0:0:
256,192,150080,1,8,0:0:0:0:
256,192,150424,1,0,0:0:0:0:
256,192,150597,1,8,0:0:0:0:
256,192,150769,1,0,0:0:0:0:
256,192,151114,1,8,0:0:0:0:
256,192,151200,1,8,0:0:0:0:
256,192,151286,1,8,0:0:0:0:
256,192,151373,1,8,0:0:0:0:
256,192,151459,1,8,0:0:0:0:
256,192,151631,1,0,0:0:0:0:
256,192,151804,1,0,0:0:0:0:
256,192,151976,1,0,0:0:0:0:
256,192,152148,1,8,0:0:0:0:
256,192,152493,1,0,0:0:0:0:
256,192,152666,1,8,0:0:0:0:
256,192,152838,1,0,0:0:0:0:
256,192,153011,1,0,0:0:0:0:
256,192,153183,1,8,0:0:0:0:
256,192,153355,1,0,0:0:0:0:
256,192,153442,1,0,0:0:0:0:
256,192,153528,1,0,0:0:0:0:
256,192,153700,1,8,0:0:0:0:
256,192,153873,1,0,0:0:0:0:
256,192,154045,1,0,0:0:0:0:
256,192,154217,1,0,0:0:0:0:
256,192,154390,1,0,0:0:0:0:
256,192,154562,1,8,0:0:0:0:
256,192,154907,1,0,0:0:0:0:
256,192,155080,1,0,0:0:0:0:
256,192,155252,1,8,0:0:0:0:
256,192,155597,1,8,0:0:0:0:
256,192,155769,1,0,0:0:0:0:
256,192,155942,1,8,0:0:0:0:
256,192,156114,1,0,0:0:0:0:
256,192,156286,1,8,0:0:0:0:
256,192,156459,1,8,0:0:0:0:
256,192,156631,1,0,0:0:0:0:
256,192,156804,1,8,0:0:0:0:
256,192,156976,1,0,0:0:0:0:
256,192,157148,1,0,0:0:0:0:
256,192,157321,1,4,0:0:0:0:
256,192,157493,1,8,0:0:0:0:
256,192,157838,1,0,0:0:0:0:
256,192,158011,1,0,0:0:0:0:
256,192,158183,1,0,0:0:0:0:
256,192,158355,1,8,0:0:0:0:
256,192,158528,1,0,0:0:0:0:
256,192,158700,1,0,0:0:0:0:
256,192,158873,1,8,0:0:0:0:
256,192,159045,1,0,0:0:0:0:
256,192,159390,1,0,0:0:0:0:
256,192,159476,1,0,0:0:0:0:
256,192,159562,1,0,0:0:0:0:
256,192,159648,1,0,0:0:0:0:
256,192,159735,1,0,0:0:0:0:
256,192,159907,1,0,0:0:0:0:
256,192,160080,1,0,0:0:0:0:
256,192,160424,1,8,0:0:0:0:
256,192,160769,1,0,0:0:0:0:
256,192,160942,1,8,0:0:0:0:
256,192,161114,1,0,0:0:0:0:
256,192,161286,1,0,0:0:0:0:
256,192,161459,1,8,0:0:0:0:
256,192,161631,1,8,0:0:0:0:
256,192,161804,1,0,0:0:0:0:
256,192,161976,1,0,0:0:0:0:
256,192,162321,1,0,0:0:0:0:
256,192,162493,1,8,0:0:0:0:
256,192,162838,1,0,0:0:0:0:
256,192,163011,1,8,0:0:0:0:
256,192,163183,1,0,0:0:0:0:
256,192,163528,8,0,165424,0:0:0:0:
256,192,165597,6,0,B|252:192|252:192|260:192|260:192|248:192|248:192|264:192|264:192|244:192|244:192|268:192|268:192|240:192|240:192|272:192|272:192|236:192|236:192|276:192|276:192|232:192|232:192|280:192|280:192|228:192|228:192|240:192,1,350
256,192,166631,1,0,0:0:0:0:
256,192,166976,1,8,0:0:0:0:
256,192,167062,1,8,0:0:0:0:
256,192,167148,1,8,0:0:0:0:
256,192,167235,1,8,0:0:0:0:
256,192,167321,1,8,0:0:0:0:
256,192,167666,1,0,0:0:0:0:
256,192,167838,1,0,0:0:0:0:
256,192,167924,1,0,0:0:0:0:
256,192,168011,1,0,0:0:0:0:
256,192,168183,1,0,0:0:0:0:
256,192,168528,1,0,0:0:0:0:
256,192,168700,1,8,0:0:0:0:
256,192,168873,1,0,0:0:0:0:
256,192,169045,1,0,0:0:0:0:
256,192,169217,1,8,0:0:0:0:
256,192,169390,1,8,0:0:0:0:
256,192,169562,1,0,0:0:0:0:
256,192,169735,1,0,0:0:0:0:
256,192,169907,2,0,B|244:204|244:204|272:204|272:204|244:176|244:176|272:176|272:176|240:200|240:200|268:200|268:200|240:172|240:172|268:172|268:172|236:196,1,280
256,192,170769,1,4,0:0:0:0:
256,192,170942,1,0,0:0:0:0:
256,192,171114,1,8,0:0:0:0:
256,192,171286,1,8,0:0:0:0:
256,192,171459,1,0,0:0:0:0:
256,192,171545,1,0,0:0:0:0:
256,192,171631,1,0,0:0:0:0:
256,192,171804,1,0,0:0:0:0:
256,192,171976,1,0,0:0:0:0:
256,192,172148,1,8,0:0:0:0:
256,192,172321,1,0,0:0:0:0:
256,192,172666,1,0,0:0:0:0:
256,192,172838,2,8,B|284:164|284:164|300:192|284:220|284:220|228:164|228:164|212:192|228:220|228:220|256:156|256:156|256:220,1,350
256,192,173873,1,4,0:0:0:0:
256,192,174045,1,0,0:0:0:0:
256,192,174131,1,0,0:0:0:0:
256,192,174217,1,0,0:0:0:0:
256,192,174390,1,8,0:0:0:0:
256,192,174562,1,0,0:0:0:0:
256,192,174735,1,0,0:0:0:0:
256,192,174907,1,8,0:0:0:0:
256,192,175080,1,0,0:0:0:0:
256,192,175252,1,8,0:0:0:0:
256,192,175338,1,8,0:0:0:0:
256,192,175424,1,8,0:0:0:0:
256,192,175597,1,8,0:0:0:0:
256,192,175769,1,0,0:0:0:0:
256,192,175942,1,0,0:0:0:0:
256,192,176286,1,0,0:0:0:0:
256,192,176459,1,0,0:0:0:0:
256,192,176545,1,0,0:0:0:0:
256,192,176631,1,0,0:0:0:0:
256,192,176804,1,0,0:0:0:0:
256,192,176976,1,8,0:0:0:0:
256,192,177148,1,8,0:0:0:0:
256,192,177321,1,0,0:0:0:0:
256,192,177407,1,0,0:0:0:0:
256,192,177493,1,0,0:0:0:0:
256,192,177666,1,8,0:0:0:0:
256,192,177838,1,8,0:0:0:0:
256,192,178011,1,0,0:0:0:0:
256,192,178183,1,0,0:0:0:0:
256,192,178269,1,0,0:0:0:0:
256,192,178355,1,0,0:0:0:0:
256,192,178528,1,0,0:0:0:0:
256,192,178700,1,0,0:0:0:0:
256,192,179045,1,8,0:0:0:0:
256,192,179217,1,8,0:0:0:0:
256,192,179390,1,8,0:0:0:0:
256,192,179562,1,0,0:0:0:0:
256,192,179735,1,8,0:0:0:0:
256,192,179907,1,8,0:0:0:0:
256,192,180080,1,8,0:0:0:0:
256,192,180166,1,8,0:0:0:0:
256,192,180252,1,8,0:0:0:0:
256,192,180338,1,8,0:0:0:0:
256,192,180424,1,8,0:0:0:0:
256,192,180597,1,0,0:0:0:0:
256,192,180769,1,8,0:0:0:0:
256,192,181114,1,4,0:0:0:0:
256,192,181286,1,4,0:0:0:0:
256,192,181459,1,4,0:0:0:0:
256,192,181631,1,4,0:0:0:0:
256,192,181804,1,4,0:0:0:0:
256,192,181976,1,4,0:0:0:0:
256,192,182148,1,0,0:0:0:0:
256,192,182321,1,8,0:0:0:0:
256,192,182493,1,0,0:0:0:0:
256,192,182666,1,0,0:0:0:0:
256,192,182838,1,8,0:0:0:0:
256,192,183183,1,8,0:0:0:0:
256,192,183355,1,0,0:0:0:0:
256,192,183528,1,0,0:0:0:0:
256,192,183700,1,8,0:0:0:0:
256,192,183873,1,0,0:0:0:0:
256,192,184217,1,0,0:0:0:0:
256,192,184390,1,8,0:0:0:0:
256,192,184476,1,8,0:0:0:0:
256,192,184562,1,8,0:0:0:0:
256,192,184735,1,0,0:0:0:0:
256,192,184907,1,0,0:0:0:0:
256,192,185080,1,0,0:0:0:0:
256,192,185252,2,8,B|236:172|236:172|200:192|200:192|236:212|236:212|276:172|276:172|312:192|312:192|276:212|276:212|244:180|244:180|256:152|256:152|268:180,1,350
256,192,186286,1,0,0:0:0:0:
256,192,186459,1,8,0:0:0:0:
256,192,186545,1,8,0:0:0:0:
256,192,186631,1,8,0:0:0:0:
256,192,186804,1,0,0:0:0:0:
256,192,186976,1,8,0:0:0:0:
256,192,187148,1,8,0:0:0:0:
256,192,187321,1,0,0:0:0:0:
256,192,187666,1,0,0:0:0:0:
256,192,187838,1,8,0:0:0:0:
256,192,188011,1,0,0:0:0:0:
256,192,188355,1,0,0:0:0:0:
256,192,188528,1,8,0:0:0:0:
256,192,188700,1,8,0:0:0:0:
256,192,188873,1,8,0:0:0:0:
256,192,189045,1,8,0:0:0:0:
256,192,189217,1,8,0:0:0:0:
256,192,189390,1,0,0:0:0:0:
256,192,189562,1,12,0:0:0:0:
256,192,189735,1,12,0:0:0:0:
256,192,189907,1,12,0:0:0:0:
256,192,190080,1,12,0:0:0:0:
256,192,190252,1,12,0:0:0:0:
256,192,190424,2,0,P|256:232|300:148,1,350
256,192,191459,1,0,0:0:0:0:
256,192,191545,1,0,0:0:0:0:
256,192,191631,1,0,0:0:0:0:
256,192,191804,1,8,0:0:0:0:
256,192,191890,1,8,0:0:0:0:
256,192,191976,1,8,0:0:0:0:
256,192,192062,1,8,0:0:0:0:
256,192,192148,1,8,0:0:0:0:
256,192,192493,1,0,0:0:0:0:
256,192,192666,1,0,0:0:0:0:
256,192,192838,1,0,0:0:0:0:
256,192,193011,1,8,0:0:0:0:
256,192,193183,1,0,0:0:0:0:
256,192,193528,1,0,0:0:0:0:
256,192,193700,1,8,0:0:0:0:
256,192,193786,1,8,0:0:0:0:
256,192,193873,1,8,0:0:0:0:
256,192,194045,1,0,0:0:0:0:
256,192,194217,1,0,0:0:0:0:
256,192,194390,1,8,0:0:0:0:
256,192,194562,1,0,0:0:0:0:
256,192,194735,1,8,0:0:0:0:
256,192,194821,1,8,0:0:0:0:
256,192,194907,1,8,0:0:0:0:
256,192,194993,1,8,0:0:0:0:
256,192,195080,1,8,0:0:0:0:
256,192,195252,1,8,0:0:0:0:
256,192,195424,1,8,0:0:0:0:
256,192,195597,1,4,0:0:0:0:
256,192,195942,1,0,0:0:0:0:
256,192,196114,1,8,0:0:0:0:
256,192,196286,1,0,0:0:0:0:
256,192,196631,1,0,0:0:0:0:
256,192,196804,1,8,0:0:0:0:
256,192,196890,1,8,0:0:0:0:
256,192,196976,1,8,0:0:0:0:
256,192,197148,1,0,0:0:0:0:
256,192,197321,1,0,0:0:0:0:
256,192,197493,1,0,0:0:0:0:
256,192,197666,2,0,B|252:188|252:188|260:188|260:188|252:196|252:196|260:196|260:196|256:200,10,35
256,192,198700,1,0,0:0:0:0:
256,192,199045,1,0,0:0:0:0:
256,192,199217,1,0,0:0:0:0:
256,192,199390,1,8,0:0:0:0:
256,192,199562,1,0,0:0:0:0:
256,192,199735,1,8,0:0:0:0:
256,192,200080,1,0,0:0:0:0:
256,192,200252,1,8,0:0:0:0:
256,192,200424,1,0,0:0:0:0:
256,192,200769,1,0,0:0:0:0:
256,192,200942,1,0,0:0:0:0:
256,192,201114,1,0,0:0:0:0:
256,192,201286,1,0,0:0:0:0:
256,192,201631,1,0,0:0:0:0:
256,192,201804,1,8,0:0:0:0:
256,192,202148,1,0,0:0:0:0:
256,192,202321,1,8,0:0:0:0:
256,192,202493,1,0,0:0:0:0:
256,192,202666,1,0,0:0:0:0:
256,192,202838,1,8,0:0:0:0:
256,192,203183,1,0,0:0:0:0:
256,192,203355,1,0,0:0:0:0:
256,192,203528,1,0,0:0:0:0:
256,192,203873,1,8,0:0:0:0:
256,192,204217,1,0,0:0:0:0:
256,192,204390,1,8,0:0:0:0:
256,192,204562,1,0,0:0:0:0:
256,192,204907,1,0,0:0:0:0:
256,192,205080,1,0,0:0:0:0:
256,192,205252,1,0,0:0:0:0:
256,192,205424,1,0,0:0:0:0:
256,192,205597,1,0,0:0:0:0:
256,192,205769,1,0,0:0:0:0:
256,192,205942,1,8,0:0:0:0:
256,192,206114,1,0,0:0:0:0:
256,192,206286,1,0,0:0:0:0:
256,192,206459,1,8,0:0:0:0:
256,192,206631,1,0,0:0:0:0:
256,192,206717,1,0,0:0:0:0:
256,192,206804,1,0,0:0:0:0:
256,192,206976,1,4,0:0:0:0:
256,192,207321,1,0,0:0:0:0:
256,192,207493,1,8,0:0:0:0:
256,192,207666,1,0,0:0:0:0:
256,192,208011,1,8,0:0:0:0:
256,192,208355,1,0,0:0:0:0:
256,192,208528,1,8,0:0:0:0:
256,192,208700,1,0,0:0:0:0:
256,192,209045,1,0,0:0:0:0:
256,192,209217,1,0,0:0:0:0:
256,192,209390,1,8,0:0:0:0:
256,192,209562,1,0,0:0:0:0:
256,192,209907,1,0,0:0:0:0:
256,192,210080,1,8,0:0:0:0:
256,192,210424,1,0,0:0:0:0:
256,192,210597,1,8,0:0:0:0:
256,192,210769,1,0,0:0:0:0:
256,192,210942,1,0,0:0:0:0:
256,192,211114,1,0,0:0:0:0:
256,192,211459,1,0,0:0:0:0:
256,192,211631,1,0,0:0:0:0:
256,192,211804,1,0,0:0:0:0:
256,192,211976,1,0,0:0:0:0:
256,192,212148,1,8,0:0:0:0:
256,192,212493,1,0,0:0:0:0:
256,192,212666,1,8,0:0:0:0:
256,192,212838,1,0,0:0:0:0:
256,192,213011,1,0,0:0:0:0:
256,192,213183,1,0,0:0:0:0:
256,192,213355,1,0,0:0:0:0:
256,192,213700,1,0,0:0:0:0:
256,192,213873,1,8,0:0:0:0:
256,192,214217,1,8,0:0:0:0:
256,192,214390,1,0,0:0:0:0:
256,192,214476,1,0,0:0:0:0:
256,192,214562,1,0,0:0:0:0:
256,192,214735,1,0,0:0:0:0:
256,192,214821,1,0,0:0:0:0:
256,192,214907,1,0,0:0:0:0:
256,192,215080,1,0,0:0:0:0:
256,192,215252,1,4,0:0:0:0:
256,192,215424,1,0,0:0:0:0:
256,192,215511,1,0,0:0:0:0:
256,192,215597,1,8,0:0:0:0:
256,192,215769,1,0,0:0:0:0:
256,192,215942,1,0,0:0:0:0:
256,192,216114,1,0,0:0:0:0:
256,192,216286,1,8,0:0:0:0:
256,192,216459,1,0,0:0:0:0:
256,192,216545,1,0,0:0:0:0:
256,192,216631,1,0,0:0:0:0:
256,192,216804,1,8,0:0:0:0:
256,192,216976,1,0,0:0:0:0:
256,192,217148,1,0,0:0:0:0:
256,192,217321,1,0,0:0:0:0:
256,192,217493,1,0,0:0:0:0:
256,192,217580,1,0,0:0:0:0:
256,192,217666,1,0,0:0:0:0:
256,192,217838,1,0,0:0:0:0:
256,192,218011,1,8,0:0:0:0:
256,192,218183,1,0,0:0:0:0:
256,192,218355,1,8,0:0:0:0:
256,192,218700,1,0,0:0:0:0:
256,192,218873,1,8,0:0:0:0:
256,192,219045,1,0,0:0:0:0:
256,192,219217,1,0,0:0:0:0:
256,192,219390,1,0,0:0:0:0:
256,192,219735,1,0,0:0:0:0:
256,192,219907,1,0,0:0:0:0:
256,192,220080,1,0,0:0:0:0:
256,192,220252,1,0,0:0:0:0:
256,192,220424,1,8,0:0:0:0:
256,192,220769,1,0,0:0:0:0:
256,192,220942,1,8,0:0:0:0:
256,192,221114,1,0,0:0:0:0:
256,192,221459,1,8,0:0:0:0:
256,192,221631,1,8,0:0:0:0:
256,192,221717,1,8,0:0:0:0:
256,192,221804,1,8,0:0:0:0:
256,192,221976,1,8,0:0:0:0:
256,192,222148,1,0,0:0:0:0:
256,192,222235,1,0,0:0:0:0:
256,192,222321,1,0,0:0:0:0:
256,192,222493,1,0,0:0:0:0:
256,192,222666,1,8,0:0:0:0:
256,192,222838,1,0,0:0:0:0:
256,192,223011,1,8,0:0:0:0:
256,192,223183,1,0,0:0:0:0:
256,192,223355,1,8,0:0:0:0:
256,192,223528,2,4,B|288:192|288:192|240:224|240:224|276:160|276:160|228:192|228:192|276:224|276:224|236:160,1,350
256,192,224562,1,0,0:0:0:0:
256,192,224648,1,0,0:0:0:0:
256,192,224735,1,0,0:0:0:0:
256,192,224907,1,8,0:0:0:0:
256,192,224993,1,8,0:0:0:0:
256,192,225079,1,8,0:0:0:0:
256,192,225165,1,8,0:0:0:0:
256,192,225251,1,8,0:0:0:0:
256,192,225424,1,0,0:0:0:0:
256,192,225597,1,8,0:0:0:0:
256,192,225683,1,8,0:0:0:0:
256,192,225769,1,8,0:0:0:0:
256,192,225942,1,8,0:0:0:0:
256,192,226114,1,0,0:0:0:0:
256,192,226286,1,8,0:0:0:0:
256,192,226459,1,0,0:0:0:0:
256,192,226631,1,8,0:0:0:0:
256,192,226804,1,0,0:0:0:0:
256,192,226976,1,8,0:0:0:0:
256,192,227148,1,8,0:0:0:0:
256,192,227321,1,0,0:0:0:0:
256,192,227666,1,0,0:0:0:0:
256,192,227838,1,0,0:0:0:0:
256,192,228011,1,0,0:0:0:0:
256,192,228183,1,8,0:0:0:0:
256,192,228355,1,0,0:0:0:0:
256,192,228700,1,8,0:0:0:0:
256,192,228786,1,8,0:0:0:0:
256,192,228873,1,8,0:0:0:0:
256,192,228959,1,8,0:0:0:0:
256,192,229045,1,8,0:0:0:0:
256,192,229217,1,0,0:0:0:0:
256,192,229390,1,8,0:0:0:0:
256,192,229476,1,8,0:0:0:0:
256,192,229562,1,8,0:0:0:0:
256,192,229735,1,0,0:0:0:0:
256,192,229907,1,0,0:0:0:0:
256,192,230080,1,8,0:0:0:0:
256,192,230166,1,8,0:0:0:0:
256,192,230252,1,8,0:0:0:0:
256,192,230338,1,8,0:0:0:0:
256,192,230424,1,8,0:0:0:0:
256,192,230597,1,0,0:0:0:0:
256,192,230769,2,8,B|256:228|256:228|200:228|200:176|200:176|192:152|192:152|216:156|216:156|256:156|256:156|312:156|312:208|312:208|320:232|320:232|292:228|292:228|256:228|256:228|256:192,1,420
