osu file format v12

[General]
AudioFilename: Pavor nocturnus.mp3
AudioLeadIn: 3000
PreviewTime: 66295
Countdown: 0
SampleSet: Soft
StackLeniency: 0.7
Mode: 0
LetterboxInBreaks: 1

[Editor]
DistanceSpacing: 1
BeatDivisor: 4
GridSize: 4

[Metadata]
Title:Pavor Nocturnus
TitleUnicode:Pavor Nocturnus
Artist:Igorrr
ArtistUnicode:Igorrr
Creator:grumd
Version:Normal
Source:
Tags:breakcore baroquecore Loctav [Luanny] Mr Color
BeatmapID:249743
BeatmapSetID:57525

[Difficulty]
HPDrainRate:3
CircleSize:3
OverallDifficulty:3
ApproachRate:4
SliderMultiplier:1
SliderTickRate:2

[Events]
//Background and Video events
0,0,"325103.jpg",0,0
//Break Periods
2,116142,130139
2,198900,212897
//Storyboard Layer 0 (Background)
//Storyboard Layer 1 (Fail)
//Storyboard Layer 2 (Pass)
//Storyboard Layer 3 (Foreground)
//Storyboard Sound Samples
//Background Colour Transformations
3,100,0,0,0

[TimingPoints]
80,344.827586206897,3,2,1,45,1,0
14562,-100,3,2,1,55,0,0
16631,-100,3,2,1,65,0,0
49045,-100,3,2,1,70,0,0
49217,-100,3,2,1,75,0,0
49390,-100,3,2,1,80,0,0
49562,-100,3,2,1,85,0,0
49735,-100,3,2,1,80,0,0
65252,-100,3,2,1,100,0,0
65942,-100,3,2,1,100,0,0
90080,-90.9090909090909,3,2,1,100,0,0
91114,-100,3,2,1,100,0,0
92148,-90.9090909090909,3,2,1,100,0,0
93183,-100,3,2,1,100,0,0
94217,-86.9565217391304,3,2,1,100,0,0
95252,-100,3,2,1,100,0,0
96286,-86.9565217391304,3,2,1,100,0,0
97321,-100,3,2,1,100,0,0
99390,-90.9090909090909,3,2,1,100,0,1
115942,-100,3,2,1,50,0,0
132493,-100,3,2,1,60,0,0
149045,-100,3,2,1,90,0,0
163528,-100,3,2,1,100,0,0
165597,-90.9090909090909,3,2,1,100,0,0
166631,-90.9090909090909,3,2,1,100,0,1
182148,-100,3,2,1,100,0,0
213183,-100,3,2,1,70,0,0
215252,-100,3,2,1,80,0,0
216286,-90.9090909090909,3,2,1,100,0,1
220424,-100,3,2,1,100,0,0
223528,-90.9090909090909,3,2,1,100,0,0
224562,-90.9090909090909,3,2,1,100,0,1
231804,-100,3,2,0,70,0,0

[Colours]
Combo1 : 209,147,131
Combo2 : 75,122,137
Combo3 : 146,183,194
Combo4 : 122,137,75
Combo5 : 183,194,146
Combo6 : 155,77,57

[HitObjects]
77,271,80,2,0,P|162:242|165:127,1,200,8|2,0:0|0:0,0:0:0:0:
91,87,1114,2,0,P|165:92|250:51,2,150,2|2|8,0:0|0:0|0:0,0:0:0:0:
26,163,2493,2,0,P|32:217|62:270,1,100,2|2,0:0|0:0,0:0:0:0:
145,293,3183,6,0,P|232:234|327:239,1,200,2|8,0:0|0:0,0:0:0:0:
407,292,4217,2,0,L|443:90,1,200,8|2,0:0|0:0,0:0:0:0:
341,95,5252,2,0,P|283:129|179:135,1,150,2|2,0:0|0:0,0:0:0:0:
258,277,6286,6,0,B|318:298|318:298|407:279,2,150,10|8|0,0:0|0:0|0:0,0:0:0:0:
238,178,7666,2,0,P|210:142|156:121,1,100,2|2,0:0|0:0,0:0:0:0:
149,220,8355,6,0,B|229:223|278:154|278:154|376:142|376:142|433:164,1,300,8|2,0:0|0:0,0:0:0:0:
437,259,9735,2,0,P|397:297|342:317,1,100,2|8,0:0|0:0,0:0:0:0:
256,302,10424,2,0,P|171:252|105:253,1,150,10|10,0:0|0:0,0:0:0:0:
48,118,11459,38,0,P|129:162|242:144,1,200,2|10,0:0|0:0,0:0:0:0:
317,95,12493,2,0,B|356:100|384:136|384:136|377:207|432:257,1,200,8|2,0:0|0:0,0:0:0:0:
362,327,13528,2,0,P|280:331|180:251,1,200,8|10,0:0|0:0,0:0:0:0:
167,166,14562,6,0,P|219:111|232:31,1,150,4|2,1:0|0:0,0:0:0:0:
377,81,15597,2,0,P|406:137|404:227,1,150,4|2,1:0|1:2,0:0:0:0:
260,259,16631,6,0,P|163:206|66:220,1,200,4|2,1:0|0:0,0:0:0:0:
133,298,17666,2,0,B|189:215|189:215|177:110,1,200,4|10,1:1|0:0,0:0:0:0:
261,61,18700,6,0,P|331:73|365:65,2,100,10|2|2,0:0|0:0|0:0,0:0:0:0:
167,98,19735,2,0,P|140:167|69:221,2,150,4|0|2,1:0|0:0|1:2,0:0:0:0:
255,51,21114,37,2,0:0:0:0:
351,76,21459,1,2,0:0:0:0:
407,158,21804,2,0,P|392:258|216:300,1,300,4|10,1:0|1:2,0:0:0:0:
184,208,23183,2,0,P|208:158|202:107,1,100,2|2,0:0|0:0,0:0:0:0:
108,143,23873,2,0,P|217:140|302:81,1,200,4|2,1:0|0:0,0:0:0:0:
389,115,24907,6,0,B|378:191|444:242|444:242|502:259,1,200,4|2,1:0|0:0,0:0:0:0:
453,347,25942,2,0,P|357:366|298:352,1,150,4|0,1:0|0:0,0:0:0:0:
273,209,26976,2,0,P|269:155|247:110,2,100,2|2|2,1:2|0:0|0:0,0:0:0:0:
214,290,28011,2,0,P|114:302|41:242,1,200,4|8,1:0|0:2,0:0:0:0:
78,149,29045,6,0,B|149:132|188:55|188:55|183:143|236:196,1,300,10|4,1:2|1:0,0:0:0:0:
332,177,30424,2,0,P|359:132|397:103,1,100,2|2,0:0|0:0,0:0:0:0:
478,160,31114,2,0,P|488:283|413:337,1,200,10|2,1:2|0:0,0:0:0:0:
340,304,32148,2,0,P|292:290|238:291,1,100,4|2,1:0|0:0,0:0:0:0:
158,344,32838,1,10,0:0:0:0:
68,298,33183,6,0,P|36:197|60:106,1,200,4|2,1:1|0:0,0:0:0:0:
151,70,34217,2,0,P|200:152|256:185,1,150,4|0,1:0|0:0,0:0:0:0:
306,35,35252,2,0,P|353:22|406:29,2,100,10|2|2,1:2|0:0|0:0,0:0:0:0:
323,133,36286,2,0,P|376:165|470:161,2,150,4|0|10,1:0|1:0|1:2,0:0:0:0:
232,175,37666,37,2,0:0:0:0:
132,165,38011,1,2,0:0:0:0:
55,100,38355,2,0,P|100:188|58:288,1,200,4|10,1:0|0:0,0:0:0:0:
132,355,39390,2,0,P|183:349|228:329,1,100,10|2,1:2|0:0,0:0:0:0:
281,245,40080,1,2,0:0:0:0:
366,193,40424,2,0,P|446:202|495:264,1,150,4|0,1:0|0:0,0:0:0:0:
363,331,41459,6,0,P|282:271|342:100,1,300,4|4,1:0|1:0,0:0:0:0:
434,102,42838,2,0,P|463:149|468:192,1,100,0|8,0:0|0:0,0:0:0:0:
377,236,43528,2,0,P|255:178|185:198,1,200,10|2,1:2|0:0,0:0:0:0:
130,265,44562,2,0,P|84:283|32:283,2,100,4|10|8,1:0|0:0|2:2,0:0:0:0:
138,165,45597,6,0,B|121:113|72:87|72:87|173:94|251:22,1,300,10|4,1:2|1:0,0:0:0:0:
317,96,46976,2,0,P|363:127|411:134,1,100,0|8,0:0|0:0,0:0:0:0:
477,205,47666,2,0,P|469:299|418:357,2,150,10|8|4,1:2|0:0|1:0,0:0:0:0:
388,160,49045,5,10,0:0:0:0:
303,212,49390,1,2,0:0:0:0:
205,187,49735,38,0,P|122:206|48:298,1,200,2|2,1:2|0:0,0:0:0:0:
132,347,50769,2,0,P|241:334|320:375,1,200,4|8,1:0|0:0,0:0:0:0:
413,341,51804,1,8,1:2:0:0:
475,263,52148,1,2,0:0:0:0:
481,163,52493,1,2,0:0:0:0:
401,102,52838,2,0,P|292:145|185:20,1,300,4|10,1:0|1:2,0:0:0:0:
89,53,54217,6,0,P|67:96|63:155,1,100,2|2,0:0|0:0,0:0:0:0:
137,213,54907,2,0,P|245:174|336:181,1,200,4|8,1:0|0:0,0:0:0:0:
384,262,55942,2,0,P|411:313|452:342,2,100,10|2|2,1:2|0:0|0:0,0:0:0:0:
437,177,56976,2,0,P|444:95|415:28,2,150,4|0|8,1:0|0:0|1:2,0:0:0:0:
348,223,58355,5,2,0:0:0:0:
255,185,58700,1,2,0:0:0:0:
212,94,59045,2,0,P|138:51|41:57,1,150,4|2,1:0|0:0,0:0:0:0:
81,197,60080,2,0,P|93:246|83:301,2,100,8|2|2,1:2|0:0|0:0,0:0:0:0:
158,133,61114,2,0,P|247:165|310:267,1,200,4|8,1:0|0:2,0:0:0:0:
389,303,62148,6,0,P|481:244|427:73,1,300,2|4,1:2|1:0,0:0:0:0:
341,96,63528,1,2,0:0:0:0:
283,177,63873,1,10,0:2:0:0:
331,264,64217,2,0,P|411:283|489:269,2,150,8|8|4,1:2|0:0|1:0,0:0:0:0:
236,298,65597,37,2,0:0:0:0:
151,245,65942,1,2,0:0:0:0:
52,260,66286,6,0,B|18:224|18:224|1:175|1:175|9:125|9:125|36:83|36:83|78:60|78:60|130:56,1,300,10|4,1:2|1:0,0:0:0:0:
225,82,67666,2,0,P|275:104|321:102,1,100,2|8,0:0|1:2,0:0:0:0:
417,123,68355,2,0,P|463:208|455:269,2,150,8|0|4,1:2|0:0|1:0,0:0:0:0:
318,142,69735,1,2,0:0:0:0:
286,236,70080,1,0,0:0:0:0:
317,327,70424,6,0,P|229:249|119:249,1,200,8|2,1:2|0:0,0:0:0:0:
58,279,71459,2,0,P|132:182|114:96,1,200,4|2,1:0|0:0,0:0:0:0:
210,65,72493,2,0,L|322:80,1,100,10|2,1:2|0:0,0:0:0:0:
401,118,73183,1,2,0:0:0:0:
472,188,73528,54,0,P|494:235|492:286,2,100,4|2|2,1:0|0:0|0:0,0:0:0:0:
375,214,74562,2,0,B|297:275|297:275|196:285,1,200,10|2,1:2|0:0,0:0:0:0:
113,228,75597,2,0,P|86:181|51:154,2,100,4|0|8,1:0|0:0|0:0,0:0:0:0:
136,326,76631,2,0,P|196:211|280:178,1,200,10|2,1:2|0:0,0:0:0:0:
355,181,77666,38,0,B|342:258|342:258|390:375,1,200,4|8,1:1|0:0,0:0:0:0:
484,341,78700,2,0,P|503:295|504:240,1,100,8|2,1:2|0:0,0:0:0:0:
465,152,79390,1,2,0:0:0:0:
370,114,79735,2,0,P|255:151|165:117,1,200,4|10,1:0|0:0,0:0:0:0:
84,109,80769,38,0,P|43:153|25:200,1,100,10|0,1:2|0:0,0:0:0:0:
85,271,81459,1,2,0:0:0:0:
172,222,81804,2,0,L|280:238,1,100,4|8,1:0|0:0,0:0:0:0:
354,291,82493,1,2,0:0:0:0:
426,222,82838,6,0,P|501:297|517:348,2,150,4|8|4,1:0|0:0|1:0,0:0:0:0:
362,144,84217,2,0,P|360:93|384:43,1,100,2|8,0:0|0:0,0:0:0:0:
457,112,84907,2,0,P|378:47|249:61,1,200,8|2,1:2|0:0,0:0:0:0:
233,131,85942,2,0,P|140:206|43:202,1,200,4|8,1:0|0:0,0:0:0:0:
26,115,86976,6,0,P|51:71|90:36,1,100,4|2,1:0|0:0,0:0:0:0:
187,47,87666,1,10,0:0:0:0:
249,124,88011,2,0,L|263:279,2,150,4|10|10,1:0|0:0|0:0,0:0:0:0:
345,95,89390,2,0,P|397:75|438:41,1,100,2|10,0:0|0:0,0:0:0:0:
495,128,90080,6,0,P|466:196|211:250,1,330.000010070801,4|4,1:0|1:0,0:0:0:0:
173,189,91459,1,2,0:0:0:0:
175,88,91804,1,10,0:0:0:0:
253,22,92148,38,0,P|421:66|437:223,1,330.000010070801,4|4,1:0|1:0,0:0:0:0:
355,244,93528,1,10,0:0:0:0:
263,202,93873,1,2,0:0:0:0:
215,110,94217,6,0,P|93:165|122:352,1,345.000006580353,4|4,1:0|1:0,0:0:0:0:
216,331,95597,2,0,P|248:293|291:269,1,100,2|10,0:0|0:0,0:0:0:0:
391,288,96286,6,0,P|452:171|282:39,1,345.000006580353,4|4,1:0|1:0,0:0:0:0:
236,89,97666,2,0,P|191:118|146:126,1,100,10|2,0:2|0:0,0:0:0:0:
67,188,98355,6,0,P|70:237|92:285,1,100,4|10,1:0|0:2,0:0:0:0:
173,338,99045,1,10,0:2:0:0:
270,321,99390,6,2,B|319:337|319:337|377:334|377:334|428:313|428:313|466:273|466:273,1,220.000006713867,4|0,1:0|0:0,0:0:0:0:
494,167,100424,6,0,P|444:63|334:49,1,220.000006713867,4|0,1:0|1:0,0:0:0:0:
244,80,101459,2,0,P|184:83|137:69,1,110.000003356934,8|2,0:0|0:0,0:0:0:0:
31,102,102148,1,2,0:0:0:0:
30,210,102493,70,0,P|96:307|228:316,1,220.000006713867,4|8,1:0|0:0,0:0:0:0:
278,259,103528,2,0,P|373:201|448:194,2,165.000005035401,2|8|4,1:2|0:0|1:0,0:0:0:0:
172,226,104907,6,0,P|138:181|125:127,1,110.000003356934,2|10,0:0|0:0,0:0:0:0:
200,49,105597,2,0,P|313:39|401:109,1,220.000006713867,10|2,1:2|0:0,0:0:0:0:
432,202,106631,69,4,1:0:0:0:
401,307,106976,2,0,P|340:328|285:328,1,110.000003356934,0|0,0:0|0:0,0:0:0:0:
227,241,107666,2,0,P|159:184|-1:196,1,220.000006713867,4|10,1:0|0:0,0:0:0:0:
49,287,108700,6,0,B|131:273|160:195|160:195|148:115,1,220.000006713867,4|8,1:0|0:0,0:0:0:0:
99,33,109735,2,0,L|-15:16,2,110.000003356934,2|2|10,0:0|0:0|0:0,0:0:0:0:
176,110,110769,70,0,L|395:78,1,220.000006713867,2|10,1:2|0:0,0:0:0:0:
466,161,111804,2,0,P|453:222|293:302,1,220.000006713867,0|10,1:0|0:0,0:0:0:0:
235,246,112838,6,0,P|189:216|125:216,2,110.000003356934,4|2|2,1:0|0:0|0:0,0:0:0:0:
156,324,113873,2,0,P|48:282|27:182,1,220.000006713867,0|10,1:0|0:0,0:0:0:0:
101,110,114907,70,0,B|215:94|215:94|321:125,1,220.000006713867,4|2,1:0|0:0,0:0:0:0:
392,188,115942,1,4,1:0:0:0:
50,185,131459,22,0,P|114:113|244:111,1,200,0|2,0:0|0:0,0:0:0:0:
260,187,132493,6,0,P|191:250|183:322,1,150,4|8,1:0|0:0,0:0:0:0:
328,331,133528,2,0,B|376:246|376:246|360:142,1,200,4|8,1:0|1:2,0:0:0:0:
281,82,134562,2,0,P|221:100|184:100,1,100,0|2,1:0|0:0,0:0:0:0:
98,47,135252,1,2,0:0:0:0:
31,121,135597,2,0,P|27:254|167:340,1,300,4|0,1:0|1:0,0:0:0:0:
239,286,136976,6,0,P|274:267|336:259,1,100,2|2,0:0|0:0,0:0:0:0:
427,224,137666,2,0,P|431:134|363:47,1,200,4|0,1:0|1:0,0:0:0:0:
270,75,138700,2,0,P|240:113|232:166,2,100,8|2|2,1:2|0:0|0:0,0:0:0:0:
331,154,139735,2,0,P|264:116|60:184,1,300,4|4,1:0|1:0,0:0:0:0:
82,276,141114,6,0,P|132:283|172:312,1,100,2|2,0:0|0:0,0:0:0:0:
269,332,141804,2,0,P|371:299|419:246,2,150,4|2|0,1:0|0:0|1:0,0:0:0:0:
205,254,143183,2,0,B|240:138|240:138|293:79,1,200,2|4,0:0|1:0,0:0:0:0:
378,130,144217,2,0,P|431:143|487:136,1,100,2|8,0:0|0:0,0:0:0:0:
463,238,144907,38,0,P|357:297|266:289,1,200,0|2,1:0|0:0,0:0:0:0:
232,206,145942,2,0,P|262:108|316:70,2,150,4|2|2,1:0|0:0|1:2,0:0:0:0:
150,264,147321,2,0,P|93:270|44:260,1,100,2|0,0:0|0:0,0:0:0:0:
7,172,148011,2,0,P|87:89|192:72,1,200,4|2,1:0|0:0,0:0:0:0:
247,129,149045,6,0,P|376:140|464:2,2,300,4|4|4,1:0|1:0|1:0,0:0:0:0:
149,107,151459,1,2,0:0:0:0:
60,152,151804,1,2,0:0:0:0:
34,248,152148,6,0,P|130:295|263:179,1,300,4|4,1:0|1:0,0:0:0:0:
202,102,153528,2,0,P|154:93|110:63,2,100,2|2|4,0:0|0:0|1:0,0:0:0:0:
297,71,154562,2,0,P|409:62|475:134,1,200,2|0,0:0|1:0,0:0:0:0:
433,212,155597,2,0,P|442:267|476:314,1,100,2|2,0:0|0:0,0:0:0:0:
395,374,156286,2,0,P|293:362|215:303,1,200,4|2,1:0|0:0,0:0:0:0:
194,207,157321,5,2,1:2:0:0:
211,108,157666,2,0,P|261:81|319:77,1,100,8|2,0:0|0:0,0:0:0:0:
385,132,158355,2,0,P|353:227|489:358,2,300,4|0|4,1:0|1:0|1:0,0:0:0:0:
346,39,160769,2,0,P|303:42|251:67,1,100,0|2,0:0|0:0,0:0:0:0:
226,163,161459,38,0,P|294:198|325:316,1,200,0|2,1:0|0:0,0:0:0:0:
237,356,162493,2,0,B|146:316|146:316|39:326,1,200,4|0,1:0|0:0,0:0:0:0:
19,228,163528,6,0,P|40:183|39:128,1,100,4|2,1:0|0:0,0:0:0:0:
109,60,164217,1,2,0:0:0:0:
208,51,164562,2,0,P|305:131|310:245,1,200,4|2,1:0|0:0,0:0:0:0:
262,293,165597,38,2,B|210:278|210:278|154:278|154:278|103:300|103:300|65:340|65:340,1,220.000006713867,4|0,1:0|0:0,0:0:0:0:
4,248,166631,6,0,P|-8:135|64:68,1,220.000006713867,4|0,1:0|1:0,0:0:0:0:
163,117,167666,2,0,P|215:137|283:137,1,110.000003356934,8|2,1:2|0:0,0:0:0:0:
333,50,168355,1,2,0:0:0:0:
428,108,168700,70,0,P|427:266|264:308,1,330.000010070801,4|0,1:0|1:0,0:0:0:0:
222,223,170080,2,0,P|240:168|278:132,1,110.000003356934,2|2,0:0|0:0,0:0:0:0:
331,227,170769,6,0,P|227:160|212:28,1,220.000006713867,4|8,1:0|0:0,0:0:0:0:
93,59,171804,2,0,L|72:175,1,110.000003356934,8|2,1:2|0:0,0:0:0:0:
118,267,172493,1,2,0:0:0:0:
220,307,172838,70,0,P|252:228|373:179,1,220.000006713867,4|2,1:0|0:0,0:0:0:0:
446,260,173873,2,0,B|397:280|397:280|341:281|341:281|288:267|288:267|245:234|245:234|217:186|217:186|205:129,1,330.000010070801,2|4,1:2|1:0,0:0:0:0:
248,29,175252,6,0,P|299:35|351:66,1,110.000003356934,10|2,0:0|0:0,0:0:0:0:
309,165,175942,2,0,P|243:248|247:366,1,220.000006713867,0|2,1:2|0:0,0:0:0:0:
351,334,176976,70,0,P|307:269|167:281,1,220.000006713867,4|2,1:0|0:0,0:0:0:0:
67,258,178011,2,0,P|38:209|34:153,2,110.000003356934,0|2|2,1:0|0:0|0:0,0:0:0:0:
167,212,179045,6,0,P|259:158|298:42,1,220.000006713867,4|2,1:0|0:0,0:0:0:0:
402,81,180080,2,0,P|438:125|454:182,1,110.000003356934,10|10,1:2|0:0,0:0:0:0:
395,268,180769,1,10,0:0:0:0:
286,247,181114,70,2,B|295:190|295:190|275:135,2,110.000003356934,4|2|2,1:0|0:0|0:0,0:0:0:0:
198,297,182148,6,0,P|117:296|34:237,2,150,0|2|4,1:0|0:0|1:0,0:0:0:0:
242,207,183528,2,0,P|259:161|294:120,1,100,2|8,0:0|0:0,0:0:0:0:
389,104,184217,70,0,P|448:181|456:284,1,200,8|2,1:2|0:0,0:0:0:0:
368,329,185252,2,0,P|314:329|270:350,2,100,4|2|2,1:0|0:0|0:0,0:0:0:0:
430,250,186286,6,0,P|355:188|221:198,1,200,10|2,1:2|0:0,0:0:0:0:
190,259,187321,2,0,L|172:366,2,100,4|8|8,1:0|0:0|0:0,0:0:0:0:
129,179,188355,70,0,P|171:78|370:58,1,300,2|4,1:2|1:1,0:0:0:0:
408,120,189735,1,2,0:0:0:0:
415,219,190080,1,2,0:0:0:0:
344,289,190424,6,0,B|296:302|296:302|245:302|245:302|196:291|196:291|153:265|153:265|120:228|120:228|101:175,1,300,2|4,1:2|1:0,0:0:0:0:
112,81,191804,2,0,P|154:60|213:56,1,100,10|10,0:0|0:0,0:0:0:0:
286,116,192493,70,0,P|356:149|432:139,2,150,8|8|4,1:2|0:0|1:0,0:0:0:0:
192,152,193873,2,0,P|171:203|171:248,1,100,2|8,0:0|0:0,0:0:0:0:
249,308,194562,6,0,P|395:275|440:133,1,300,2|4,1:2|1:0,0:0:0:0:
386,61,195942,1,2,0:0:0:0:
298,108,196286,1,0,0:0:0:0:
199,90,196631,70,0,P|143:53|51:35,1,150,0|8,1:2|0:0,0:0:0:0:
11,176,197666,2,0,L|30:277,1,100,4|2,1:0|0:0,0:0:0:0:
119,318,198355,1,2,0:0:0:0:
203,264,198700,1,10,1:2:0:0:
234,103,214217,22,0,P|355:105|430:46,1,200,4|8,1:0|0:0,0:0:0:0:
496,123,215252,2,0,P|460:260|376:297,1,200,2|2,0:0|0:0,0:0:0:0:
307,289,216286,54,0,P|270:242|219:211,1,110.000003356934,4|8,1:0|0:0,0:0:0:0:
218,104,216976,1,10,0:0:0:0:
311,46,217321,2,0,P|366:30|424:36,1,110.000003356934,10|2,1:2|0:0,0:0:0:0:
466,133,218011,1,2,0:0:0:0:
409,226,218355,6,0,P|272:231|203:167,1,220.000006713867,4|8,1:0|0:0,0:0:0:0:
142,97,219390,2,0,P|78:79|30:80,2,110.000003356934,4|2|2,1:0|0:0|0:0,0:0:0:0:
134,196,220424,70,0,P|160:304|237:324,1,200,4|2,1:0|0:0,0:0:0:0:
309,255,221459,2,0,P|349:130|507:80,2,300,2|4|10,1:2|1:0|1:2,0:0:0:0:
217,316,223873,2,0,P|162:315|112:293,1,110.000003356934,2|0,0:0|0:0,0:0:0:0:
88,185,224562,6,0,P|143:109|154:35,2,165.000005035401,4|2|2,1:0|0:0|0:0,0:0:0:0:
94,295,225942,1,2,0:0:0:0:
196,334,226286,1,8,0:0:0:0:
285,269,226631,70,0,P|346:146|435:108,1,220.000006713867,4|8,1:0|0:0,0:0:0:0:
500,182,227666,2,0,L|524:299,2,110.000003356934,2|2|2,1:2|0:0|0:0,0:0:0:0:
407,121,228700,6,0,P|303:129|205:66,1,220.000006713867,4|10,1:0|1:2,0:0:0:0:
106,113,229735,2,0,P|83:221|127:336,1,220.000006713867,10|10,0:0|0:0,0:0:0:0:
225,301,230769,2,0,P|307:209|413:191,1,220.000006713867,4|10,1:0|0:0,0:0:0:0:
497,236,231804,69,2,0:0:0:0:
