osu file format v12

[General]
AudioFilename: Pavor nocturnus.mp3
AudioLeadIn: 3000
PreviewTime: 66295
Countdown: 0
SampleSet: Soft
StackLeniency: 0.7
Mode: 0
LetterboxInBreaks: 1

[Editor]
DistanceSpacing: 1
BeatDivisor: 4
GridSize: 4

[Metadata]
Title:Pavor Nocturnus
TitleUnicode:Pavor Nocturnus
Artist:Igorrr
ArtistUnicode:Igorrr
Creator:grumd
Version:Hard
Source:
Tags:breakcore baroquecore Loctav [Luanny] Mr Color
BeatmapID:224387
BeatmapSetID:57525

[Difficulty]
HPDrainRate:5
CircleSize:4
OverallDifficulty:7
ApproachRate:8
SliderMultiplier:1.3
SliderTickRate:2

[Events]
//Background and Video events
0,0,"325103.jpg",0,0
//Break Periods
2,116142,123467
2,198900,213467
//Storyboard Layer 0 (Background)
//Storyboard Layer 1 (Fail)
//Storyboard Layer 2 (Pass)
//Storyboard Layer 3 (Foreground)
//Storyboard Sound Samples
//Background Colour Transformations
3,100,0,0,0

[TimingPoints]
80,344.827586206897,3,2,1,45,1,0
14562,-90.9090909090909,3,2,1,55,0,0
16631,-90.9090909090909,3,2,1,65,0,0
49045,-90.9090909090909,3,2,1,70,0,0
49217,-90.9090909090909,3,2,1,75,0,0
49390,-90.9090909090909,3,2,1,80,0,0
49562,-90.9090909090909,3,2,1,85,0,0
49735,-90.9090909090909,3,2,1,80,0,0
65252,-90.9090909090909,3,2,1,100,0,0
65942,-90.9090909090909,3,2,1,100,0,0
90080,-83.3333333333333,3,2,1,100,0,0
90424,-90.9090909090909,3,2,1,100,0,0
91114,-83.3333333333333,3,2,1,100,0,0
91459,-90.9090909090909,3,2,1,100,0,0
92148,-83.3333333333333,3,2,1,100,0,0
92493,-90.9090909090909,3,2,1,100,0,0
93183,-76.9230769230769,3,2,1,100,0,0
93528,-83.3333333333333,3,2,1,100,0,0
94217,-76.9230769230769,3,2,1,100,0,0
94562,-83.3333333333333,3,2,1,100,0,0
95252,-76.9230769230769,3,2,1,100,0,0
95597,-81.9672131147541,3,2,1,100,0,0
96286,-76.9230769230769,3,2,1,100,0,0
96631,-83.3333333333333,3,2,1,100,0,0
97321,-76.9230769230769,3,2,1,100,0,0
99390,-83.3333333333333,3,2,1,100,0,1
108700,-76.9230769230769,3,2,1,100,0,1
109045,-83.3333333333333,3,2,1,100,0,1
115942,-100,3,2,1,40,0,0
131459,-83.3333333333333,3,2,1,50,0,0
132493,-90.9090909090909,3,2,1,60,0,0
149045,-83.3333333333333,3,2,1,90,0,0
163528,-78.7401574803149,3,2,1,90,0,0
163700,-78.7401574803149,3,2,1,100,0,0
166631,-71.4285714285714,3,2,1,100,0,1
182148,-71.4285714285714,3,2,1,100,0,0
213054,-90.9090909090909,3,2,1,70,0,0
215252,-83.3333333333333,3,2,1,80,0,0
216286,-83.3333333333333,3,2,1,100,0,1
220424,-83.3333333333333,3,2,1,100,0,0
220597,-76.9230769230769,3,2,1,100,0,0
223528,-71.4285714285714,3,2,1,100,0,0
224562,-71.4285714285714,3,2,1,100,0,1
231804,-100,3,2,0,70,0,0

[Colours]
Combo1 : 209,147,131
Combo2 : 75,122,137
Combo3 : 146,183,194
Combo4 : 122,137,75
Combo5 : 183,194,146
Combo6 : 155,77,57

[HitObjects]
79,303,80,6,8,P|121:246|127:179,1,130,8|2,0:0|0:0,0:0:0:0:
86,51,769,1,2,0:0:0:0:
215,112,1114,2,0,P|306:125|393:74,1,195,2|2,0:0|0:0,0:0:0:0:
463,68,1804,2,0,P|478:95|487:132,1,65,8|2,0:0|0:0,0:0:0:0:
442,184,2148,6,0,P|362:224|342:260,1,130,8|2,0:0|0:0,0:0:0:0:
229,344,2838,1,2,0:0:0:0:
118,252,3183,2,0,P|92:192|90:122,1,130,2|0,0:0|0:0,0:0:0:0:
135,73,3700,2,0,P|156:41|161:13,2,65,2|8|2,0:0|0:0|0:0,0:0:0:0:
179,129,4217,6,0,P|229:163|371:161,2,195,8|8|2,0:0|0:0|0:0,0:0:0:0:
44,179,5597,2,0,P|62:208|70:240,1,65,2|2,0:0|0:0,0:0:0:0:
114,294,5942,2,0,P|181:303|244:277,1,130,8|10,0:0|0:0,0:0:0:0:
257,212,6459,5,10,0:0:0:0:
347,101,6804,1,8,0:0:0:0:
461,185,7148,1,8,0:0:0:0:
461,185,7321,2,0,L|453:255,1,65,0|2,0:0|0:0,0:0:0:0:
327,316,7838,1,2,0:0:0:0:
191,271,8183,1,0,0:0:0:0:
191,271,8355,38,0,B|127:258|127:258|65:225|52:151,1,195,8|8,0:0|0:0,0:0:0:0:
127,32,9217,1,0,0:0:0:0:
159,96,9390,2,0,P|215:126|289:122,2,130,2|2|8,0:0|0:0|0:0,0:0:0:0:
154,239,10424,6,0,B|120:304|120:304|52:303|3:338,2,195,10|10|2,0:0|0:0|0:0,0:0:0:0:
288,189,11804,2,0,P|316:215|345:229,1,65,2|0,0:0|0:0,0:0:0:0:
409,242,12148,2,0,P|324:284|296:317,1,130,10|8,0:0|0:0,0:0:0:0:
166,357,12838,5,0,0:0:0:0:
54,267,13183,2,0,P|21:258|-6:236,2,65,2|8|8,0:0|0:0|0:0,0:0:0:0:
151,162,13873,1,0,0:0:0:0:
270,83,14217,2,0,P|306:85|336:78,1,65,10|2,0:0|0:0,0:0:0:0:
394,28,14562,6,0,P|371:83|365:168,1,143.000004364014,4|10,1:0|0:0,0:0:0:0:
409,234,15080,1,2,0:0:0:0:
288,334,15424,1,2,0:0:0:0:
252,263,15597,2,0,P|178:229|96:232,1,143.000004364014,4|2,1:0|0:0,0:0:0:0:
48,266,16114,2,0,P|93:209|105:126,1,143.000004364014,2|2,1:2|1:2,0:0:0:0:
142,71,16631,38,0,P|171:53|207:42,1,71.5000021820069,4|0,1:0|0:0,0:0:0:0:
261,99,16976,2,0,P|313:146|384:167,1,143.000004364014,2|2,0:0|0:0,0:0:0:0:
459,152,17493,1,8,0:0:0:0:
490,224,17666,2,0,B|454:286|454:286|391:320,1,143.000004364014,4|2,1:1|0:0,0:0:0:0:
322,280,18183,2,0,P|254:240|183:230,1,143.000004364014,0|2,0:0|0:0,0:0:0:0:
116,248,18700,5,10,0:0:0:0:
53,103,19045,1,2,0:0:0:0:
181,193,19390,2,0,P|220:182|249:161,1,71.5000021820069,2|0,0:0|0:0,0:0:0:0:
181,193,19735,2,0,P|147:250|142:326,1,143.000004364014,4|2,1:0|0:0,0:0:0:0:
217,346,20252,2,0,P|277:300|354:293,1,143.000004364014,0|0,0:0|0:0,0:0:0:0:
417,315,20769,6,0,P|451:223|427:111,1,214.500006546021,2|8,1:2|0:0,0:0:0:0:
286,41,21631,1,8,0:0:0:0:
286,41,21804,2,0,P|236:88|165:111,1,143.000004364014,4|2,1:0|0:0,0:0:0:0:
87,102,22321,2,0,P|168:140|202:187,1,143.000004364014,0|0,0:0|0:0,0:0:0:0:
178,257,22838,6,0,P|152:280|118:293,2,71.5000021820069,10|8|2,1:2|0:0|0:0,0:0:0:0:
255,241,23355,2,0,P|327:256|383:301,1,143.000004364014,8|8,0:0|0:0,0:0:0:0:
457,276,23873,2,0,L|471:202,1,71.5000021820069,4|0,1:0|0:0,0:0:0:0:
463,127,24217,2,0,P|412:80|389:7,1,143.000004364014,2|2,0:0|0:0,0:0:0:0:
256,96,24907,38,0,L|108:113,1,143.000004364014,4|2,1:0|0:0,0:0:0:0:
87,186,25424,2,0,L|166:199,1,71.5000021820069,8|2,0:0|0:0,0:0:0:0:
220,245,25769,1,8,0:0:0:0:
237,321,25942,2,0,P|180:369|98:368,1,143.000004364014,4|2,1:0|0:0,0:0:0:0:
64,311,26459,2,0,P|81:243|46:172,1,143.000004364014,0|0,0:0|0:0,0:0:0:0:
20,106,26976,6,0,P|29:58|42:36,2,71.5000021820069,2|8|2,1:2|0:0|0:0,0:0:0:0:
88,145,27493,2,0,P|163:124|218:52,1,143.000004364014,8|0,0:0|0:0,0:0:0:0:
277,42,28011,2,0,L|427:83,1,143.000004364014,4|10,1:0|0:0,0:0:0:0:
467,138,28528,1,0,1:2:0:0:
463,216,28700,2,0,P|433:240|396:253,1,71.5000021820069,8|2,0:2|0:0,0:0:0:0:
336,208,29045,6,0,P|260:165|199:162,1,143.000004364014,10|2,1:2|0:0,0:0:0:0:
130,184,29562,2,0,P|180:133|196:62,1,143.000004364014,8|8,0:0|0:0,0:0:0:0:
269,33,30080,2,0,P|344:49|400:108,1,143.000004364014,4|2,1:0|0:0,0:0:0:0:
371,169,30597,1,0,0:0:0:0:
225,228,30942,1,0,0:0:0:0:
225,228,31114,5,10,1:2:0:0:
68,248,31459,1,2,0:0:0:0:
225,228,31804,1,2,0:0:0:0:
365,298,32148,2,0,L|438:313,1,71.5000021820069,4|0,1:0|0:0,0:0:0:0:
483,249,32493,2,0,P|418:216|376:155,1,143.000004364014,2|10,0:0|0:0,0:0:0:0:
436,13,33183,37,4,1:1:0:0:
377,65,33355,1,0,0:0:0:0:
299,52,33528,2,0,P|230:36|154:62,1,143.000004364014,2|2,0:0|0:0,0:0:0:0:
109,115,34045,1,8,0:0:0:0:
117,192,34217,2,0,P|182:237|203:303,1,143.000004364014,4|2,1:0|0:0,0:0:0:0:
147,351,34735,1,0,0:0:0:0:
283,271,35080,1,2,0:0:0:0:
334,211,35252,6,0,P|328:135|278:81,2,143.000004364014,10|2|2,1:2|0:0|0:0,0:0:0:0:
440,326,36286,2,0,L|474:179,1,143.000004364014,4|2,1:0|0:0,0:0:0:0:
444,112,36804,2,0,P|371:116|304:72,1,143.000004364014,0|10,1:0|0:0,0:0:0:0:
235,63,37321,6,0,P|198:70|168:91,1,71.5000021820069,10|0,1:2|0:0,0:0:0:0:
155,166,37666,2,0,P|220:204|255:267,1,143.000004364014,2|2,0:0|0:0,0:0:0:0:
219,332,38183,1,8,0:0:0:0:
140,326,38355,2,0,P|104:315|65:284,1,71.5000021820069,4|0,1:0|0:0,0:0:0:0:
38,142,38873,1,0,0:0:0:0:
170,57,39217,1,2,0:0:0:0:
240,91,39390,6,0,P|280:96|316:93,2,71.5000021820069,10|0|2,1:2|0:0|0:0,0:0:0:0:
175,136,39907,2,0,P|161:200|194:280,1,143.000004364014,8|8,0:0|0:0,0:0:0:0:
259,300,40424,2,0,P|294:283|331:278,1,71.5000021820069,4|2,1:0|0:0,0:0:0:0:
392,321,40769,2,0,P|462:296|505:227,1,143.000004364014,2|2,0:0|0:0,0:0:0:0:
461,88,41459,38,0,P|429:103|393:106,1,71.5000021820069,4|0,1:0|0:0,0:0:0:0:
316,87,41804,1,2,0:0:0:0:
246,49,41976,2,0,P|169:44|103:78,1,143.000004364014,8|8,0:0|0:0,0:0:0:0:
109,150,42493,2,0,P|182:196|202:264,1,143.000004364014,4|0,1:0|0:0,0:0:0:0:
158,313,43011,2,0,L|85:299,2,71.5000021820069,2|8|2,0:0|0:0|0:0,0:0:0:0:
224,355,43528,6,0,L|383:324,1,143.000004364014,10|2,1:2|0:0,0:0:0:0:
411,264,44045,2,0,P|380:198|405:114,1,143.000004364014,8|8,0:0|0:0,0:0:0:0:
448,75,44562,2,0,P|484:66|516:43,2,71.5000021820069,4|2|10,1:0|0:0|0:0,0:0:0:0:
372,49,45080,2,0,P|306:89|282:153,1,143.000004364014,8|8,1:2|0:0,0:0:0:0:
339,201,45597,6,0,P|407:221|452:355,1,214.500006546021,10|8,1:2|0:0,0:0:0:0:
381,374,46286,1,2,0:0:0:0:
246,292,46631,2,0,P|189:254|27:281,1,214.500006546021,4|2,1:0|0:0,0:0:0:0:
99,204,47321,2,0,P|128:181|144:69,1,143.000004364014,8|10,0:0|1:2,0:0:0:0:
89,29,47838,5,8,0:0:0:0:
182,155,48183,2,0,P|196:246|244:296,1,143.000004364014,8|8,0:0|1:2,0:0:0:0:
305,293,48700,38,0,L|382:263,2,71.5000021820069,4|10|10,1:0|0:0|0:0,0:0:0:0:
226,300,49217,2,0,L|154:329,2,71.5000021820069,2|2|2,0:0|0:0|0:0,0:0:0:0:
301,276,49735,6,0,P|339:216|333:135,1,143.000004364014,2|2,1:2|0:0,0:0:0:0:
268,107,50252,2,0,L|129:142,1,143.000004364014,0|8,0:0|0:0,0:0:0:0:
72,197,50769,2,0,P|87:233|89:268,1,71.5000021820069,4|8,1:0|0:0,0:0:0:0:
150,315,51114,2,0,P|218:283|254:211,1,143.000004364014,2|8,0:0|0:0,0:0:0:0:
232,149,51631,1,10,0:0:0:0:
276,83,51804,6,0,P|304:61|343:52,2,71.5000021820069,8|8|2,1:2|0:0|0:0,0:0:0:0:
308,155,52321,2,0,P|382:155|444:201,1,143.000004364014,8|8,0:0|0:0,0:0:0:0:
458,268,52838,2,0,L|444:346,1,71.5000021820069,4|0,1:0|0:0,0:0:0:0:
369,360,53183,2,0,P|309:321|222:317,1,143.000004364014,2|8,0:0|0:2,0:0:0:0:
82,335,53873,6,0,P|45:328|18:309,1,71.5000021820069,10|0,1:2|0:0,0:0:0:0:
30,231,54217,2,0,P|90:193|123:107,1,143.000004364014,2|2,0:0|0:0,0:0:0:0:
162,62,54735,1,8,0:0:0:0:
239,49,54907,2,0,P|299:79|334:148,1,143.000004364014,4|2,1:0|0:0,0:0:0:0:
307,218,55424,2,0,B|246:259|246:259|169:274,1,143.000004364014,2|2,0:0|0:0,0:0:0:0:
112,317,55942,38,0,P|139:343|172:352,1,71.5000021820069,10|8,1:2|0:0,0:0:0:0:
178,272,56286,2,0,P|161:193|106:162,1,143.000004364014,2|2,0:0|0:0,0:0:0:0:
33,178,56804,1,8,0:0:0:0:
21,100,56976,6,0,L|40:25,1,71.5000021820069,4|2,1:0|0:0,0:0:0:0:
114,53,57321,2,0,L|128:126,1,71.5000021820069,2|0,0:0|0:0,0:0:0:0:
202,97,57666,2,0,L|220:24,1,71.5000021820069,2|2,0:0|0:0,0:0:0:0:
294,51,58011,6,0,P|349:84|431:80,1,143.000004364014,8|2,1:2|0:0,0:0:0:0:
476,142,58528,2,0,L|460:286,1,143.000004364014,8|8,0:0|0:0,0:0:0:0:
389,318,59045,2,0,P|354:320|318:311,1,71.5000021820069,4|0,1:0|0:0,0:0:0:0:
272,247,59390,2,0,P|290:214|295:176,1,71.5000021820069,0|2,0:0|0:0,0:0:0:0:
235,129,59735,2,0,L|162:147,1,71.5000021820069,10|2,0:2|0:0,0:0:0:0:
121,211,60080,6,0,P|152:274|147:357,2,143.000004364014,8|2|2,1:2|0:0|0:0,0:0:0:0:
54,168,60942,1,8,0:0:0:0:
74,92,61114,1,4,1:0:0:0:
140,50,61286,2,0,P|179:56|214:52,2,71.5000021820069,2|10|10,0:0|0:0|0:0,0:0:0:0:
141,129,61804,2,0,P|180:180|189:260,1,143.000004364014,8|2,0:2|1:2,0:0:0:0:
139,317,62321,37,8,0:0:0:0:
286,371,62666,2,0,L|435:347,1,143.000004364014,8|8,0:0|0:0,0:0:0:0:
455,274,63183,2,0,L|383:265,2,71.5000021820069,4|0|2,1:0|0:0|0:0,0:0:0:0:
503,211,63700,2,0,P|470:156|397:128,1,143.000004364014,2|2,0:0|0:0,0:0:0:0:
340,181,64217,38,0,L|266:191,1,71.5000021820069,8|8,1:2|0:0,0:0:0:0:
190,181,64562,2,0,P|150:124|159:48,1,143.000004364014,2|2,0:0|0:0,0:0:0:0:
227,19,65080,1,8,0:0:0:0:
301,42,65252,38,2,L|314:118,5,71.5000021820069,4|2|2|2|0|0,1:0|0:0|0:0|0:0|0:0|0:0,0:0:0:0:
387,138,66286,6,0,P|456:209|410:318,2,214.500006546021,10|10|4,1:2|0:2|1:0,0:0:0:0:
309,152,67493,1,2,0:0:0:0:
257,211,67666,1,2,0:0:0:0:
179,224,67838,2,0,L|103:206,2,71.5000021820069,0|8|2,0:0|1:2|0:0,0:0:0:0:
229,284,68355,6,0,P|272:332|361:344,1,143.000004364014,8|0,1:2|0:0,0:0:0:0:
460,237,69045,1,2,0:0:0:0:
421,84,69390,2,0,P|384:95|349:95,1,71.5000021820069,4|2,1:0|0:0,0:0:0:0:
277,68,69735,2,0,P|322:132|320:200,1,143.000004364014,2|0,0:0|0:0,0:0:0:0:
257,240,70252,1,0,0:0:0:0:
178,234,70424,6,0,B|119:194|119:194|49:180,2,143.000004364014,8|2|2,1:2|0:0|0:0,0:0:0:0:
213,304,71286,1,8,0:0:0:0:
279,347,71459,2,0,P|349:325|394:269,1,143.000004364014,4|2,1:0|0:0,0:0:0:0:
372,196,71976,2,0,P|297:170|251:113,1,143.000004364014,8|0,1:2|0:0,0:0:0:0:
178,107,72493,38,0,L|110:135,2,71.5000021820069,10|10|2,1:2|0:0|0:0,0:0:0:0:
234,254,73183,1,2,0:0:0:0:
383,303,73528,6,0,L|406:226,1,71.5000021820069,4|10,1:0|0:0,0:0:0:0:
472,163,73873,2,0,L|489:239,1,71.5000021820069,2|10,0:0|0:0,0:0:0:0:
383,152,74217,2,0,L|406:75,1,71.5000021820069,2|2,0:0|0:0,0:0:0:0:
305,113,74562,6,0,P|241:144|170:126,2,143.000004364014,10|2|2,1:2|0:0|0:0,0:0:0:0:
370,157,75424,1,2,0:0:0:0:
361,235,75597,2,0,P|295:299|174:300,1,214.500006546021,4|2,1:0|0:0,0:0:0:0:
101,282,76286,2,0,P|168:251|199:188,1,143.000004364014,8|10,0:0|1:2,0:0:0:0:
170,117,76804,5,10,0:0:0:0:
104,74,76976,2,0,L|28:55,2,71.5000021820069,2|8|2,0:0|0:0|0:0,0:0:0:0:
180,92,77493,1,8,0:0:0:0:
247,51,77666,2,0,P|292:22|389:16,1,143.000004364014,4|8,1:1|0:0,0:0:0:0:
448,51,78183,2,0,P|453:131|503:190,1,143.000004364014,8|8,0:0|0:0,0:0:0:0:
456,251,78700,38,0,L|381:271,1,71.5000021820069,8|2,1:2|0:0,0:0:0:0:
328,322,79045,1,2,0:0:0:0:
156,225,79390,1,2,0:0:0:0:
301,165,79735,2,0,P|365:89|367:31,1,143.000004364014,4|2,1:0|0:0,0:0:0:0:
388,125,80252,2,0,P|459:157|527:149,1,143.000004364014,8|0,0:0|0:0,0:0:0:0:
470,210,80769,6,0,P|436:225|395:232,1,71.5000021820069,10|10,1:2|0:0,0:0:0:0:
382,306,81114,2,0,P|416:315|447:333,2,71.5000021820069,0|8|2,0:0|1:2|0:0,0:0:0:0:
303,308,81631,1,8,0:0:0:0:
231,273,81804,2,0,P|181:211|180:142,2,143.000004364014,4|8|2,1:0|0:0|0:0,0:0:0:0:
309,263,82666,1,8,0:0:0:0:
375,222,82838,6,0,P|389:186|391:148,1,71.5000021820069,4|2,1:0|0:0,0:0:0:0:
356,84,83183,1,2,0:0:0:0:
284,56,83355,1,8,0:0:0:0:
212,92,83528,2,0,L|172:104,2,35.7500010910034,2|0|8,0:0|0:0|0:0,0:0:0:0:
278,134,83873,2,0,P|327:178|423:187,1,143.000004364014,4|2,1:0|0:0,0:0:0:0:
474,162,84390,1,2,0:0:0:0:
495,237,84562,2,0,P|494:273|483:309,1,71.5000021820069,8|8,0:0|0:0,0:0:0:0:
412,340,84907,5,8,1:2:0:0:
333,346,85080,1,2,0:0:0:0:
268,301,85252,2,0,L|275:256,2,35.7500010910034,2|0|8,0:0|0:0|0:0,0:0:0:0:
194,328,85597,2,0,P|157:326|118:307,1,71.5000021820069,2|8,0:0|0:0,0:0:0:0:
88,242,85942,2,0,P|141:176|135:95,1,143.000004364014,4|8,1:0|0:0,0:0:0:0:
93,59,86459,1,8,0:0:0:0:
27,102,86631,1,8,0:0:0:0:
28,180,86804,1,8,0:0:0:0:
95,220,86976,38,0,L|177:211,1,71.5000021820069,4|2,1:0|0:0,0:0:0:0:
217,301,87321,2,0,L|137:287,1,71.5000021820069,2|10,0:0|0:0,0:0:0:0:
252,230,87666,2,0,P|280:208|320:196,1,71.5000021820069,10|10,0:0|0:0,0:0:0:0:
385,230,88011,2,0,P|445:278|533:286,1,143.000004364014,4|2,1:0|0:0,0:0:0:0:
437,324,88528,2,0,P|367:358|277:348,1,143.000004364014,10|10,0:0|0:0,0:0:0:0:
239,311,89045,6,0,L|223:235,1,71.5000021820069,10|0,0:0|0:0,0:0:0:0:
153,206,89390,2,0,P|81:226|33:278,1,143.000004364014,2|10,0:0|0:0,0:0:0:0:
37,102,90080,2,0,P|73:80|112:73,1,77.999997619629,4|0,1:0|0:0,0:0:0:0:
186,77,90424,1,2,0:0:0:0:
260,102,90597,2,0,L|283:189,2,71.5000021820069,8|8|8,0:0|0:0|0:0,0:0:0:0:
342,79,91114,6,0,L|443:87,1,77.999997619629,4|2,1:0|0:0,0:0:0:0:
457,157,91459,2,0,P|423:175|373:269,1,143.000004364014,2|10,0:0|0:0,0:0:0:0:
314,321,91976,1,8,0:0:0:0:
236,296,92148,6,0,P|192:271|170:237,1,77.999997619629,4|0,1:0|0:0,0:0:0:0:
169,166,92493,2,0,P|229:130|265:48,1,143.000004364014,2|8,0:0|0:0,0:0:0:0:
194,14,93011,1,10,0:0:0:0:
112,47,93183,38,0,L|65:31,2,42.2499980659486,4|0|10,1:0|0:0|0:0,0:0:0:0:
83,129,93528,2,0,L|36:140,2,38.9999988098145,10|0|10,0:0|0:0|1:2,0:0:0:0:
145,189,93873,2,0,P|177:216|196:255,1,77.999997619629,2|8,0:0|0:0,0:0:0:0:
160,333,94217,6,0,P|218:274|314:253,1,168.999992263794,4|10,1:0|0:0,0:0:0:0:
381,278,94735,1,8,0:0:0:0:
462,251,94907,1,8,0:0:0:0:
501,174,95080,1,8,0:0:0:0:
468,93,95252,6,0,P|377:41|283:43,1,168.999992263794,4|2,1:0|0:0,0:0:0:0:
252,98,95769,1,8,0:0:0:0:
256,186,95942,2,0,P|281:216|327:242,1,79.2999967329408,10|8,0:0|0:0,0:0:0:0:
256,186,96286,6,0,P|156:186|77:235,1,168.999992263794,4|2,1:0|0:0,0:0:0:0:
84,302,96804,1,10,0:0:0:0:
151,355,96976,2,0,L|258:344,1,77.999997619629,10|10,0:0|0:0,0:0:0:0:
311,304,97321,38,0,L|358:313,2,42.2499980659486,4|0|10,1:0|0:0|0:2,0:0:0:0:
236,248,97666,1,10,0:2:0:0:
236,248,97752,1,0,0:0:0:0:
236,248,97838,1,2,0:0:0:0:
158,196,98011,2,0,L|167:149,2,42.2499980659486,2|0|2,0:0|0:0|0:0,0:0:0:0:
67,216,98355,1,4,1:0:0:0:
44,125,98528,1,10,0:2:0:0:
115,66,98700,2,0,P|161:51|212:50,1,84.4999961318971,10|10,0:2|0:2,0:0:0:0:
287,70,99045,1,10,0:2:0:0:
351,136,99217,1,10,0:2:0:0:
365,228,99390,54,2,L|376:273,11,38.9999988098145,2|2|2|2|2|2|2|2|2|2|2|2,0:0|0:0|0:0|0:0|0:0|0:0|0:0|0:0|0:0|0:0|0:0|0:0,0:0:0:0:
348,300,100424,6,0,P|268:295|193:337,1,155.999995239258,4|0,1:0|0:0,0:0:0:0:
115,337,100942,1,0,0:0:0:0:
55,274,101114,2,0,P|60:211|125:133,1,155.999995239258,0|8,1:0|0:0,0:0:0:0:
200,126,101631,69,8,0:0:0:0:
282,101,101804,2,0,P|293:64|318:27,2,77.999997619629,2|8|2,0:0|0:0|0:0,0:0:0:0:
324,175,102321,1,8,0:0:0:0:
267,237,102493,6,0,P|180:191|94:193,1,155.999995239258,4|2,1:0|0:0,0:0:0:0:
43,220,103011,2,0,P|103:158|122:84,1,155.999995239258,2|8,0:0|0:0,0:0:0:0:
199,56,103528,69,2,1:2:0:0:
266,108,103700,2,0,L|425:122,1,155.999995239258,2|8,0:0|0:0,0:0:0:0:
483,181,104217,1,2,0:0:0:0:
473,266,104390,1,10,0:0:0:0:
398,308,104562,6,0,P|337:307|307:293,1,77.999997619629,4|2,1:0|0:0,0:0:0:0:
279,226,104907,1,2,0:0:0:0:
307,144,105080,2,0,P|435:102|493:198,1,233.999992858887,2|10,0:0|1:2,0:0:0:0:
475,249,105769,69,10,0:0:0:0:
390,230,105942,2,0,P|357:220|313:221,2,77.999997619629,2|2|2,0:0|0:0|0:0,0:0:0:0:
404,314,106459,1,0,0:0:0:0:
323,341,106631,6,0,L|277:354,2,38.9999988098145,4|0|0,1:0|0:0|0:0,0:0:0:0:
269,273,106976,2,0,L|222:265,2,38.9999988098145,0|0|0,0:0|0:0|0:0,0:0:0:0:
251,188,107321,2,0,L|215:169,2,38.9999988098145,0|0|0,0:0|0:0|0:0,0:0:0:0:
311,127,107666,70,0,P|349:115|384:89,1,77.999997619629,4|0,1:0|0:0,0:0:0:0:
318,32,108011,2,0,P|236:57|155:46,1,155.999995239258,10|10,0:0|0:0,0:0:0:0:
87,82,108528,1,8,0:0:0:0:
57,162,108700,6,0,L|75:248,2,84.4999961318971,4|2|2,1:0|0:0|0:0,0:0:0:0:
87,82,109217,2,0,P|171:69|257:189,1,233.999992858887,10|2,0:0|0:0,0:0:0:0:
209,246,109907,69,2,0:0:0:0:
261,314,110080,2,0,L|350:329,1,77.999997619629,2|10,0:0|0:0,0:0:0:0:
403,271,110424,2,0,L|489:245,1,77.999997619629,10|8,0:0|0:0,0:0:0:0:
507,167,110769,6,0,P|457:109|382:86,1,155.999995239258,2|8,0:0|0:0,0:0:0:0:
298,102,111286,1,2,0:0:0:0:
224,146,111459,1,10,0:0:0:0:
224,146,111545,1,8,0:0:0:0:
224,146,111631,1,10,0:0:0:0:
162,86,111804,70,0,P|72:76|26:33,2,155.999995239258,0|2|10,1:0|0:0|0:0,0:0:0:0:
245,66,112666,1,8,0:0:0:0:
324,96,112838,6,0,P|368:157|347:243,1,155.999995239258,4|2,1:0|0:0,0:0:0:0:
300,299,113355,1,8,0:0:0:0:
220,264,113528,1,2,0:0:0:0:
71,341,113873,69,0,1:0:0:0:
71,341,113959,1,0,0:0:0:0:
71,341,114045,1,0,0:0:0:0:
58,256,114217,2,0,L|20:244,2,38.9999988098145,10|0|0,0:0|0:0|0:0,0:0:0:0:
124,201,114562,2,0,L|164:211,2,38.9999988098145,10|0|8,0:0|0:0|0:0,0:0:0:0:
107,116,114907,5,4,1:0:0:0:
107,116,114993,1,0,0:0:0:0:
107,116,115080,1,0,0:0:0:0:
191,101,115252,2,0,L|207:62,2,38.9999988098145,10|0|8,0:0|0:0|0:0,0:0:0:0:
248,165,115597,2,0,L|294:157,2,38.9999988098145,2|0|2,0:0|0:0|0:0,0:0:0:0:
199,235,115942,1,4,1:0:0:0:
296,300,124217,6,0,P|401:306|462:226,1,195,0|8,1:0|0:0,0:0:0:0:
405,110,125080,1,8,0:0:0:0:
337,132,125252,2,0,P|263:116|216:67,1,130,4|8,1:0|0:0,0:0:0:0:
154,98,125769,2,0,L|126:240,1,130,2|2,0:0|0:0,0:0:0:0:
175,280,126286,6,0,P|206:299|241:304,1,65,0|0,1:0|0:0,0:0:0:0:
301,279,126631,1,2,0:0:0:0:
420,199,126976,1,2,0:0:0:0:
354,71,127321,2,0,P|254:120|157:107,1,195,4|2,1:0|0:0,0:0:0:0:
105,138,128011,2,0,L|91:201,1,65,8|2,0:0|0:0,0:0:0:0:
127,262,128355,6,0,P|197:234|268:236,1,130,0|2,1:0|0:0,0:0:0:0:
301,284,128873,2,0,P|368:320|448:324,1,130,8|0,0:0|0:0,0:0:0:0:
476,281,129390,2,0,L|487:211,1,65,4|0,1:0|0:0,0:0:0:0:
420,186,129735,2,0,L|409:115,1,65,2|2,0:0|0:0,0:0:0:0:
397,51,130080,1,8,0:0:0:0:
254,42,130424,6,0,P|200:111|202:171,1,130,0|2,1:0|0:0,0:0:0:0:
231,214,130942,2,0,P|317:226|368:194,1,130,0|8,0:0|0:0,0:0:0:0:
409,143,131459,38,0,L|421:58,1,77.999997619629,0|8,0:0|0:0,0:0:0:0:
491,158,131804,2,0,L|506:240,1,77.999997619629,0|8,0:0|0:0,0:0:0:0:
411,298,132148,2,0,L|425:213,1,77.999997619629,2|8,0:0|0:0,0:0:0:0:
342,262,132493,6,0,P|273:287|193:278,1,143.000004364014,4|2,1:0|0:0,0:0:0:0:
167,211,133011,2,0,P|116:149|38:129,1,143.000004364014,8|8,0:0|0:0,0:0:0:0:
24,200,133528,2,0,B|34:275|34:275|69:342,1,143.000004364014,4|2,1:0|0:0,0:0:0:0:
142,348,134045,1,2,0:0:0:0:
281,274,134390,1,8,0:0:0:0:
303,198,134562,6,0,P|295:165|275:131,2,71.5000021820069,0|0|2,1:0|0:0|0:0,0:0:0:0:
376,229,135080,2,0,P|444:207|505:139,1,143.000004364014,8|8,0:0|0:0,0:0:0:0:
479,80,135597,2,0,P|446:58|403:45,1,71.5000021820069,4|0,1:0|0:0,0:0:0:0:
347,85,135942,2,0,P|273:146|153:129,1,214.500006546021,2|10,0:0|0:0,0:0:0:0:
88,163,136631,6,0,L|75:239,1,71.5000021820069,0|2,1:0|0:0,0:0:0:0:
122,297,136976,2,0,P|157:288|189:266,1,71.5000021820069,2|8,0:0|0:0,0:0:0:0:
222,198,137321,1,2,0:0:0:0:
161,52,137666,2,0,P|97:80|21:70,2,143.000004364014,4|2|0,1:0|0:0|1:0,0:0:0:0:
238,68,138528,1,0,0:0:0:0:
303,111,138700,38,0,P|320:145|325:179,1,71.5000021820069,8|8,1:2|0:0,0:0:0:0:
257,218,139045,2,0,P|236:254|229:287,2,71.5000021820069,2|8|2,0:0|0:0|0:0,0:0:0:0:
331,191,139562,1,8,0:0:0:0:
402,223,139735,5,4,1:0:0:0:
402,223,139907,1,2,0:0:0:0:
450,161,140080,2,0,L|485:149,2,35.7500010910034,2|0|2,0:0|0:0|0:0,0:0:0:0:
399,101,140424,2,0,L|427:65,2,35.7500010910034,8|8|2,0:0|0:0|0:0,0:0:0:0:
326,132,140769,6,0,P|256:98|226:18,1,143.000004364014,4|2,1:0|0:0,0:0:0:0:
149,33,141286,2,0,P|111:44|78:44,1,71.5000021820069,8|2,0:0|0:0,0:0:0:0:
15,90,141631,1,8,0:0:0:0:
43,163,141804,2,0,P|103:207|185:207,1,143.000004364014,4|2,1:0|0:0,0:0:0:0:
234,166,142321,2,0,L|257:16,1,143.000004364014,2|8,0:0|0:0,0:0:0:0:
332,43,142838,6,0,L|346:115,1,71.5000021820069,0|8,1:0|0:0,0:0:0:0:
393,175,143183,1,2,0:0:0:0:
469,194,143355,1,8,0:0:0:0:
440,267,143528,2,0,P|409:290|374:297,1,71.5000021820069,2|8,0:0|0:0,0:0:0:0:
317,245,143873,2,0,P|263:195|186:178,1,143.000004364014,4|2,1:0|0:0,0:0:0:0:
119,191,144390,1,2,0:0:0:0:
58,240,144562,1,8,0:0:0:0:
43,317,144735,1,2,0:0:0:0:
100,370,144907,38,0,L|249:352,1,143.000004364014,0|2,1:0|0:0,0:0:0:0:
303,303,145424,2,0,L|378:320,2,71.5000021820069,8|2|8,0:0|0:0|0:0,0:0:0:0:
247,246,145942,2,0,P|250:174|318:124,1,143.000004364014,4|2,1:0|0:0,0:0:0:0:
377,143,146459,2,0,P|413:151|448:149,2,71.5000021820069,2|8|0,0:0|0:0|0:0,0:0:0:0:
352,67,146976,6,0,P|288:29|210:27,1,143.000004364014,2|2,1:2|0:0,0:0:0:0:
168,83,147493,2,0,P|146:153|90:194,1,143.000004364014,8|8,0:0|0:0,0:0:0:0:
42,255,148011,6,0,L|34:298,2,35.7500010910034,4|2|8,1:0|0:0|0:0,0:0:0:0:
115,283,148355,2,0,L|121:324,2,35.7500010910034,2|2|8,0:0|0:0|0:0,0:0:0:0:
185,247,148700,1,2,0:0:0:0:
244,298,148873,1,8,0:0:0:0:
317,267,149045,6,0,L|336:182,1,77.999997619629,4|2,1:0|0:0,0:0:0:0:
412,154,149390,2,0,L|432:238,2,77.999997619629,2|2|2,0:0|0:0|0:0,0:0:0:0:
365,81,149907,1,8,0:0:0:0:
279,75,150080,38,0,P|196:122|119:118,1,155.999995239258,4|8,1:0|0:0,0:0:0:0:
64,77,150597,1,2,0:0:0:0:
24,152,150769,1,2,1:2:0:0:
59,230,150942,2,0,L|52:271,2,38.9999988098145,2|0|4,0:0|0:0|1:0,0:0:0:0:
138,197,151286,5,2,0:0:0:0:
204,251,151459,2,0,P|242:270|283:273,1,77.999997619629,2|8,0:0|0:0,0:0:0:0:
327,203,151804,1,2,0:0:0:0:
294,123,151976,1,8,0:0:0:0:
348,57,152148,6,0,P|428:64|485:131,1,155.999995239258,4|8,1:0|0:0,0:0:0:0:
429,186,152666,2,0,P|393:243|407:335,1,155.999995239258,8|0,0:0|0:0,0:0:0:0:
329,373,153183,5,4,1:0:0:0:
283,300,153355,2,0,L|290:261,2,38.9999988098145,2|0|2,0:0|0:0|0:0,0:0:0:0:
207,342,153700,1,2,0:0:0:0:
144,282,153873,2,0,P|129:244|129:197,1,77.999997619629,2|2,0:0|0:0,0:0:0:0:
172,134,154217,38,0,P|250:108|295:45,2,155.999995239258,4|2|8,1:0|0:0|0:0,0:0:0:0:
91,101,155080,1,0,0:0:0:0:
50,176,155252,5,0,1:0:0:0:
85,253,155424,2,0,L|73:300,2,38.9999988098145,8|2|2,0:0|0:0|0:0,0:0:0:0:
165,222,155769,1,2,0:0:0:0:
238,266,155942,2,0,P|282:278|323:273,1,77.999997619629,2|0,0:0|0:0,0:0:0:0:
379,220,156286,6,0,P|389:148|453:71,1,155.999995239258,4|0,1:0|0:0,0:0:0:0:
471,161,156804,2,0,P|381:158|316:115,1,155.999995239258,8|2,0:0|0:0,0:0:0:0:
290,46,157321,6,0,L|209:30,1,77.999997619629,2|2,1:2|0:0,0:0:0:0:
164,129,157666,2,0,L|242:117,1,77.999997619629,8|8,0:0|0:0,0:0:0:0:
322,210,158011,2,0,L|240:197,1,77.999997619629,2|2,0:0|0:0,0:0:0:0:
169,244,158355,38,0,P|226:309|201:389,1,155.999995239258,4|8,1:0|0:0,0:0:0:0:
140,327,158873,2,0,L|118:169,1,155.999995239258,2|8,0:0|0:0,0:0:0:0:
35,150,159390,6,0,L|27:194,2,38.9999988098145,0|0|2,1:0|0:0|0:0,0:0:0:0:
78,75,159735,1,2,0:0:0:0:
157,43,159907,1,2,0:0:0:0:
227,92,160080,2,0,L|323:118,1,77.999997619629,2|2,0:0|0:0,0:0:0:0:
331,192,160424,6,0,P|263:248|252:328,1,155.999995239258,4|0,1:0|0:0,0:0:0:0:
309,374,160942,2,0,P|389:384|460:351,1,155.999995239258,2|0,0:0|0:0,0:0:0:0:
489,274,161459,6,0,L|473:195,1,77.999997619629,0|0,1:0|0:0,0:0:0:0:
413,135,161804,1,2,0:0:0:0:
445,56,161976,1,8,0:0:0:0:
367,20,162148,2,0,P|327:27|289:51,1,77.999997619629,2|2,0:0|0:0,0:0:0:0:
270,128,162493,38,0,P|249:192|176:238,1,155.999995239258,4|8,1:0|0:0,0:0:0:0:
95,208,163011,2,0,B|77:128|77:128|35:58,1,155.999995239258,2|2,0:0|0:0,0:0:0:0:
113,12,163528,6,0,L|198:31,1,82.5499993701935,4|2,1:0|0:0,0:0:0:0:
294,93,163873,2,0,L|209:112,1,82.5499993701935,2|2,0:0|0:0,0:0:0:0:
159,181,164217,2,0,L|244:200,1,82.5499993701935,2|2,0:0|0:0,0:0:0:0:
283,279,164562,5,4,1:0:0:0:
283,279,164648,1,8,0:0:0:0:
283,279,164735,1,2,0:0:0:0:
365,241,164907,2,0,L|370:282,2,41.2749996850967,2|8|2,0:0|0:0|0:0,0:0:0:0:
431,178,165252,2,0,L|451:220,2,41.2749996850967,2|8|2,0:0|0:0|0:0,0:0:0:0:
387,97,165597,22,0,L|397:55,11,41.2749996850967,2|2|2|2|2|2|2|2|2|2|2|2,0:0|0:0|0:0|0:0|0:0|0:0|0:0|0:0|0:0|0:0|0:0|0:0,0:0:0:0:
363,25,166631,6,0,P|312:8|271:6,1,90.9999972229005,4|2,1:0|0:0,0:0:0:0:
189,37,166976,1,2,0:0:0:0:
143,115,167148,1,2,0:0:0:0:
168,201,167321,2,0,P|160:255|134:290,1,90.9999972229005,0|8,1:0|0:0,0:0:0:0:
62,333,167666,70,0,P|157:304|242:333,1,181.999994445801,8|2,1:2|0:0,0:0:0:0:
316,288,168183,1,8,0:0:0:0:
316,288,168269,1,8,0:0:0:0:
316,288,168355,1,2,0:0:0:0:
285,201,168528,1,8,0:0:0:0:
303,112,168700,6,0,L|257:94,2,45.4999986114502,4|0|2,1:0|0:0|0:0,0:0:0:0:
392,92,169045,2,0,P|452:145|464:252,1,181.999994445801,2|2,0:0|0:0,0:0:0:0:
401,305,169562,1,2,0:0:0:0:
401,305,169648,1,8,0:0:0:0:
401,305,169735,69,0,1:0:0:0:
311,287,169907,1,2,0:0:0:0:
228,327,170080,2,2,P|127:309|63:164,1,272.999991668701,2|2,0:0|0:0,0:0:0:0:
141,118,170769,6,0,P|241:118|312:59,1,181.999994445801,4|2,1:0|0:0,0:0:0:0:
373,129,171286,2,0,P|363:175|336:212,1,90.9999972229005,2|8,0:0|0:0,0:0:0:0:
249,232,171631,1,8,0:0:0:0:
161,206,171804,70,0,P|120:137|127:38,1,181.999994445801,8|2,1:2|0:0,0:0:0:0:
216,18,172321,1,8,0:0:0:0:
286,75,172493,2,0,L|305:175,1,90.9999972229005,2|8,0:0|0:0,0:0:0:0:
250,239,172838,5,4,1:0:0:0:
250,239,172924,1,0,0:0:0:0:
250,239,173011,1,2,0:0:0:0:
175,290,173183,2,0,L|165:345,2,45.4999986114502,2|0|2,0:0|0:0|0:0,0:0:0:0:
113,222,173528,2,0,P|71:198|24:191,1,90.9999972229005,2|2,0:0|0:0,0:0:0:0:
52,102,173873,70,2,P|128:67|240:73,1,181.999994445801,2|2,1:2|0:0,0:0:0:0:
281,139,174390,2,2,P|330:227|423:257,1,181.999994445801,2|0,0:0|0:0,0:0:0:0:
465,190,174907,6,0,L|478:98,1,90.9999972229005,4|2,1:0|0:0,0:0:0:0:
421,27,175252,1,10,0:0:0:0:
242,60,175597,2,2,P|202:87|156:96,1,90.9999972229005,2|2,0:0|0:0,0:0:0:0:
103,166,175942,70,0,P|138:250|221:292,1,181.999994445801,0|2,1:2|0:0,0:0:0:0:
301,261,176459,2,0,P|381:211|481:219,1,181.999994445801,2|8,0:0|0:0,0:0:0:0:
478,303,176976,6,0,P|435:327|388:337,1,90.9999972229005,4|2,1:0|0:0,0:0:0:0:
309,302,177321,2,0,P|211:270|107:286,1,181.999994445801,2|2,0:0|0:0,0:0:0:0:
59,330,177838,1,2,0:0:0:0:
14,250,178011,70,0,P|28:195|51:163,1,90.9999972229005,0|2,1:0|0:0,0:0:0:0:
135,146,178355,2,0,P|209:198|305:200,1,181.999994445801,2|2,0:0|0:0,0:0:0:0:
375,153,178873,1,2,0:0:0:0:
377,62,179045,6,0,P|349:38|298:22,1,90.9999972229005,4|2,1:0|0:0,0:0:0:0:
211,50,179390,1,2,0:0:0:0:
165,128,179562,1,2,0:0:0:0:
241,177,179735,2,0,P|269:214|278:259,1,90.9999972229005,2|2,0:0|0:0,0:0:0:0:
234,337,180080,70,0,P|313:267|398:248,1,181.999994445801,10|10,1:2|0:0,0:0:0:0:
469,283,180597,2,0,L|480:330,2,45.4999986114502,10|2|10,0:0|0:0|0:0,0:0:0:0:
495,195,180942,1,10,0:0:0:0:
465,109,181114,6,0,L|372:95,1,90.9999972229005,4|2,1:0|0:0,0:0:0:0:
322,195,181459,2,0,L|415:187,1,90.9999972229005,2|2,0:0|0:0,0:0:0:0:
344,113,181804,2,0,L|249:99,1,90.9999972229005,2|2,0:0|0:0,0:0:0:0:
187,161,182148,70,0,P|149:234|50:237,1,181.999994445801,0|2,1:0|0:0,0:0:0:0:
98,158,182666,2,0,P|146:247|133:333,1,181.999994445801,2|2,0:0|0:0,0:0:0:0:
216,368,183183,6,0,L|311:352,1,90.9999972229005,4|2,1:0|0:0,0:0:0:0:
378,297,183528,2,0,P|405:211|367:128,1,181.999994445801,2|8,0:0|0:0,0:0:0:0:
293,79,184045,1,2,0:0:0:0:
217,129,184217,69,8,1:2:0:0:
126,115,184390,1,8,0:0:0:0:
49,163,184562,2,0,P|30:205|30:253,1,90.9999972229005,2|8,0:0|0:0,0:0:0:0:
101,304,184907,1,2,0:0:0:0:
190,284,185080,1,8,0:0:0:0:
253,219,185252,6,0,L|265:174,2,45.4999986114502,4|0|2,1:0|0:0|0:0,0:0:0:0:
341,242,185597,2,0,L|374:199,2,45.4999986114502,2|2|2,0:0|0:0|0:0,0:0:0:0:
422,283,185942,2,0,L|465:267,2,45.4999986114502,2|2|2,0:0|0:0|0:0,0:0:0:0:
349,337,186286,70,0,P|258:317|205:230,1,181.999994445801,10|2,1:2|0:0,0:0:0:0:
223,157,186804,1,2,0:0:0:0:
293,99,186976,2,0,P|334:82|385:79,1,90.9999972229005,2|2,0:0|0:0,0:0:0:0:
428,155,187321,6,0,P|378:217|377:325,1,181.999994445801,4|8,1:0|0:0,0:0:0:0:
295,363,187838,1,2,0:0:0:0:
208,334,188011,2,0,P|171:304|151:255,1,90.9999972229005,8|2,0:0|0:0,0:0:0:0:
114,183,188355,70,0,L|63:169,2,45.4999986114502,2|8|2,1:2|0:0|0:0,0:0:0:0:
198,147,188700,1,2,0:0:0:0:
244,68,188873,1,2,0:0:0:0:
322,113,189045,2,0,P|368:124|412:120,1,90.9999972229005,2|2,0:0|0:0,0:0:0:0:
484,66,189390,6,0,L|494:17,2,45.4999986114502,4|2|2,1:1|0:0|0:0,0:0:0:0:
504,155,189735,1,2,0:0:0:0:
445,224,189907,1,2,0:0:0:0:
355,241,190080,2,0,P|307:236|267:213,1,90.9999972229005,2|2,0:0|0:0,0:0:0:0:
227,135,190424,70,2,L|218:85,11,45.4999986114502,2|2|2|2|2|2|2|2|2|2|2|2,1:2|0:0|0:0|0:0|0:0|0:0|0:0|0:0|0:0|0:0|0:0|0:0,0:0:0:0:
180,64,191459,6,0,P|138:55|87:62,1,90.9999972229005,4|2,1:0|0:0,0:0:0:0:
42,138,191804,2,0,P|121:202|129:293,1,181.999994445801,10|10,0:0|0:0,0:0:0:0:
80,351,192321,1,10,0:0:0:0:
0,308,192493,70,0,P|2:262|22:217,1,90.9999972229005,8|8,1:2|0:0,0:0:0:0:
102,180,192838,2,0,P|175:227|280:198,1,181.999994445801,2|2,0:0|0:0,0:0:0:0:
306,129,193355,1,2,0:0:0:0:
306,129,193442,1,10,0:0:0:0:
306,129,193528,6,0,P|333:85|369:58,1,90.9999972229005,4|2,1:0|0:0,0:0:0:0:
453,77,193873,2,0,P|493:143|478:251,1,181.999994445801,2|8,0:0|0:0,0:0:0:0:
402,289,194390,1,8,0:0:0:0:
326,238,194562,70,0,P|240:234|175:300,1,181.999994445801,2|2,1:2|0:0,0:0:0:0:
87,324,195080,2,0,L|36:331,2,45.4999986114502,2|2|2,0:0|0:0|0:0,0:0:0:0:
109,236,195424,1,2,0:0:0:0:
178,176,195597,6,0,P|220:158|265:153,1,90.9999972229005,4|2,1:0|0:0,0:0:0:0:
283,63,195942,2,0,P|198:21|105:27,1,181.999994445801,2|0,0:0|0:0,0:0:0:0:
44,85,196459,1,2,0:0:0:0:
77,169,196631,70,0,P|115:200|158:213,1,90.9999972229005,0|2,1:2|0:0,0:0:0:0:
245,200,196976,1,10,0:0:0:0:
320,149,197148,1,8,0:0:0:0:
359,66,197321,1,10,0:0:0:0:
447,44,197493,1,8,0:0:0:0:
447,44,197580,1,8,0:0:0:0:
447,44,197666,6,0,L|501:65,2,45.4999986114502,4|0|2,1:0|0:0|0:0,0:0:0:0:
450,135,198011,2,0,L|486:166,2,45.4999986114502,2|2|2,0:0|0:0|0:0,0:0:0:0:
405,214,198355,2,0,L|424:263,2,45.4999986114502,2|2|2,0:0|0:0|0:0,0:0:0:0:
320,248,198700,1,10,1:2:0:0:
45,232,214217,6,0,P|77:244|114:247,1,71.5000021820069,4|0,1:0|0:0,0:0:0:0:
164,196,214562,2,0,P|195:176|232:168,1,71.5000021820069,8|8,0:0|0:0,0:0:0:0:
293,201,214907,2,0,P|329:211|360:231,1,71.5000021820069,8|8,0:0|0:0,0:0:0:0:
394,299,215252,6,0,P|378:216|408:137,1,155.999995239258,2|2,0:0|0:0,0:0:0:0:
448,88,215769,2,0,L|281:118,1,155.999995239258,2|2,0:0|0:0,0:0:0:0:
241,173,216286,37,4,1:0:0:0:
230,250,216459,1,2,0:0:0:0:
274,313,216631,2,0,P|309:326|350:325,1,77.999997619629,8|2,0:0|0:0,0:0:0:0:
408,274,216976,2,0,P|410:211|350:138,1,155.999995239258,10|10,0:0|1:2,0:0:0:0:
281,167,217493,6,0,P|227:222|146:231,1,155.999995239258,2|2,0:0|0:0,0:0:0:0:
92,179,218011,2,0,L|76:99,1,77.999997619629,2|8,0:0|0:0,0:0:0:0:
125,42,218355,69,4,1:0:0:0:
195,76,218528,1,2,0:0:0:0:
270,56,218700,2,0,P|302:35|343:25,1,77.999997619629,2|2,0:0|0:0,0:0:0:0:
413,53,219045,1,8,0:0:0:0:
413,53,219131,1,8,0:0:0:0:
413,53,219217,1,2,0:0:0:0:
470,106,219390,6,0,P|471:182|417:242,1,155.999995239258,4|2,1:0|0:0,0:0:0:0:
345,218,219907,2,0,L|316:57,1,155.999995239258,2|8,0:0|0:0,0:0:0:0:
240,80,220424,70,0,L|227:167,1,77.999997619629,4|2,1:0|0:0,0:0:0:0:
179,226,220769,1,2,0:0:0:0:
106,270,220942,1,10,0:0:0:0:
145,344,221114,2,2,P|184:357|229:354,1,84.4999961318971,2|2,0:0|0:0,0:0:0:0:
279,288,221459,6,0,L|267:247,2,42.2499980659486,2|8|2,1:2|0:0|0:0,0:0:0:0:
346,236,221804,2,0,L|342:189,2,42.2499980659486,2|8|2,0:0|0:0|0:0,0:0:0:0:
425,208,222148,2,0,L|435:163,2,42.2499980659486,2|8|2,0:0|0:0|0:0,0:0:0:0:
412,292,222493,70,0,L|424:341,11,42.2499980659486,4|0|2|2|2|2|0|0|0|0|0|0,1:0|0:0|0:0|0:0|0:0|0:0|0:0|0:0|0:0|0:0|0:0|0:0,0:0:0:0:
388,364,223528,6,2,P|306:350|240:278,1,181.999994445801,10|2,1:2|0:0,0:0:0:0:
276,195,224045,2,2,B|366:158|366:158|464:165,1,181.999994445801,2|0,0:0|0:0,0:0:0:0:
495,84,224562,69,4,1:0:0:0:
426,24,224735,1,2,0:0:0:0:
341,55,224907,2,0,P|296:73|231:74,1,90.9999972229005,2|2,0:0|0:0,0:0:0:0:
167,47,225252,1,2,0:0:0:0:
70,201,225597,6,0,L|87:297,1,90.9999972229005,2|8,0:0|0:0,0:0:0:0:
156,348,225942,1,2,0:0:0:0:
246,337,226114,1,2,0:0:0:0:
312,275,226286,2,0,P|329:227|330:175,1,90.9999972229005,8|8,0:0|0:0,0:0:0:0:
264,124,226631,70,0,P|198:186|177:291,1,181.999994445801,4|8,1:0|0:0,0:0:0:0:
257,311,227148,2,0,P|336:268|447:273,1,181.999994445801,2|2,0:0|0:0,0:0:0:0:
491,202,227666,6,0,P|482:148|454:108,1,90.9999972229005,2|2,1:2|0:0,0:0:0:0:
384,72,228011,1,2,0:0:0:0:
306,119,228183,1,8,0:0:0:0:
215,107,228355,1,2,0:0:0:0:
215,107,228528,1,2,0:0:0:0:
150,170,228700,70,0,P|178:260|126:355,1,181.999994445801,4|2,1:0|0:0,0:0:0:0:
68,288,229217,2,0,P|145:249|261:258,1,181.999994445801,2|2,0:0|0:0,0:0:0:0:
297,321,229735,6,0,P|341:344|395:352,1,90.9999972229005,10|10,0:0|0:0,0:0:0:0:
464,313,230080,1,10,0:0:0:0:
464,313,230166,1,0,0:0:0:0:
464,313,230252,1,10,0:0:0:0:
444,224,230424,1,10,0:0:0:0:
469,136,230597,1,10,0:0:0:0:
395,83,230769,70,0,L|385:34,2,45.4999986114502,4|0|10,1:0|0:0|0:0,0:0:0:0:
323,140,231114,2,0,P|276:143|231:132,1,90.9999972229005,10|10,0:0|0:0,0:0:0:0:
164,192,231459,1,10,0:0:0:0:
164,192,231545,1,10,0:0:0:0:
164,192,231631,1,10,0:0:0:0:
187,280,231804,1,2,0:0:0:0:
