osu file format v12

[General]
AudioFilename: Pavor nocturnus.mp3
AudioLeadIn: 3000
PreviewTime: 66295
Countdown: 0
SampleSet: Normal
StackLeniency: 0.7
Mode: 1
LetterboxInBreaks: 0

[Editor]
Bookmarks: 80,16641,33192,49744,61114,62148,66295,82847,99399,115951,132502,149054,165606,182157,198709,215261,231813,257666
DistanceSpacing: 1.2
BeatDivisor: 6
GridSize: 4

[Metadata]
Title:Pavor Nocturnus
TitleUnicode:Pavor Nocturnus
Artist:Igorrr
ArtistUnicode:Igorrr
Creator:grumd
Version:Fatal Oni
Source:
Tags:breakcore baroquecore Loctav [Luanny] Mr Color
BeatmapID:178067
BeatmapSetID:57525

[Difficulty]
HPDrainRate:4
CircleSize:5
OverallDifficulty:6
ApproachRate:5
SliderMultiplier:1.4
SliderTickRate:1

[Events]
//Background and Video events
0,0,"325103.jpg",0,0
//Break Periods
//Storyboard Layer 0 (Background)
//Storyboard Layer 1 (Fail)
//Storyboard Layer 2 (Pass)
//Storyboard Layer 3 (Foreground)
Sprite,Foreground,Centre,"lu.png",320,240 M,0,-3023,,182,374 F,0,-3023,,0 S,0,-3023,,0.7 F,0,132502,132580,1 F,0,231804,,1 F,0,231804,231890,1,0
Sprite,Foreground,Centre,"loc.png",320,240 M,0,-3023,,467,404 F,0,-3023,,0 S,0,-3023,,0.7 F,0,80,166,0,1 F,0,132407,132493,0.9767442,0
//Storyboard Sound Samples
//Background Colour Transformations
3,100,0,0,0

[TimingPoints]
80,344.827586206897,3,1,0,75,1,0
99390,-100,3,1,0,75,0,1
115942,-100,3,1,0,75,0,0
165597,-100,3,1,0,75,0,1
182148,-100,3,1,0,75,0,0

[Colours]
Combo1 : 75,122,137
Combo2 : 155,77,57

[HitObjects]
260,196,80,1,0,0:0:0:0:
260,196,424,1,0,0:0:0:0:
260,196,597,1,0,0:0:0:0:
260,196,769,5,8,0:0:0:0:
260,196,1114,1,8,0:0:0:0:
260,196,1459,5,0,0:0:0:0:
260,196,1631,5,8,0:0:0:0:
260,196,1804,5,0,0:0:0:0:
260,196,2148,1,0,0:0:0:0:
260,196,2492,1,0,0:0:0:0:
260,196,2665,1,0,0:0:0:0:
260,196,2837,5,8,0:0:0:0:
260,196,3182,1,8,0:0:0:0:
260,196,3527,5,0,0:0:0:0:
260,196,3699,5,8,0:0:0:0:
260,196,3872,5,0,0:0:0:0:
260,196,4217,1,0,0:0:0:0:
260,196,4561,1,0,0:0:0:0:
260,196,4734,1,0,0:0:0:0:
260,196,4906,5,8,0:0:0:0:
260,196,5251,1,8,0:0:0:0:
260,196,5596,5,0,0:0:0:0:
260,196,5768,5,8,0:0:0:0:
260,196,5941,5,0,0:0:0:0:
260,196,6286,1,0,0:0:0:0:
260,196,6630,1,0,0:0:0:0:
260,196,6803,1,0,0:0:0:0:
260,196,6975,5,8,0:0:0:0:
260,196,7320,1,8,0:0:0:0:
260,196,7665,5,0,0:0:0:0:
260,196,7837,5,8,0:0:0:0:
260,196,8010,5,0,0:0:0:0:
260,196,8355,1,0,0:0:0:0:
260,196,8699,1,0,0:0:0:0:
260,196,8786,1,0,0:0:0:0:
260,196,8872,1,0,0:0:0:0:
260,196,9044,5,8,0:0:0:0:
260,196,9389,1,8,0:0:0:0:
260,196,9562,5,0,0:0:0:0:
260,196,9648,1,0,0:0:0:0:
260,196,9735,5,8,0:0:0:0:
260,196,9821,5,0,0:0:0:0:
260,196,9907,5,8,0:0:0:0:
260,196,9993,5,0,0:0:0:0:
260,196,10079,5,0,0:0:0:0:
260,196,10252,5,0,0:0:0:0:
260,196,10424,5,8,0:0:0:0:
260,196,10597,5,0,0:0:0:0:
260,196,10683,1,0,0:0:0:0:
260,196,10769,5,8,0:0:0:0:
260,196,10942,1,8,0:0:0:0:
260,196,11114,1,8,0:0:0:0:
260,196,11286,5,0,0:0:0:0:
260,196,11373,1,0,0:0:0:0:
260,196,11459,5,8,0:0:0:0:
260,196,11545,5,0,0:0:0:0:
260,196,11631,1,0,0:0:0:0:
260,196,11717,1,0,0:0:0:0:
260,196,11804,5,8,0:0:0:0:
260,196,11976,1,8,0:0:0:0:
260,196,12062,1,8,0:0:0:0:
260,196,12148,1,8,0:0:0:0:
260,196,12321,1,8,0:0:0:0:
260,196,12493,5,0,0:0:0:0:
260,196,12666,5,8,0:0:0:0:
260,196,12838,1,8,0:0:0:0:
260,196,13011,5,0,0:0:0:0:
260,196,13183,5,8,0:0:0:0:
260,196,13355,5,0,0:0:0:0:
260,196,13442,5,8,0:0:0:0:
260,196,13528,1,8,0:0:0:0:
260,196,13700,1,8,0:0:0:0:
260,196,13873,5,0,0:0:0:0:
260,196,13959,1,0,0:0:0:0:
260,196,14045,1,0,0:0:0:0:
260,196,14217,5,8,0:0:0:0:
260,196,14275,1,8,0:0:0:0:
260,196,14332,1,8,0:0:0:0:
260,196,14390,1,8,0:0:0:0:
260,196,14562,5,4,0:0:0:0:
260,196,14735,1,4,0:0:0:0:
260,196,14907,1,0,0:0:0:0:
260,196,15080,5,8,0:0:0:0:
260,196,15252,5,0,0:0:0:0:
260,196,15338,1,0,0:0:0:0:
260,196,15424,5,8,0:0:0:0:
260,196,15597,1,8,0:0:0:0:
260,196,15683,1,8,0:0:0:0:
260,196,15769,1,8,0:0:0:0:
260,196,15855,1,8,0:0:0:0:
260,196,15942,1,0,0:0:0:0:
260,196,16028,5,8,0:0:0:0:
260,196,16114,5,0,0:0:0:0:
260,196,16200,5,8,0:0:0:0:
260,196,16286,5,0,0:0:0:0:
260,196,16459,1,8,0:0:0:0:
260,196,16545,1,8,0:0:0:0:
260,196,16631,5,0,0:0:0:0:
260,196,16804,1,0,0:0:0:0:
260,196,17148,1,0,0:0:0:0:
260,196,17321,5,8,0:0:0:0:
260,196,17493,5,0,0:0:0:0:
260,196,17666,5,8,0:0:0:0:
260,196,18011,5,0,0:0:0:0:
260,196,18183,5,8,0:0:0:0:
260,196,18355,5,0,0:0:0:0:
260,196,18528,1,0,0:0:0:0:
260,196,18614,1,0,0:0:0:0:
260,196,18700,5,8,0:0:0:0:
260,196,18873,5,0,0:0:0:0:
260,196,19045,5,8,0:0:0:0:
260,196,19217,5,0,0:0:0:0:
260,196,19390,5,8,0:0:0:0:
260,196,19562,1,8,0:0:0:0:
260,196,19735,5,0,0:0:0:0:
260,196,20080,1,0,0:0:0:0:
260,196,20166,1,0,0:0:0:0:
260,196,20252,5,8,0:0:0:0:
260,196,20338,5,0,0:0:0:0:
260,196,20424,5,8,0:0:0:0:
260,196,20597,1,8,0:0:0:0:
260,196,20769,1,8,0:0:0:0:
260,196,20942,5,0,0:0:0:0:
260,196,21114,5,8,0:0:0:0:
260,196,21286,5,0,0:0:0:0:
260,196,21459,5,8,0:0:0:0:
260,196,21631,1,8,0:0:0:0:
260,196,21804,5,0,0:0:0:0:
260,196,22148,1,0,0:0:0:0:
260,196,22321,5,8,0:0:0:0:
260,196,22493,5,0,0:0:0:0:
260,196,22666,5,8,0:0:0:0:
260,196,22838,1,8,0:0:0:0:
260,196,23011,1,8,0:0:0:0:
260,196,23183,5,0,0:0:0:0:
260,196,23355,5,8,0:0:0:0:
260,196,23528,5,0,0:0:0:0:
260,196,23700,5,8,0:0:0:0:
260,196,23873,1,0,0:0:0:0:
260,196,24217,5,0,0:0:0:0:
260,196,24304,1,0,0:0:0:0:
260,196,24390,1,8,0:0:0:0:
260,196,24476,1,8,0:0:0:0:
260,196,24562,1,8,0:0:0:0:
260,196,24648,5,0,0:0:0:0:
260,196,24735,5,8,0:0:0:0:
260,196,24821,1,0,0:0:0:0:
260,196,24907,5,8,0:0:0:0:
260,196,25080,1,8,0:0:0:0:
260,196,25252,5,0,0:0:0:0:
260,196,25424,1,0,0:0:0:0:
260,196,25597,5,8,0:0:0:0:
260,196,25769,5,0,0:0:0:0:
260,196,25942,5,8,0:0:0:0:
260,196,26286,5,0,0:0:0:0:
260,196,26459,5,8,0:0:0:0:
260,196,26631,1,8,0:0:0:0:
260,196,26804,5,0,0:0:0:0:
260,196,26976,5,8,0:0:0:0:
260,196,27148,1,8,0:0:0:0:
260,196,27321,5,0,0:0:0:0:
260,196,27493,1,0,0:0:0:0:
260,196,27666,1,0,0:0:0:0:
260,196,27838,1,0,0:0:0:0:
260,196,28011,5,8,0:0:0:0:
260,196,28183,5,0,0:0:0:0:
260,196,28269,1,0,0:0:0:0:
260,196,28355,5,8,0:0:0:0:
260,196,28528,5,0,0:0:0:0:
260,196,28700,5,0,0:0:0:0:
260,196,28786,5,0,0:0:0:0:
260,196,28873,5,8,0:0:0:0:
260,196,28959,5,0,0:0:0:0:
260,196,29045,5,8,0:0:0:0:
260,196,29217,1,8,0:0:0:0:
260,196,29390,5,0,0:0:0:0:
260,196,29562,1,0,0:0:0:0:
260,196,29735,1,0,0:0:0:0:
260,196,29907,1,0,0:0:0:0:
260,196,30080,5,8,0:0:0:0:
260,196,30424,5,0,0:0:0:0:
260,196,30597,5,8,0:0:0:0:
260,196,30769,5,0,0:0:0:0:
260,196,30942,1,0,0:0:0:0:
260,196,31114,5,8,0:0:0:0:
260,196,31200,5,0,0:0:0:0:
260,196,31286,5,8,0:0:0:0:
260,196,31459,5,0,0:0:0:0:
260,196,31631,1,0,0:0:0:0:
260,196,31804,1,0,0:0:0:0:
260,196,31976,1,0,0:0:0:0:
260,196,32148,5,8,0:0:0:0:
260,196,32235,5,0,0:0:0:0:
260,196,32321,1,0,0:0:0:0:
260,196,32407,1,0,0:0:0:0:
260,196,32493,5,8,0:0:0:0:
260,196,32666,1,8,0:0:0:0:
260,196,32838,1,8,0:0:0:0:
260,196,32924,5,0,0:0:0:0:
260,196,33011,5,8,0:0:0:0:
260,196,33097,5,0,0:0:0:0:
260,196,33183,5,8,0:0:0:0:
260,196,33355,5,0,0:0:0:0:
260,196,33528,1,0,0:0:0:0:
260,196,33700,1,0,0:0:0:0:
260,196,33873,5,8,0:0:0:0:
260,196,34045,5,0,0:0:0:0:
260,196,34217,5,8,0:0:0:0:
260,196,34562,5,0,0:0:0:0:
260,196,34735,1,0,0:0:0:0:
260,196,34907,5,8,0:0:0:0:
260,196,35080,1,8,0:0:0:0:
260,196,35166,1,8,0:0:0:0:
260,196,35252,5,0,0:0:0:0:
260,196,35424,1,0,0:0:0:0:
260,196,35597,1,0,0:0:0:0:
260,196,35769,1,0,0:0:0:0:
260,196,35942,5,8,0:0:0:0:
260,196,36114,5,0,0:0:0:0:
260,196,36286,5,8,0:0:0:0:
260,196,36631,1,8,0:0:0:0:
260,196,36717,5,0,0:0:0:0:
260,196,36804,1,0,0:0:0:0:
260,196,36890,1,0,0:0:0:0:
260,196,36976,5,8,0:0:0:0:
260,196,37148,1,8,0:0:0:0:
260,196,37321,5,0,0:0:0:0:
260,196,37493,1,0,0:0:0:0:
260,196,37666,1,0,0:0:0:0:
260,196,37838,1,0,0:0:0:0:
260,196,38011,5,8,0:0:0:0:
260,196,38183,5,0,0:0:0:0:
260,196,38355,5,8,0:0:0:0:
260,196,38700,5,0,0:0:0:0:
260,196,38873,5,8,0:0:0:0:
260,196,39045,5,0,0:0:0:0:
260,196,39217,1,0,0:0:0:0:
260,196,39390,5,8,0:0:0:0:
260,196,39562,5,0,0:0:0:0:
260,196,39735,1,0,0:0:0:0:
260,196,39907,1,0,0:0:0:0:
260,196,40080,5,8,0:0:0:0:
260,196,40252,5,0,0:0:0:0:
260,196,40424,5,8,0:0:0:0:
260,196,40597,1,8,0:0:0:0:
260,196,40769,5,0,0:0:0:0:
260,196,40942,5,8,0:0:0:0:
260,196,41114,5,0,0:0:0:0:
260,196,41200,1,0,0:0:0:0:
260,196,41286,1,0,0:0:0:0:
260,196,41373,1,0,0:0:0:0:
260,196,41459,1,0,0:0:0:0:
260,196,41631,1,0,0:0:0:0:
260,196,41804,5,8,0:0:0:0:
260,196,41976,5,0,0:0:0:0:
260,196,42148,1,0,0:0:0:0:
260,196,42321,1,0,0:0:0:0:
260,196,42493,5,8,0:0:0:0:
260,196,42838,5,0,0:0:0:0:
260,196,43011,5,8,0:0:0:0:
260,196,43183,1,8,0:0:0:0:
260,196,43269,5,0,0:0:0:0:
260,196,43355,1,0,0:0:0:0:
260,196,43442,1,0,0:0:0:0:
260,196,43528,5,8,0:0:0:0:
260,196,43700,5,0,0:0:0:0:
260,196,43873,1,0,0:0:0:0:
260,196,44045,1,0,0:0:0:0:
260,196,44217,5,8,0:0:0:0:
260,196,44390,5,0,0:0:0:0:
260,196,44562,5,8,0:0:0:0:
260,196,44735,5,0,0:0:0:0:
260,196,44821,1,0,0:0:0:0:
260,196,44907,1,0,0:0:0:0:
260,196,45080,1,0,0:0:0:0:
260,196,45252,5,8,0:0:0:0:
260,196,45338,5,0,0:0:0:0:
260,196,45424,1,0,0:0:0:0:
260,196,45511,1,0,0:0:0:0:
260,196,45597,5,8,0:0:0:0:
260,196,45769,5,0,0:0:0:0:
260,196,45942,1,0,0:0:0:0:
260,196,46114,1,0,0:0:0:0:
260,196,46286,5,8,0:0:0:0:
260,196,46459,5,0,0:0:0:0:
260,196,46631,5,8,0:0:0:0:
260,196,46976,5,0,0:0:0:0:
260,196,47148,5,8,0:0:0:0:
260,196,47321,5,0,0:0:0:0:
260,196,47493,5,8,0:0:0:0:
260,196,47666,5,0,0:0:0:0:
260,196,47838,1,0,0:0:0:0:
260,196,48011,1,0,0:0:0:0:
260,196,48183,1,0,0:0:0:0:
260,196,48355,5,8,0:0:0:0:
260,196,48528,5,0,0:0:0:0:
260,196,48700,5,8,0:0:0:0:
260,196,48873,1,8,0:0:0:0:
260,196,48959,5,0,0:0:0:0:
260,196,49045,5,8,0:0:0:0:
260,196,49217,1,8,0:0:0:0:
260,196,49390,1,8,0:0:0:0:
260,196,49562,1,8,0:0:0:0:
260,196,49735,1,12,0:0:0:0:
260,196,49907,1,8,0:0:0:0:
260,196,50080,1,8,0:0:0:0:
260,196,50252,1,8,0:0:0:0:
260,196,50424,1,8,0:0:0:0:
260,196,50597,5,0,0:0:0:0:
260,196,50769,5,8,0:0:0:0:
260,196,50942,5,0,0:0:0:0:
260,196,51114,1,0,0:0:0:0:
260,196,51286,1,0,0:0:0:0:
260,196,51459,5,8,0:0:0:0:
260,196,51631,5,0,0:0:0:0:
260,196,51804,5,8,0:0:0:0:
260,196,51976,1,8,0:0:0:0:
260,196,52148,1,8,0:0:0:0:
260,196,52321,1,8,0:0:0:0:
260,196,52493,1,8,0:0:0:0:
260,196,52666,5,0,0:0:0:0:
260,196,52838,5,8,0:0:0:0:
260,196,53011,5,0,0:0:0:0:
260,196,53097,1,0,0:0:0:0:
260,196,53183,5,8,0:0:0:0:
260,196,53355,5,0,0:0:0:0:
260,196,53528,5,8,0:0:0:0:
260,196,53614,1,8,0:0:0:0:
260,196,53700,1,8,0:0:0:0:
260,196,53873,5,0,0:0:0:0:
260,196,54045,1,0,0:0:0:0:
260,196,54217,1,0,0:0:0:0:
260,196,54390,1,0,0:0:0:0:
260,196,54562,5,8,0:0:0:0:
260,196,54735,5,0,0:0:0:0:
260,196,54907,5,8,0:0:0:0:
260,196,55080,5,0,0:0:0:0:
260,196,55166,1,0,0:0:0:0:
260,196,55252,5,8,0:0:0:0:
260,196,55424,5,0,0:0:0:0:
260,196,55597,1,0,0:0:0:0:
260,196,55769,1,0,0:0:0:0:
260,196,55942,5,8,0:0:0:0:
260,196,56114,5,0,0:0:0:0:
260,196,56286,5,8,0:0:0:0:
260,196,56459,1,8,0:0:0:0:
260,196,56631,1,8,0:0:0:0:
260,196,56804,1,8,0:0:0:0:
260,196,56890,1,8,0:0:0:0:
260,196,56976,5,0,0:0:0:0:
260,196,57148,1,0,0:0:0:0:
260,196,57321,1,0,0:0:0:0:
260,196,57493,1,0,0:0:0:0:
260,196,57580,1,0,0:0:0:0:
260,196,57666,1,0,0:0:0:0:
260,196,57838,5,8,0:0:0:0:
260,196,57924,1,8,0:0:0:0:
260,196,58011,1,8,0:0:0:0:
260,196,58183,1,8,0:0:0:0:
260,196,58356,1,8,0:0:0:0:
260,196,58528,1,8,0:0:0:0:
260,196,58700,1,8,0:0:0:0:
260,196,58873,5,0,0:0:0:0:
260,196,59045,5,8,0:0:0:0:
260,196,59218,5,0,0:0:0:0:
260,196,59390,1,0,0:0:0:0:
260,196,59562,1,0,0:0:0:0:
260,196,59735,5,8,0:0:0:0:
260,196,59907,5,0,0:0:0:0:
260,196,60080,5,8,0:0:0:0:
260,196,60252,1,8,0:0:0:0:
260,196,60424,1,8,0:0:0:0:
260,196,60597,1,8,0:0:0:0:
260,196,60769,1,8,0:0:0:0:
260,196,60942,5,0,0:0:0:0:
260,196,61114,5,8,0:0:0:0:
260,196,61287,5,0,0:0:0:0:
260,196,61373,1,0,0:0:0:0:
260,196,61459,5,8,0:0:0:0:
260,196,61545,1,8,0:0:0:0:
260,196,61631,5,0,0:0:0:0:
260,196,61717,1,0,0:0:0:0:
260,196,61804,5,8,0:0:0:0:
260,196,61890,1,8,0:0:0:0:
260,196,61976,1,8,0:0:0:0:
260,196,62149,5,0,0:0:0:0:
260,196,62321,1,0,0:0:0:0:
260,196,62493,1,0,0:0:0:0:
260,196,62666,1,0,0:0:0:0:
260,196,62838,5,8,0:0:0:0:
260,196,63011,5,0,0:0:0:0:
260,196,63183,5,8,0:0:0:0:
260,196,63356,5,0,0:0:0:0:
260,196,63442,1,0,0:0:0:0:
260,196,63528,5,8,0:0:0:0:
260,196,63700,5,0,0:0:0:0:
260,196,63873,1,0,0:0:0:0:
260,196,64045,1,0,0:0:0:0:
260,196,64218,5,8,0:0:0:0:
260,196,64390,5,0,0:0:0:0:
260,196,64562,5,8,0:0:0:0:
260,196,64735,1,8,0:0:0:0:
260,196,64907,1,8,0:0:0:0:
260,196,65080,1,8,0:0:0:0:
260,196,65166,1,8,0:0:0:0:
260,196,65252,5,0,0:0:0:0:
260,196,65424,1,0,0:0:0:0:
260,196,65597,1,0,0:0:0:0:
260,196,65769,1,0,0:0:0:0:
260,196,65856,1,0,0:0:0:0:
260,196,65942,1,0,0:0:0:0:
260,196,66114,1,0,0:0:0:0:
260,196,66286,1,4,0:0:0:0:
260,196,66459,5,8,0:0:0:0:
260,196,66545,1,8,0:0:0:0:
260,196,66631,1,8,0:0:0:0:
260,196,66717,1,8,0:0:0:0:
260,196,66804,1,8,0:0:0:0:
260,196,66890,1,8,0:0:0:0:
260,196,66976,1,8,0:0:0:0:
260,196,67062,1,8,0:0:0:0:
260,196,67148,1,8,0:0:0:0:
260,196,67235,1,8,0:0:0:0:
260,196,67321,5,0,0:0:0:0:
260,196,67493,1,0,0:0:0:0:
260,196,67580,1,0,0:0:0:0:
260,196,67666,5,8,0:0:0:0:
260,196,67752,5,0,0:0:0:0:
260,196,67838,5,8,0:0:0:0:
260,196,67924,5,0,0:0:0:0:
260,196,68011,5,8,0:0:0:0:
260,196,68183,1,8,0:0:0:0:
260,196,68355,5,0,0:0:0:0:
260,196,68528,1,0,0:0:0:0:
260,196,68700,5,8,0:0:0:0:
260,196,68758,1,8,0:0:0:0:
260,196,68815,1,8,0:0:0:0:
260,196,68873,1,8,0:0:0:0:
260,196,68959,5,0,0:0:0:0:
260,196,69045,5,8,0:0:0:0:
260,196,69217,5,0,0:0:0:0:
260,196,69390,5,8,0:0:0:0:
260,196,69562,1,8,0:0:0:0:
260,196,69648,1,8,0:0:0:0:
260,196,69735,1,8,0:0:0:0:
260,196,69821,5,0,0:0:0:0:
260,196,69907,5,8,0:0:0:0:
260,196,69965,1,8,0:0:0:0:
260,196,70022,1,8,0:0:0:0:
260,196,70080,1,8,0:0:0:0:
260,196,70252,1,8,0:0:0:0:
260,196,70424,5,0,0:0:0:0:
260,196,70597,1,0,0:0:0:0:
260,196,70769,1,0,0:0:0:0:
260,196,70942,1,0,0:0:0:0:
260,196,71114,1,0,0:0:0:0:
260,196,71286,1,0,0:0:0:0:
260,196,71459,5,8,0:0:0:0:
260,196,71631,5,0,0:0:0:0:
260,196,71804,5,8,0:0:0:0:
260,196,71976,1,8,0:0:0:0:
260,196,72062,1,8,0:0:0:0:
260,196,72148,1,0,0:0:0:0:
260,196,72235,5,8,0:0:0:0:
260,196,72321,5,0,0:0:0:0:
260,196,72407,5,8,0:0:0:0:
260,196,72493,5,0,0:0:0:0:
260,196,72666,1,8,0:0:0:0:
260,196,72752,5,0,0:0:0:0:
260,196,72838,5,8,0:0:0:0:
260,196,73011,1,8,0:0:0:0:
260,196,73068,1,8,0:0:0:0:
260,196,73125,1,8,0:0:0:0:
260,196,73183,1,8,0:0:0:0:
260,196,73355,1,8,0:0:0:0:
260,196,73413,1,8,0:0:0:0:
260,196,73470,1,8,0:0:0:0:
260,196,73528,1,8,0:0:0:0:
260,196,73614,5,0,0:0:0:0:
260,196,73700,5,8,0:0:0:0:
260,196,73786,5,0,0:0:0:0:
260,196,73873,5,8,0:0:0:0:
260,196,73959,1,8,0:0:0:0:
260,196,74045,1,8,0:0:0:0:
260,196,74131,1,8,0:0:0:0:
260,196,74217,1,8,0:0:0:0:
260,196,74304,1,8,0:0:0:0:
260,196,74390,1,8,0:0:0:0:
260,196,74476,1,8,0:0:0:0:
260,196,74562,5,0,0:0:0:0:
260,196,74735,1,0,0:0:0:0:
260,196,74907,5,8,0:0:0:0:
260,196,74965,1,8,0:0:0:0:
260,196,75022,1,8,0:0:0:0:
260,196,75080,5,0,0:0:0:0:
260,196,75252,1,0,0:0:0:0:
260,196,75424,1,0,0:0:0:0:
260,196,75597,5,8,0:0:0:0:
260,196,75654,5,0,0:0:0:0:
260,196,75712,1,0,0:0:0:0:
260,196,75769,1,0,0:0:0:0:
260,196,75942,1,0,0:0:0:0:
260,196,76114,1,0,0:0:0:0:
260,196,76286,5,8,0:0:0:0:
260,196,76459,5,0,0:0:0:0:
260,196,76631,5,8,0:0:0:0:
260,196,76689,5,0,0:0:0:0:
260,196,76746,1,0,0:0:0:0:
260,196,76804,5,8,0:0:0:0:
260,196,76976,1,8,0:0:0:0:
260,196,77148,5,0,0:0:0:0:
260,196,77321,5,8,0:0:0:0:
260,196,77493,1,8,0:0:0:0:
260,196,77666,1,8,0:0:0:0:
260,196,77838,1,8,0:0:0:0:
260,196,78011,5,0,0:0:0:0:
260,196,78097,5,8,0:0:0:0:
260,196,78183,1,8,0:0:0:0:
260,196,78269,1,8,0:0:0:0:
260,196,78355,5,0,0:0:0:0:
260,196,78442,5,8,0:0:0:0:
260,196,78528,5,0,0:0:0:0:
260,196,78614,5,8,0:0:0:0:
260,196,78700,5,0,0:0:0:0:
260,196,78873,1,0,0:0:0:0:
260,196,79045,1,0,0:0:0:0:
260,196,79217,1,0,0:0:0:0:
260,196,79390,5,8,0:0:0:0:
260,196,79562,5,0,0:0:0:0:
260,196,79735,5,8,0:0:0:0:
260,196,79907,5,0,0:0:0:0:
260,196,80080,1,0,0:0:0:0:
260,196,80252,5,8,0:0:0:0:
260,196,80424,5,0,0:0:0:0:
260,196,80482,5,8,0:0:0:0:
260,196,80539,1,8,0:0:0:0:
260,196,80597,1,8,0:0:0:0:
260,196,80654,1,8,0:0:0:0:
260,196,80712,1,8,0:0:0:0:
260,196,80769,5,0,0:0:0:0:
260,196,80855,5,8,0:0:0:0:
260,196,80942,1,8,0:0:0:0:
260,196,81028,1,8,0:0:0:0:
260,196,81114,1,8,0:0:0:0:
260,196,81200,1,8,0:0:0:0:
260,196,81286,5,0,0:0:0:0:
260,196,81459,5,8,0:0:0:0:
260,196,81545,1,8,0:0:0:0:
260,196,81631,1,8,0:0:0:0:
260,196,81804,5,0,0:0:0:0:
260,196,81976,1,0,0:0:0:0:
260,196,82062,1,0,0:0:0:0:
260,196,82148,5,8,0:0:0:0:
260,196,82235,5,0,0:0:0:0:
260,196,82321,1,0,0:0:0:0:
260,196,82407,1,0,0:0:0:0:
260,196,82493,5,8,0:0:0:0:
260,196,82580,5,0,0:0:0:0:
260,196,82666,1,0,0:0:0:0:
260,196,82752,1,0,0:0:0:0:
260,196,82838,5,8,0:0:0:0:
260,196,83011,5,0,0:0:0:0:
260,196,83183,1,0,0:0:0:0:
260,196,83355,1,0,0:0:0:0:
260,196,83442,1,0,0:0:0:0:
260,196,83528,5,8,0:0:0:0:
260,196,83614,5,0,0:0:0:0:
260,196,83700,1,0,0:0:0:0:
260,196,83786,1,0,0:0:0:0:
260,196,83873,1,0,0:0:0:0:
260,196,84045,1,0,0:0:0:0:
260,196,84217,1,0,0:0:0:0:
260,196,84390,5,8,0:0:0:0:
260,196,84476,5,0,0:0:0:0:
260,196,84562,1,0,0:0:0:0:
260,196,84648,1,0,0:0:0:0:
260,196,84735,1,0,0:0:0:0:
260,196,84907,1,0,0:0:0:0:
260,196,85080,1,0,0:0:0:0:
260,196,85252,1,0,0:0:0:0:
260,196,85338,1,0,0:0:0:0:
260,196,85424,1,0,0:0:0:0:
260,196,85597,5,8,0:0:0:0:
260,196,85769,5,0,0:0:0:0:
260,196,85942,5,8,0:0:0:0:
260,196,86028,1,8,0:0:0:0:
260,196,86114,5,0,0:0:0:0:
260,196,86286,5,8,0:0:0:0:
260,196,86373,5,0,0:0:0:0:
260,196,86459,1,0,0:0:0:0:
260,196,86545,1,0,0:0:0:0:
260,196,86631,5,8,0:0:0:0:
260,196,86717,5,0,0:0:0:0:
260,196,86804,1,0,0:0:0:0:
260,196,86890,1,0,0:0:0:0:
260,196,86976,5,8,0:0:0:0:
260,196,87148,5,0,0:0:0:0:
260,196,87235,1,0,0:0:0:0:
260,196,87321,1,0,0:0:0:0:
260,196,87407,1,0,0:0:0:0:
260,196,87493,5,8,0:0:0:0:
260,196,87580,5,0,0:0:0:0:
260,196,87666,5,8,0:0:0:0:
260,196,87838,5,0,0:0:0:0:
260,196,88011,5,12,0:0:0:0:
260,196,88183,1,8,0:0:0:0:
260,196,88355,1,8,0:0:0:0:
260,196,88528,5,0,0:0:0:0:
260,196,88614,1,0,0:0:0:0:
260,196,88700,5,8,0:0:0:0:
260,196,88873,5,0,0:0:0:0:
260,196,88959,1,0,0:0:0:0:
260,196,89045,5,8,0:0:0:0:
260,196,89131,5,0,0:0:0:0:
260,196,89217,1,0,0:0:0:0:
260,196,89304,1,0,0:0:0:0:
260,196,89390,5,8,0:0:0:0:
260,196,89476,5,0,0:0:0:0:
260,196,89562,1,0,0:0:0:0:
260,196,89648,1,0,0:0:0:0:
260,196,89735,5,8,0:0:0:0:
260,196,89821,5,0,0:0:0:0:
260,196,89907,1,0,0:0:0:0:
260,196,89993,1,0,0:0:0:0:
260,196,90080,5,8,0:0:0:0:
260,196,90137,1,8,0:0:0:0:
260,196,90194,1,8,0:0:0:0:
260,196,90252,1,8,0:0:0:0:
260,196,90424,5,0,0:0:0:0:
260,196,90597,5,8,0:0:0:0:
260,196,90654,1,8,0:0:0:0:
260,196,90712,1,8,0:0:0:0:
260,196,90769,1,8,0:0:0:0:
260,196,90942,5,0,0:0:0:0:
260,196,91114,5,8,0:0:0:0:
260,196,91171,1,8,0:0:0:0:
260,196,91229,1,8,0:0:0:0:
260,196,91286,1,8,0:0:0:0:
260,196,91459,5,0,0:0:0:0:
260,196,91631,5,8,0:0:0:0:
260,196,91804,1,8,0:0:0:0:
260,196,91890,5,0,0:0:0:0:
260,196,91976,1,0,0:0:0:0:
260,196,92148,5,12,0:0:0:0:
260,196,92321,1,8,0:0:0:0:
260,196,92493,1,8,0:0:0:0:
260,196,92666,5,0,0:0:0:0:
260,196,92752,1,0,0:0:0:0:
260,196,92838,1,0,0:0:0:0:
260,196,92924,1,0,0:0:0:0:
260,196,93011,5,8,0:0:0:0:
260,196,93183,1,8,0:0:0:0:
260,196,93269,1,8,0:0:0:0:
260,196,93355,1,8,0:0:0:0:
260,196,93528,1,8,0:0:0:0:
260,196,93614,5,0,0:0:0:0:
260,196,93700,5,8,0:0:0:0:
260,196,93786,5,0,0:0:0:0:
260,196,93873,5,8,0:0:0:0:
260,196,94045,1,8,0:0:0:0:
260,196,94217,1,12,0:0:0:0:
260,196,94390,5,0,0:0:0:0:
260,196,94476,1,0,0:0:0:0:
260,196,94562,5,8,0:0:0:0:
260,196,94648,5,0,0:0:0:0:
260,196,94735,1,0,0:0:0:0:
260,196,94821,1,0,0:0:0:0:
260,196,94907,5,8,0:0:0:0:
260,196,95080,1,8,0:0:0:0:
260,196,95252,1,12,0:0:0:0:
260,196,95424,5,0,0:0:0:0:
260,196,95597,1,0,0:0:0:0:
260,196,95769,1,0,0:0:0:0:
260,196,95942,5,8,0:0:0:0:
260,196,96028,5,0,0:0:0:0:
260,196,96114,1,0,0:0:0:0:
260,196,96200,1,0,0:0:0:0:
260,196,96286,5,8,0:0:0:0:
260,196,96459,5,0,0:0:0:0:
260,196,96631,1,0,0:0:0:0:
260,196,96804,1,0,0:0:0:0:
260,196,96890,5,8,0:0:0:0:
260,196,96976,1,8,0:0:0:0:
260,196,97062,1,8,0:0:0:0:
260,196,97148,1,8,0:0:0:0:
260,196,97206,1,8,0:0:0:0:
260,196,97263,1,8,0:0:0:0:
260,196,97321,1,8,0:0:0:0:
260,196,97407,5,0,0:0:0:0:
260,196,97493,5,8,0:0:0:0:
260,196,97580,5,0,0:0:0:0:
260,196,97666,5,8,0:0:0:0:
260,196,97752,1,8,0:0:0:0:
260,196,97838,1,8,0:0:0:0:
260,196,97924,1,8,0:0:0:0:
260,196,98011,1,8,0:0:0:0:
260,196,98097,1,8,0:0:0:0:
260,196,98183,1,8,0:0:0:0:
260,196,98355,1,8,0:0:0:0:
260,196,98442,5,0,0:0:0:0:
260,196,98528,5,8,0:0:0:0:
260,196,98614,5,0,0:0:0:0:
260,196,98700,5,8,0:0:0:0:
260,196,98786,5,0,0:0:0:0:
260,196,98873,1,0,0:0:0:0:
260,196,98959,1,0,0:0:0:0:
260,196,99045,1,0,0:0:0:0:
260,196,99131,5,8,0:0:0:0:
260,196,99217,1,8,0:0:0:0:
260,196,99390,1,8,0:0:0:0:
260,196,99447,5,0,0:0:0:0:
260,196,99505,1,0,0:0:0:0:
260,196,99562,1,0,0:0:0:0:
260,196,99620,1,0,0:0:0:0:
260,196,99677,1,0,0:0:0:0:
260,196,99735,1,0,0:0:0:0:
260,196,99907,1,0,0:0:0:0:
260,196,100080,1,0,0:0:0:0:
260,196,100252,1,0,0:0:0:0:
260,196,100424,5,8,0:0:0:0:
260,196,100511,5,0,0:0:0:0:
260,196,100597,1,0,0:0:0:0:
260,196,100683,1,0,0:0:0:0:
260,196,100769,5,8,0:0:0:0:
260,196,100855,1,8,0:0:0:0:
260,196,100942,1,8,0:0:0:0:
260,196,101028,1,8,0:0:0:0:
260,196,101114,1,8,0:0:0:0:
260,196,101286,1,8,0:0:0:0:
260,196,101459,5,0,0:0:0:0:
260,196,101631,1,0,0:0:0:0:
260,196,101804,5,8,0:0:0:0:
260,196,101861,5,0,0:0:0:0:
260,196,101919,1,0,0:0:0:0:
260,196,101976,1,0,0:0:0:0:
260,196,102148,5,8,0:0:0:0:
260,196,102321,1,8,0:0:0:0:
260,196,102493,5,0,0:0:0:0:
260,196,102580,5,8,0:0:0:0:
260,196,102666,1,8,0:0:0:0:
260,196,102752,1,8,0:0:0:0:
260,196,102838,1,8,0:0:0:0:
260,196,102924,5,0,0:0:0:0:
260,196,103011,5,8,0:0:0:0:
260,196,103068,1,8,0:0:0:0:
260,196,103125,1,8,0:0:0:0:
260,196,103183,1,0,0:0:0:0:
260,196,103355,1,8,0:0:0:0:
260,196,103528,5,0,0:0:0:0:
260,196,103700,5,8,0:0:0:0:
260,196,103758,1,8,0:0:0:0:
260,196,103815,1,8,0:0:0:0:
260,196,103873,1,8,0:0:0:0:
260,196,103930,1,8,0:0:0:0:
260,196,103988,1,8,0:0:0:0:
260,196,104045,5,0,0:0:0:0:
260,196,104217,1,0,0:0:0:0:
260,196,104390,5,8,0:0:0:0:
260,196,104476,1,8,0:0:0:0:
260,196,104562,1,8,0:0:0:0:
260,196,104735,5,0,0:0:0:0:
260,196,104907,1,0,0:0:0:0:
260,196,105080,5,8,0:0:0:0:
260,196,105166,5,0,0:0:0:0:
260,196,105252,1,0,0:0:0:0:
260,196,105338,1,0,0:0:0:0:
260,196,105424,5,8,0:0:0:0:
260,196,105597,1,8,0:0:0:0:
260,196,105683,5,0,0:0:0:0:
260,196,105769,1,0,0:0:0:0:
260,196,105855,1,0,0:0:0:0:
260,196,105942,5,8,0:0:0:0:
260,196,106028,5,0,0:0:0:0:
260,196,106114,5,8,0:0:0:0:
260,196,106200,5,0,0:0:0:0:
260,196,106286,5,8,0:0:0:0:
260,196,106459,1,8,0:0:0:0:
260,196,106631,1,8,0:0:0:0:
260,196,106717,1,8,0:0:0:0:
260,196,106804,1,8,0:0:0:0:
260,196,106890,1,8,0:0:0:0:
260,196,106976,1,8,0:0:0:0:
260,196,107062,5,0,0:0:0:0:
260,196,107148,5,8,0:0:0:0:
260,196,107235,5,0,0:0:0:0:
260,196,107321,5,8,0:0:0:0:
260,196,107407,1,8,0:0:0:0:
260,196,107493,1,8,0:0:0:0:
260,196,107580,1,8,0:0:0:0:
260,196,107666,5,0,0:0:0:0:
260,196,108011,5,8,0:0:0:0:
260,196,108068,1,8,0:0:0:0:
260,196,108125,1,8,0:0:0:0:
260,196,108183,5,0,0:0:0:0:
260,196,108355,1,0,0:0:0:0:
260,196,108442,5,8,0:0:0:0:
260,196,108528,1,8,0:0:0:0:
260,196,108614,1,8,0:0:0:0:
260,196,108700,5,0,0:0:0:0:
260,196,108873,1,0,0:0:0:0:
260,196,109045,5,8,0:0:0:0:
260,196,109217,1,8,0:0:0:0:
260,196,109390,5,0,0:0:0:0:
260,196,109476,1,0,0:0:0:0:
260,196,109562,5,8,0:0:0:0:
260,196,109735,1,8,0:0:0:0:
260,196,109792,1,8,0:0:0:0:
260,196,109907,1,8,0:0:0:0:
260,196,109965,1,8,0:0:0:0:
260,196,110080,5,0,0:0:0:0:
260,196,110252,5,8,0:0:0:0:
260,196,110424,5,0,0:0:0:0:
260,196,110511,5,8,0:0:0:0:
260,196,110597,1,8,0:0:0:0:
260,196,110683,1,8,0:0:0:0:
260,196,110769,5,0,0:0:0:0:
260,196,110827,5,8,0:0:0:0:
260,196,110942,1,8,0:0:0:0:
260,196,110999,1,8,0:0:0:0:
260,196,111114,5,0,0:0:0:0:
260,196,111200,1,0,0:0:0:0:
260,196,111286,1,0,0:0:0:0:
260,196,111373,1,0,0:0:0:0:
260,196,111459,5,8,0:0:0:0:
260,196,111545,1,8,0:0:0:0:
260,196,111631,5,0,0:0:0:0:
260,196,111717,1,0,0:0:0:0:
260,196,111804,5,8,0:0:0:0:
260,196,111976,5,0,0:0:0:0:
260,196,112148,1,0,0:0:0:0:
260,196,112321,1,0,0:0:0:0:
260,196,112493,5,8,0:0:0:0:
260,196,112580,5,0,0:0:0:0:
260,196,112666,1,0,0:0:0:0:
260,196,112838,5,12,0:0:0:0:
260,196,113011,5,0,0:0:0:0:
260,196,113183,1,0,0:0:0:0:
260,196,113355,5,8,0:0:0:0:
260,196,113442,1,8,0:0:0:0:
260,196,113528,1,8,0:0:0:0:
260,196,113614,1,8,0:0:0:0:
260,196,113700,5,0,0:0:0:0:
260,196,113758,1,0,0:0:0:0:
260,196,113815,1,0,0:0:0:0:
260,196,113873,1,0,0:0:0:0:
260,196,114045,1,0,0:0:0:0:
260,196,114217,1,0,0:0:0:0:
260,196,114390,5,8,0:0:0:0:
260,196,114476,5,0,0:0:0:0:
260,196,114562,1,0,0:0:0:0:
260,196,114648,1,0,0:0:0:0:
260,196,114735,5,8,0:0:0:0:
260,196,114821,5,0,0:0:0:0:
260,196,114907,5,8,0:0:0:0:
260,196,114993,5,0,0:0:0:0:
260,196,115080,5,8,0:0:0:0:
260,196,115252,1,8,0:0:0:0:
260,196,115338,5,0,0:0:0:0:
260,196,115424,1,0,0:0:0:0:
260,196,115511,1,0,0:0:0:0:
260,196,115597,5,8,0:0:0:0:
260,196,115769,1,8,0:0:0:0:
260,196,115942,5,4,0:0:0:0:
260,196,116286,1,0,0:0:0:0:
260,196,116631,5,8,0:0:0:0:
260,196,116976,1,8,0:0:0:0:
260,196,117321,5,0,0:0:0:0:
260,196,117493,1,0,0:0:0:0:
260,196,117666,5,8,0:0:0:0:
260,196,118011,5,0,0:0:0:0:
260,196,118183,5,8,0:0:0:0:
260,196,118355,5,0,0:0:0:0:
260,196,118700,1,0,0:0:0:0:
260,196,119045,5,8,0:0:0:0:
260,196,119390,5,0,0:0:0:0:
260,196,119562,5,8,0:0:0:0:
260,196,119735,5,0,0:0:0:0:
260,196,120080,1,0,0:0:0:0:
260,196,120424,1,0,0:0:0:0:
260,196,120597,1,0,0:0:0:0:
260,196,120769,5,8,0:0:0:0:
260,196,121114,1,8,0:0:0:0:
260,196,121459,1,8,0:0:0:0:
260,196,121631,1,8,0:0:0:0:
260,196,121804,5,0,0:0:0:0:
260,196,122148,1,0,0:0:0:0:
260,196,122493,5,8,0:0:0:0:
260,196,122666,5,0,0:0:0:0:
260,196,122838,1,0,0:0:0:0:
260,196,123183,5,8,0:0:0:0:
260,196,123355,1,8,0:0:0:0:
260,196,123528,1,8,0:0:0:0:
260,196,123700,1,8,0:0:0:0:
260,196,123873,5,0,0:0:0:0:
260,196,124045,5,8,0:0:0:0:
260,196,124217,5,0,0:0:0:0:
260,196,124562,1,0,0:0:0:0:
260,196,124735,1,0,0:0:0:0:
260,196,124907,5,8,0:0:0:0:
260,196,125080,5,0,0:0:0:0:
260,196,125252,5,8,0:0:0:0:
260,196,125597,5,0,0:0:0:0:
260,196,125769,1,0,0:0:0:0:
260,196,125942,5,8,0:0:0:0:
260,196,126286,1,8,0:0:0:0:
260,196,126459,5,0,0:0:0:0:
260,196,126631,1,0,0:0:0:0:
260,196,126804,5,8,0:0:0:0:
260,196,126976,5,0,0:0:0:0:
260,196,127148,5,8,0:0:0:0:
260,196,127321,1,8,0:0:0:0:
260,196,127493,1,8,0:0:0:0:
260,196,127666,5,0,0:0:0:0:
260,196,127752,1,0,0:0:0:0:
260,196,127838,5,8,0:0:0:0:
260,196,128011,5,8,0:0:0:0:
260,196,128097,1,0,0:0:0:0:
260,196,128183,5,8,0:0:0:0:
260,196,128355,1,0,0:0:0:0:
260,196,128700,5,0,0:0:0:0:
260,196,128873,1,0,0:0:0:0:
260,196,129045,1,0,0:0:0:0:
260,196,129390,5,8,0:0:0:0:
260,196,129562,5,0,0:0:0:0:
260,196,129735,1,0,0:0:0:0:
260,196,129907,1,0,0:0:0:0:
260,196,130080,5,8,0:0:0:0:
260,196,130424,1,8,0:0:0:0:
260,196,130769,5,0,0:0:0:0:
260,196,130942,1,0,0:0:0:0:
260,196,131114,5,8,0:0:0:0:
260,196,131286,5,0,0:0:0:0:
260,196,131373,1,0,0:0:0:0:
260,196,131459,5,8,0:0:0:0:
260,196,131545,1,8,0:0:0:0:
260,196,131631,5,0,0:0:0:0:
260,196,131717,1,0,0:0:0:0:
260,196,131804,5,8,0:0:0:0:
260,196,131890,1,8,0:0:0:0:
260,196,131976,5,0,0:0:0:0:
260,196,132062,1,0,0:0:0:0:
260,196,132148,5,8,0:0:0:0:
260,196,132321,1,8,0:0:0:0:
256,192,132493,5,4,0:0:0:0:
256,192,132666,1,0,0:0:0:0:
256,192,132838,1,0,0:0:0:0:
256,192,133011,1,8,0:0:0:0:
256,192,133183,1,0,0:0:0:0:
256,192,133355,1,0,0:0:0:0:
256,192,133528,1,8,0:0:0:0:
256,192,133700,1,0,0:0:0:0:
256,192,133873,1,0,0:0:0:0:
256,192,134045,1,8,0:0:0:0:
256,192,134217,1,0,0:0:0:0:
256,192,134390,1,8,0:0:0:0:
256,192,134562,1,0,0:0:0:0:
256,192,134735,1,0,0:0:0:0:
256,192,134907,1,8,0:0:0:0:
256,192,135080,1,0,0:0:0:0:
256,192,135424,1,0,0:0:0:0:
256,192,135597,1,8,0:0:0:0:
256,192,135769,1,0,0:0:0:0:
256,192,135942,1,0,0:0:0:0:
256,192,136028,1,0,0:0:0:0:
256,192,136114,1,8,0:0:0:0:
256,192,136200,1,8,0:0:0:0:
256,192,136286,1,0,0:0:0:0:
256,192,136459,1,0,0:0:0:0:
256,192,136631,1,0,0:0:0:0:
256,192,136804,1,0,0:0:0:0:
256,192,136976,1,8,0:0:0:0:
256,192,137148,1,0,0:0:0:0:
256,192,137493,1,0,0:0:0:0:
256,192,137580,1,0,0:0:0:0:
256,192,137666,1,8,0:0:0:0:
256,192,137838,1,0,0:0:0:0:
256,192,138011,1,0,0:0:0:0:
256,192,138183,1,8,0:0:0:0:
256,192,138355,1,0,0:0:0:0:
256,192,138700,1,0,0:0:0:0:
256,192,138873,1,0,0:0:0:0:
256,192,139217,1,0,0:0:0:0:
256,192,139562,1,0,0:0:0:0:
256,192,139735,1,8,0:0:0:0:
256,192,139907,1,8,0:0:0:0:
256,192,139993,1,8,0:0:0:0:
256,192,140080,1,0,0:0:0:0:
256,192,140252,1,8,0:0:0:0:
256,192,140338,1,8,0:0:0:0:
256,192,140424,1,8,0:0:0:0:
256,192,140511,1,8,0:0:0:0:
256,192,140597,1,0,0:0:0:0:
256,192,140769,1,0,0:0:0:0:
256,192,140942,1,0,0:0:0:0:
256,192,141114,1,8,0:0:0:0:
256,192,141286,1,0,0:0:0:0:
256,192,141459,1,0,0:0:0:0:
256,192,141631,1,0,0:0:0:0:
256,192,141804,1,8,0:0:0:0:
256,192,142148,1,0,0:0:0:0:
256,192,142321,1,8,0:0:0:0:
256,192,142493,1,0,0:0:0:0:
256,192,142666,1,0,0:0:0:0:
256,192,142838,1,0,0:0:0:0:
256,192,143011,1,0,0:0:0:0:
256,192,143183,1,8,0:0:0:0:
256,192,143355,1,0,0:0:0:0:
256,192,143700,1,0,0:0:0:0:
256,192,143786,1,0,0:0:0:0:
256,192,143873,1,8,0:0:0:0:
256,192,144217,1,0,0:0:0:0:
256,192,144304,1,0,0:0:0:0:
256,192,144390,1,8,0:0:0:0:
256,192,144476,1,8,0:0:0:0:
256,192,144562,1,0,0:0:0:0:
256,192,144648,1,0,0:0:0:0:
256,192,144735,1,0,0:0:0:0:
256,192,144907,1,0,0:0:0:0:
256,192,145080,1,0,0:0:0:0:
256,192,145252,1,8,0:0:0:0:
256,192,145424,1,0,0:0:0:0:
256,192,145769,1,0,0:0:0:0:
256,192,145942,1,8,0:0:0:0:
256,192,146286,1,0,0:0:0:0:
256,192,146373,1,0,0:0:0:0:
256,192,146459,1,8,0:0:0:0:
256,192,146631,1,0,0:0:0:0:
256,192,146804,1,0,0:0:0:0:
256,192,146976,1,8,0:0:0:0:
256,192,147148,1,0,0:0:0:0:
256,192,147321,1,8,0:0:0:0:
256,192,147493,1,0,0:0:0:0:
256,192,147666,1,8,0:0:0:0:
256,192,147838,1,0,0:0:0:0:
256,192,147924,1,0,0:0:0:0:
256,192,148011,1,8,0:0:0:0:
256,192,148097,1,8,0:0:0:0:
256,192,148183,1,8,0:0:0:0:
256,192,148269,1,8,0:0:0:0:
256,192,148355,1,0,0:0:0:0:
256,192,148442,1,0,0:0:0:0:
256,192,148528,1,0,0:0:0:0:
256,192,148614,1,0,0:0:0:0:
256,192,148700,1,8,0:0:0:0:
256,192,148786,1,8,0:0:0:0:
256,192,148873,1,0,0:0:0:0:
256,192,149045,1,6,0:0:0:0:
256,192,149217,1,6,0:0:0:0:
256,192,149390,1,6,0:0:0:0:
256,192,149562,1,8,0:0:0:0:
256,192,149648,1,8,0:0:0:0:
256,192,149735,1,0,0:0:0:0:
256,192,149907,1,0,0:0:0:0:
256,192,150080,1,8,0:0:0:0:
256,192,150252,1,0,0:0:0:0:
256,192,150424,1,0,0:0:0:0:
256,192,150511,1,0,0:0:0:0:
256,192,150597,1,8,0:0:0:0:
256,192,150769,1,0,0:0:0:0:
256,192,150855,1,8,0:0:0:0:
256,192,150942,1,0,0:0:0:0:
256,192,151028,1,0,0:0:0:0:
256,192,151114,1,8,0:0:0:0:
256,192,151200,1,8,0:0:0:0:
256,192,151286,1,8,0:0:0:0:
256,192,151373,1,8,0:0:0:0:
256,192,151459,1,0,0:0:0:0:
256,192,151631,1,0,0:0:0:0:
256,192,151804,1,8,0:0:0:0:
256,192,151890,1,8,0:0:0:0:
256,192,151976,1,0,0:0:0:0:
256,192,152148,1,8,0:0:0:0:
256,192,152321,1,8,0:0:0:0:
256,192,152493,1,0,0:0:0:0:
256,192,152666,1,8,0:0:0:0:
256,192,152752,1,8,0:0:0:0:
256,192,152838,1,0,0:0:0:0:
256,192,153011,1,0,0:0:0:0:
256,192,153183,1,0,0:0:0:0:
256,192,153269,1,0,0:0:0:0:
256,192,153355,1,8,0:0:0:0:
256,192,153442,1,8,0:0:0:0:
256,192,153528,1,8,0:0:0:0:
256,192,153614,1,8,0:0:0:0:
256,192,153700,1,0,0:0:0:0:
256,192,153786,1,8,0:0:0:0:
256,192,153873,1,0,0:0:0:0:
256,192,154045,1,0,0:0:0:0:
256,192,154217,1,6,0:0:0:0:
256,192,154390,1,0,0:0:0:0:
256,192,154562,1,0,0:0:0:0:
256,192,154735,1,6,0:0:0:0:
256,192,154907,1,0,0:0:0:0:
256,192,155080,1,0,0:0:0:0:
256,192,155252,1,0,0:0:0:0:
256,192,155338,1,0,0:0:0:0:
256,192,155424,1,8,0:0:0:0:
256,192,155511,1,8,0:0:0:0:
256,192,155597,1,0,0:0:0:0:
256,192,155769,1,0,0:0:0:0:
256,192,155942,1,0,0:0:0:0:
256,192,156114,1,0,0:0:0:0:
256,192,156286,1,8,0:0:0:0:
256,192,156373,1,8,0:0:0:0:
256,192,156459,1,8,0:0:0:0:
256,192,156545,1,8,0:0:0:0:
256,192,156631,1,0,0:0:0:0:
256,192,156717,1,0,0:0:0:0:
256,192,156804,1,0,0:0:0:0:
256,192,156890,1,0,0:0:0:0:
256,192,156976,1,0,0:0:0:0:
256,192,157034,1,0,0:0:0:0:
256,192,157091,1,0,0:0:0:0:
256,192,157148,1,8,0:0:0:0:
256,192,157321,1,0,0:0:0:0:
256,192,157493,1,8,0:0:0:0:
256,192,157666,1,0,0:0:0:0:
256,192,157838,1,0,0:0:0:0:
256,192,158011,1,8,0:0:0:0:
256,192,158097,1,8,0:0:0:0:
256,192,158183,1,0,0:0:0:0:
256,192,158355,1,8,0:0:0:0:
256,192,158528,1,8,0:0:0:0:
256,192,158700,1,0,0:0:0:0:
256,192,158873,1,8,0:0:0:0:
256,192,158959,1,8,0:0:0:0:
256,192,159045,1,8,0:0:0:0:
256,192,159131,1,8,0:0:0:0:
256,192,159217,1,0,0:0:0:0:
256,192,159275,1,0,0:0:0:0:
256,192,159332,1,0,0:0:0:0:
256,192,159390,1,8,0:0:0:0:
256,192,159476,1,8,0:0:0:0:
256,192,159562,1,0,0:0:0:0:
256,192,159648,1,8,0:0:0:0:
256,192,159735,1,0,0:0:0:0:
256,192,159821,1,8,0:0:0:0:
256,192,159907,1,0,0:0:0:0:
256,192,159993,1,8,0:0:0:0:
256,192,160080,1,0,0:0:0:0:
256,192,160252,1,0,0:0:0:0:
256,192,160424,1,8,0:0:0:0:
256,192,160597,1,8,0:0:0:0:
256,192,160683,1,8,0:0:0:0:
256,192,160769,1,0,0:0:0:0:
256,192,160855,1,0,0:0:0:0:
256,192,160942,1,8,0:0:0:0:
256,192,161028,1,8,0:0:0:0:
256,192,161114,1,0,0:0:0:0:
256,192,161200,1,8,0:0:0:0:
256,192,161286,1,0,0:0:0:0:
256,192,161459,1,0,0:0:0:0:
256,192,161631,1,8,0:0:0:0:
256,192,161804,1,0,0:0:0:0:
256,192,161976,1,8,0:0:0:0:
256,192,162148,1,8,0:0:0:0:
256,192,162206,1,8,0:0:0:0:
256,192,162263,1,8,0:0:0:0:
256,192,162321,1,0,0:0:0:0:
256,192,162493,1,8,0:0:0:0:
256,192,162666,1,8,0:0:0:0:
256,192,162838,1,0,0:0:0:0:
256,192,163011,1,0,0:0:0:0:
256,192,163068,1,0,0:0:0:0:
256,192,163125,1,0,0:0:0:0:
256,192,163183,1,8,0:0:0:0:
256,192,163269,1,8,0:0:0:0:
256,192,163355,1,0,0:0:0:0:
256,192,163442,1,0,0:0:0:0:
256,192,163528,1,8,0:0:0:0:
256,192,163614,1,8,0:0:0:0:
256,192,163700,1,0,0:0:0:0:
256,192,163786,1,8,0:0:0:0:
256,192,163873,1,0,0:0:0:0:
256,192,163959,1,8,0:0:0:0:
256,192,164045,1,0,0:0:0:0:
256,192,164131,1,8,0:0:0:0:
256,192,164217,1,0,0:0:0:0:
256,192,164304,1,8,0:0:0:0:
256,192,164390,1,0,0:0:0:0:
256,192,164476,1,8,0:0:0:0:
256,192,164562,1,8,0:0:0:0:
256,192,164648,1,8,0:0:0:0:
256,192,164735,1,0,0:0:0:0:
256,192,164821,1,8,0:0:0:0:
256,192,164907,1,0,0:0:0:0:
256,192,164993,1,8,0:0:0:0:
256,192,165080,1,0,0:0:0:0:
256,192,165166,1,8,0:0:0:0:
256,192,165252,1,0,0:0:0:0:
256,192,165338,1,8,0:0:0:0:
256,192,165424,1,0,0:0:0:0:
256,192,165597,1,6,0:0:0:0:
256,192,165769,1,8,0:0:0:0:
256,192,165942,1,8,0:0:0:0:
256,192,166114,1,0,0:0:0:0:
256,192,166286,1,8,0:0:0:0:
256,192,166459,1,0,0:0:0:0:
256,192,166631,1,8,0:0:0:0:
256,192,166717,1,8,0:0:0:0:
256,192,166804,1,8,0:0:0:0:
256,192,166890,1,8,0:0:0:0:
256,192,166976,1,0,0:0:0:0:
256,192,167062,1,8,0:0:0:0:
256,192,167148,1,0,0:0:0:0:
256,192,167321,1,0,0:0:0:0:
256,192,167493,1,8,0:0:0:0:
256,192,167666,1,0,0:0:0:0:
256,192,167838,1,0,0:0:0:0:
256,192,168011,1,8,0:0:0:0:
256,192,168068,1,8,0:0:0:0:
256,192,168125,1,8,0:0:0:0:
256,192,168183,1,0,0:0:0:0:
256,192,168269,1,8,0:0:0:0:
256,192,168355,1,0,0:0:0:0:
256,192,168442,1,0,0:0:0:0:
256,192,168528,1,8,0:0:0:0:
256,192,168614,1,0,0:0:0:0:
256,192,168700,1,8,0:0:0:0:
256,192,168786,1,0,0:0:0:0:
256,192,168873,1,8,0:0:0:0:
256,192,168959,1,8,0:0:0:0:
256,192,169045,1,0,0:0:0:0:
256,192,169131,1,8,0:0:0:0:
256,192,169217,1,8,0:0:0:0:
256,192,169304,1,8,0:0:0:0:
256,192,169390,1,0,0:0:0:0:
256,192,169476,1,0,0:0:0:0:
256,192,169562,1,8,0:0:0:0:
256,192,169735,1,0,0:0:0:0:
256,192,169821,1,0,0:0:0:0:
256,192,169907,1,8,0:0:0:0:
256,192,169993,1,8,0:0:0:0:
256,192,170080,1,8,0:0:0:0:
256,192,170137,1,8,0:0:0:0:
256,192,170194,1,8,0:0:0:0:
256,192,170252,1,0,0:0:0:0:
256,192,170424,1,8,0:0:0:0:
256,192,170597,1,0,0:0:0:0:
256,192,170769,1,8,0:0:0:0:
256,192,170855,1,0,0:0:0:0:
256,192,170942,1,8,0:0:0:0:
256,192,171028,1,0,0:0:0:0:
256,192,171114,1,8,0:0:0:0:
256,192,171200,1,8,0:0:0:0:
256,192,171286,1,8,0:0:0:0:
256,192,171373,1,8,0:0:0:0:
256,192,171459,1,0,0:0:0:0:
256,192,171631,1,0,0:0:0:0:
256,192,171804,1,0,0:0:0:0:
256,192,171976,1,8,0:0:0:0:
256,192,172148,1,8,0:0:0:0:
256,192,172235,1,8,0:0:0:0:
256,192,172321,1,0,0:0:0:0:
256,192,172407,1,8,0:0:0:0:
256,192,172493,1,8,0:0:0:0:
256,192,172580,1,8,0:0:0:0:
256,192,172666,1,0,0:0:0:0:
256,192,172838,1,8,0:0:0:0:
256,192,172924,1,8,0:0:0:0:
256,192,173011,1,8,0:0:0:0:
256,192,173097,1,8,0:0:0:0:
256,192,173183,1,0,0:0:0:0:
256,192,173269,1,8,0:0:0:0:
256,192,173355,1,0,0:0:0:0:
256,192,173442,1,8,0:0:0:0:
256,192,173528,1,8,0:0:0:0:
256,192,173614,1,8,0:0:0:0:
256,192,173700,1,0,0:0:0:0:
256,192,173786,1,8,0:0:0:0:
256,192,173873,1,0,0:0:0:0:
256,192,174045,1,8,0:0:0:0:
256,192,174217,1,8,0:0:0:0:
256,192,174390,1,0,0:0:0:0:
256,192,174562,1,8,0:0:0:0:
256,192,174735,1,0,0:0:0:0:
256,192,174907,1,8,0:0:0:0:
256,192,174993,1,8,0:0:0:0:
256,192,175080,1,0,0:0:0:0:
256,192,175166,1,0,0:0:0:0:
256,192,175252,1,8,0:0:0:0:
256,192,175338,1,8,0:0:0:0:
256,192,175424,1,0,0:0:0:0:
256,192,175511,1,8,0:0:0:0:
256,192,175597,1,0,0:0:0:0:
256,192,175769,1,8,0:0:0:0:
256,192,175942,1,0,0:0:0:0:
256,192,176114,1,0,0:0:0:0:
256,192,176286,1,8,0:0:0:0:
256,192,176344,1,8,0:0:0:0:
256,192,176401,1,8,0:0:0:0:
256,192,176459,1,0,0:0:0:0:
256,192,176545,1,0,0:0:0:0:
256,192,176631,1,8,0:0:0:0:
256,192,176717,1,8,0:0:0:0:
256,192,176804,1,0,0:0:0:0:
256,192,176890,1,0,0:0:0:0:
256,192,176976,1,8,0:0:0:0:
256,192,177148,1,8,0:0:0:0:
256,192,177321,1,0,0:0:0:0:
256,192,177407,1,8,0:0:0:0:
256,192,177493,1,0,0:0:0:0:
256,192,177580,1,0,0:0:0:0:
256,192,177666,1,8,0:0:0:0:
256,192,177752,1,8,0:0:0:0:
256,192,177838,1,0,0:0:0:0:
256,192,177924,1,8,0:0:0:0:
256,192,178011,1,0,0:0:0:0:
256,192,178183,1,0,0:0:0:0:
256,192,178269,1,8,0:0:0:0:
256,192,178355,1,8,0:0:0:0:
256,192,178442,1,8,0:0:0:0:
256,192,178528,1,0,0:0:0:0:
256,192,178614,1,8,0:0:0:0:
256,192,178700,1,8,0:0:0:0:
256,192,178786,1,8,0:0:0:0:
256,192,178873,1,0,0:0:0:0:
256,192,178959,1,0,0:0:0:0:
256,192,179045,1,8,0:0:0:0:
256,192,179217,1,0,0:0:0:0:
256,192,179304,1,8,0:0:0:0:
256,192,179390,1,8,0:0:0:0:
256,192,179476,1,8,0:0:0:0:
256,192,179562,1,0,0:0:0:0:
256,192,179735,1,0,0:0:0:0:
256,192,179907,1,0,0:0:0:0:
256,192,180080,1,8,0:0:0:0:
256,192,180166,1,8,0:0:0:0:
256,192,180252,1,0,0:0:0:0:
256,192,180338,1,8,0:0:0:0:
256,192,180424,1,8,0:0:0:0:
256,192,180511,1,8,0:0:0:0:
256,192,180597,1,0,0:0:0:0:
256,192,180683,1,8,0:0:0:0:
256,192,180769,1,0,0:0:0:0:
256,192,180855,1,8,0:0:0:0:
256,192,180942,1,0,0:0:0:0:
256,192,181028,1,0,0:0:0:0:
256,192,181114,1,8,0:0:0:0:
256,192,181200,1,0,0:0:0:0:
256,192,181286,1,8,0:0:0:0:
256,192,181373,1,8,0:0:0:0:
256,192,181459,1,8,0:0:0:0:
256,192,181545,1,8,0:0:0:0:
256,192,181631,1,0,0:0:0:0:
256,192,181804,1,8,0:0:0:0:
256,192,181890,1,8,0:0:0:0:
256,192,181976,1,8,0:0:0:0:
256,192,182148,1,4,0:0:0:0:
256,192,182321,1,0,0:0:0:0:
256,192,182407,1,0,0:0:0:0:
256,192,182493,1,8,0:0:0:0:
256,192,182580,1,8,0:0:0:0:
256,192,182666,1,0,0:0:0:0:
256,192,182838,1,8,0:0:0:0:
256,192,182924,1,8,0:0:0:0:
256,192,183011,1,0,0:0:0:0:
256,192,183097,1,0,0:0:0:0:
256,192,183183,1,8,0:0:0:0:
256,192,183269,1,8,0:0:0:0:
256,192,183355,1,8,0:0:0:0:
256,192,183442,1,8,0:0:0:0:
256,192,183528,1,8,0:0:0:0:
256,192,183585,1,8,0:0:0:0:
256,192,183643,1,8,0:0:0:0:
256,192,183700,1,0,0:0:0:0:
256,192,183873,1,8,0:0:0:0:
256,192,183959,1,8,0:0:0:0:
256,192,184045,1,0,0:0:0:0:
256,192,184131,1,0,0:0:0:0:
256,192,184217,1,8,0:0:0:0:
256,192,184304,1,8,0:0:0:0:
256,192,184390,1,0,0:0:0:0:
256,192,184476,1,8,0:0:0:0:
256,192,184562,1,0,0:0:0:0:
256,192,184735,1,0,0:0:0:0:
256,192,184821,1,8,0:0:0:0:
256,192,184907,1,8,0:0:0:0:
256,192,184993,1,8,0:0:0:0:
256,192,185080,1,0,0:0:0:0:
256,192,185252,1,8,0:0:0:0:
256,192,185338,1,8,0:0:0:0:
256,192,185424,1,8,0:0:0:0:
256,192,185511,1,8,0:0:0:0:
256,192,185597,1,8,0:0:0:0:
256,192,185683,1,8,0:0:0:0:
256,192,185769,1,0,0:0:0:0:
256,192,185855,1,0,0:0:0:0:
256,192,185942,1,8,0:0:0:0:
256,192,186028,1,8,0:0:0:0:
256,192,186114,1,0,0:0:0:0:
256,192,186200,1,8,0:0:0:0:
256,192,186286,1,0,0:0:0:0:
256,192,186459,1,8,0:0:0:0:
256,192,186545,1,8,0:0:0:0:
256,192,186631,1,0,0:0:0:0:
256,192,186804,1,8,0:0:0:0:
256,192,186890,1,8,0:0:0:0:
256,192,186976,1,8,0:0:0:0:
256,192,187062,1,8,0:0:0:0:
256,192,187148,1,0,0:0:0:0:
256,192,187235,1,0,0:0:0:0:
256,192,187321,1,8,0:0:0:0:
256,192,187493,1,8,0:0:0:0:
256,192,187580,1,8,0:0:0:0:
256,192,187666,1,0,0:0:0:0:
256,192,187752,1,0,0:0:0:0:
256,192,187838,1,8,0:0:0:0:
256,192,188011,1,0,0:0:0:0:
256,192,188183,1,8,0:0:0:0:
256,192,188240,1,8,0:0:0:0:
256,192,188298,1,8,0:0:0:0:
256,192,188355,1,0,0:0:0:0:
256,192,188442,1,8,0:0:0:0:
256,192,188528,1,0,0:0:0:0:
256,192,188614,1,0,0:0:0:0:
256,192,188700,1,8,0:0:0:0:
256,192,188873,1,0,0:0:0:0:
256,192,188959,1,0,0:0:0:0:
256,192,189045,1,8,0:0:0:0:
256,192,189131,1,0,0:0:0:0:
256,192,189217,1,8,0:0:0:0:
256,192,189304,1,0,0:0:0:0:
256,192,189390,1,8,0:0:0:0:
256,192,189476,1,8,0:0:0:0:
256,192,189562,1,8,0:0:0:0:
256,192,189648,1,8,0:0:0:0:
256,192,189735,1,0,0:0:0:0:
256,192,189821,1,0,0:0:0:0:
256,192,189907,1,8,0:0:0:0:
256,192,189993,1,8,0:0:0:0:
256,192,190080,1,8,0:0:0:0:
256,192,190166,1,8,0:0:0:0:
256,192,190252,1,0,0:0:0:0:
256,192,190338,1,8,0:0:0:0:
256,192,190424,1,0,0:0:0:0:
256,192,190597,1,8,0:0:0:0:
256,192,190769,1,8,0:0:0:0:
256,192,190855,1,8,0:0:0:0:
256,192,190942,1,0,0:0:0:0:
256,192,191114,1,8,0:0:0:0:
256,192,191286,1,0,0:0:0:0:
256,192,191459,1,8,0:0:0:0:
256,192,191545,1,8,0:0:0:0:
256,192,191631,1,8,0:0:0:0:
256,192,191717,1,8,0:0:0:0:
256,192,191804,1,0,0:0:0:0:
256,192,191890,1,0,0:0:0:0:
256,192,191976,1,8,0:0:0:0:
256,192,192062,1,8,0:0:0:0:
256,192,192148,1,0,0:0:0:0:
256,192,192235,1,0,0:0:0:0:
256,192,192321,1,8,0:0:0:0:
256,192,192493,1,0,0:0:0:0:
256,192,192666,1,8,0:0:0:0:
256,192,192752,1,0,0:0:0:0:
256,192,192838,1,8,0:0:0:0:
256,192,192924,1,8,0:0:0:0:
256,192,193011,1,0,0:0:0:0:
256,192,193097,1,0,0:0:0:0:
256,192,193183,1,8,0:0:0:0:
256,192,193269,1,8,0:0:0:0:
256,192,193355,1,0,0:0:0:0:
256,192,193442,1,0,0:0:0:0:
256,192,193528,1,8,0:0:0:0:
256,192,193614,1,8,0:0:0:0:
256,192,193700,1,8,0:0:0:0:
256,192,193786,1,8,0:0:0:0:
256,192,193873,1,0,0:0:0:0:
256,192,193959,1,0,0:0:0:0:
256,192,194045,1,8,0:0:0:0:
256,192,194102,1,8,0:0:0:0:
256,192,194160,1,8,0:0:0:0:
256,192,194217,1,0,0:0:0:0:
256,192,194304,1,8,0:0:0:0:
256,192,194390,1,0,0:0:0:0:
256,192,194476,1,8,0:0:0:0:
256,192,194562,1,0,0:0:0:0:
256,192,194735,1,8,0:0:0:0:
256,192,194821,1,8,0:0:0:0:
256,192,194907,1,8,0:0:0:0:
256,192,194993,1,8,0:0:0:0:
256,192,195080,1,8,0:0:0:0:
256,192,195166,1,8,0:0:0:0:
256,192,195252,1,8,0:0:0:0:
256,192,195338,1,8,0:0:0:0:
256,192,195424,1,0,0:0:0:0:
256,192,195597,1,8,0:0:0:0:
256,192,195769,1,8,0:0:0:0:
256,192,195855,1,8,0:0:0:0:
256,192,195942,1,8,0:0:0:0:
256,192,196114,1,0,0:0:0:0:
256,192,196286,1,0,0:0:0:0:
256,192,196373,1,0,0:0:0:0:
256,192,196459,1,8,0:0:0:0:
256,192,196545,1,8,0:0:0:0:
256,192,196631,1,0,0:0:0:0:
256,192,196804,1,0,0:0:0:0:
256,192,196890,1,0,0:0:0:0:
256,192,196976,1,8,0:0:0:0:
256,192,197062,1,0,0:0:0:0:
256,192,197148,1,8,0:0:0:0:
256,192,197235,1,8,0:0:0:0:
256,192,197321,1,0,0:0:0:0:
256,192,197493,1,0,0:0:0:0:
256,192,197666,1,8,0:0:0:0:
256,192,197752,1,8,0:0:0:0:
256,192,197838,1,0,0:0:0:0:
256,192,197924,1,0,0:0:0:0:
256,192,198011,1,8,0:0:0:0:
256,192,198097,1,0,0:0:0:0:
256,192,198183,1,8,0:0:0:0:
256,192,198269,1,0,0:0:0:0:
256,192,198355,1,8,0:0:0:0:
256,192,198442,1,0,0:0:0:0:
256,192,198528,1,8,0:0:0:0:
256,192,198614,1,8,0:0:0:0:
256,192,198700,1,0,0:0:0:0:
256,192,198873,1,0,0:0:0:0:
256,192,199045,1,0,0:0:0:0:
256,192,199218,1,8,0:0:0:0:
256,192,199390,1,0,0:0:0:0:
256,192,199562,1,0,0:0:0:0:
256,192,199735,1,8,0:0:0:0:
256,192,199907,1,0,0:0:0:0:
256,192,200080,1,0,0:0:0:0:
256,192,200252,1,8,0:0:0:0:
256,192,200424,1,0,0:0:0:0:
256,192,200597,1,8,0:0:0:0:
256,192,200769,1,0,0:0:0:0:
256,192,200942,1,0,0:0:0:0:
256,192,201114,1,8,0:0:0:0:
256,192,201287,1,0,0:0:0:0:
256,192,201631,1,0,0:0:0:0:
256,192,201804,1,8,0:0:0:0:
256,192,201976,1,0,0:0:0:0:
256,192,202149,1,0,0:0:0:0:
256,192,202235,1,0,0:0:0:0:
256,192,202321,1,8,0:0:0:0:
256,192,202407,1,8,0:0:0:0:
256,192,202493,1,0,0:0:0:0:
256,192,202666,1,0,0:0:0:0:
256,192,202838,1,0,0:0:0:0:
256,192,203011,1,0,0:0:0:0:
256,192,203183,1,8,0:0:0:0:
256,192,203355,1,0,0:0:0:0:
256,192,203700,1,0,0:0:0:0:
256,192,203787,1,0,0:0:0:0:
256,192,203873,1,8,0:0:0:0:
256,192,204045,1,0,0:0:0:0:
256,192,204218,1,0,0:0:0:0:
256,192,204390,1,8,0:0:0:0:
256,192,204562,1,0,0:0:0:0:
256,192,204907,1,0,0:0:0:0:
256,192,205080,1,0,0:0:0:0:
256,192,205424,1,0,0:0:0:0:
256,192,205769,1,0,0:0:0:0:
256,192,205942,1,8,0:0:0:0:
256,192,206114,1,8,0:0:0:0:
256,192,206200,1,8,0:0:0:0:
256,192,206287,1,0,0:0:0:0:
256,192,206459,1,8,0:0:0:0:
256,192,206545,1,8,0:0:0:0:
256,192,206631,1,8,0:0:0:0:
256,192,206718,1,8,0:0:0:0:
256,192,206804,1,0,0:0:0:0:
256,192,206976,1,0,0:0:0:0:
256,192,207149,1,0,0:0:0:0:
256,192,207321,1,8,0:0:0:0:
256,192,207493,1,0,0:0:0:0:
256,192,207666,1,0,0:0:0:0:
256,192,207838,1,0,0:0:0:0:
256,192,208011,1,8,0:0:0:0:
256,192,208355,1,0,0:0:0:0:
256,192,208528,1,8,0:0:0:0:
256,192,208700,1,0,0:0:0:0:
256,192,208873,1,0,0:0:0:0:
256,192,209045,1,0,0:0:0:0:
256,192,209218,1,0,0:0:0:0:
256,192,209390,1,8,0:0:0:0:
256,192,209562,1,0,0:0:0:0:
256,192,209907,1,0,0:0:0:0:
256,192,209993,1,0,0:0:0:0:
256,192,210080,1,8,0:0:0:0:
256,192,210424,1,0,0:0:0:0:
256,192,210511,1,0,0:0:0:0:
256,192,210597,1,8,0:0:0:0:
256,192,210683,1,8,0:0:0:0:
256,192,210769,1,0,0:0:0:0:
256,192,210855,1,0,0:0:0:0:
256,192,210942,1,0,0:0:0:0:
256,192,211114,1,0,0:0:0:0:
256,192,211287,1,0,0:0:0:0:
256,192,211459,1,8,0:0:0:0:
256,192,211631,1,0,0:0:0:0:
256,192,211804,1,8,0:0:0:0:
256,192,211976,1,0,0:0:0:0:
256,192,212149,1,8,0:0:0:0:
256,192,212321,1,0,0:0:0:0:
256,192,212407,1,0,0:0:0:0:
256,192,212493,1,8,0:0:0:0:
256,192,212580,1,0,0:0:0:0:
256,192,212666,1,8,0:0:0:0:
256,192,212838,1,0,0:0:0:0:
256,192,213011,1,0,0:0:0:0:
256,192,213183,1,8,0:0:0:0:
256,192,213355,1,0,0:0:0:0:
256,192,213528,1,8,0:0:0:0:
256,192,213700,1,0,0:0:0:0:
256,192,213873,1,8,0:0:0:0:
256,192,214045,1,0,0:0:0:0:
256,192,214131,1,0,0:0:0:0:
256,192,214218,1,8,0:0:0:0:
256,192,214304,1,8,0:0:0:0:
256,192,214390,1,8,0:0:0:0:
256,192,214476,1,8,0:0:0:0:
256,192,214562,1,0,0:0:0:0:
256,192,214649,1,0,0:0:0:0:
256,192,214735,1,0,0:0:0:0:
256,192,214821,1,0,0:0:0:0:
256,192,214907,1,8,0:0:0:0:
256,192,215080,1,0,0:0:0:0:
256,192,215252,1,0,0:0:0:0:
256,192,215338,1,0,0:0:0:0:
256,192,215424,1,0,0:0:0:0:
256,192,215511,1,0,0:0:0:0:
256,192,215597,1,8,0:0:0:0:
256,192,215683,1,8,0:0:0:0:
256,192,215769,1,0,0:0:0:0:
256,192,215855,1,8,0:0:0:0:
256,192,215942,1,0,0:0:0:0:
256,192,216028,1,8,0:0:0:0:
256,192,216114,1,0,0:0:0:0:
256,192,216200,1,0,0:0:0:0:
256,192,216286,1,8,0:0:0:0:
256,192,216459,1,0,0:0:0:0:
256,192,216545,1,8,0:0:0:0:
256,192,216631,1,0,0:0:0:0:
256,192,216717,1,0,0:0:0:0:
256,192,216804,1,8,0:0:0:0:
256,192,216976,1,0,0:0:0:0:
256,192,217148,1,8,0:0:0:0:
256,192,217321,1,0,0:0:0:0:
256,192,217407,1,0,0:0:0:0:
256,192,217493,1,8,0:0:0:0:
256,192,217666,1,0,0:0:0:0:
256,192,217752,1,8,0:0:0:0:
256,192,217838,1,0,0:0:0:0:
256,192,217924,1,8,0:0:0:0:
256,192,218011,1,8,0:0:0:0:
256,192,218097,1,8,0:0:0:0:
256,192,218183,1,0,0:0:0:0:
256,192,218355,1,8,0:0:0:0:
256,192,218528,1,8,0:0:0:0:
256,192,218614,1,8,0:0:0:0:
256,192,218700,1,0,0:0:0:0:
256,192,218786,1,0,0:0:0:0:
256,192,218873,1,8,0:0:0:0:
256,192,218959,1,8,0:0:0:0:
256,192,219045,1,0,0:0:0:0:
256,192,219131,1,8,0:0:0:0:
256,192,219217,1,0,0:0:0:0:
256,192,219390,1,0,0:0:0:0:
256,192,219562,1,8,0:0:0:0:
256,192,219648,1,0,0:0:0:0:
256,192,219735,1,8,0:0:0:0:
256,192,219821,1,0,0:0:0:0:
256,192,219907,1,0,0:0:0:0:
256,192,220080,1,8,0:0:0:0:
256,192,220166,1,0,0:0:0:0:
256,192,220252,1,0,0:0:0:0:
256,192,220338,1,0,0:0:0:0:
256,192,220424,1,8,0:0:0:0:
256,192,220511,1,8,0:0:0:0:
256,192,220597,1,0,0:0:0:0:
256,192,220683,1,8,0:0:0:0:
256,192,220769,1,0,0:0:0:0:
256,192,220942,1,0,0:0:0:0:
256,192,221114,1,8,0:0:0:0:
256,192,221171,1,8,0:0:0:0:
256,192,221229,1,8,0:0:0:0:
256,192,221286,1,0,0:0:0:0:
256,192,221373,1,0,0:0:0:0:
256,192,221459,1,8,0:0:0:0:
256,192,221545,1,8,0:0:0:0:
256,192,221631,1,0,0:0:0:0:
256,192,221717,1,0,0:0:0:0:
256,192,221804,1,8,0:0:0:0:
256,192,221890,1,0,0:0:0:0:
256,192,221976,1,8,0:0:0:0:
256,192,222062,1,0,0:0:0:0:
256,192,222148,1,8,0:0:0:0:
256,192,222235,1,8,0:0:0:0:
256,192,222321,1,0,0:0:0:0:
256,192,222407,1,0,0:0:0:0:
256,192,222493,1,8,0:0:0:0:
256,192,222666,1,8,0:0:0:0:
256,192,222752,1,8,0:0:0:0:
256,192,222838,1,0,0:0:0:0:
256,192,222924,1,8,0:0:0:0:
256,192,223011,1,0,0:0:0:0:
256,192,223097,1,8,0:0:0:0:
256,192,223183,1,0,0:0:0:0:
256,192,223269,1,8,0:0:0:0:
256,192,223355,1,0,0:0:0:0:
256,192,223528,1,0,0:0:0:0:
256,192,223700,1,8,0:0:0:0:
256,192,223786,1,8,0:0:0:0:
256,192,223873,1,8,0:0:0:0:
256,192,223930,1,8,0:0:0:0:
256,192,223988,1,8,0:0:0:0:
256,192,224045,1,0,0:0:0:0:
256,192,224131,1,0,0:0:0:0:
256,192,224217,1,8,0:0:0:0:
256,192,224390,1,0,0:0:0:0:
256,192,224562,1,8,0:0:0:0:
256,192,224648,1,8,0:0:0:0:
256,192,224735,1,0,0:0:0:0:
256,192,224821,1,0,0:0:0:0:
256,192,224907,1,8,0:0:0:0:
256,192,224993,1,8,0:0:0:0:
256,192,225080,1,0,0:0:0:0:
256,192,225166,1,8,0:0:0:0:
256,192,225252,1,0,0:0:0:0:
256,192,225338,1,8,0:0:0:0:
256,192,225424,1,0,0:0:0:0:
256,192,225511,1,0,0:0:0:0:
256,192,225597,1,8,0:0:0:0:
256,192,225769,1,0,0:0:0:0:
256,192,225942,1,8,0:0:0:0:
256,192,226114,1,0,0:0:0:0:
256,192,226200,1,0,0:0:0:0:
256,192,226286,1,8,0:0:0:0:
256,192,226373,1,8,0:0:0:0:
256,192,226459,1,8,0:0:0:0:
256,192,226545,1,8,0:0:0:0:
256,192,226631,1,0,0:0:0:0:
256,192,226717,1,0,0:0:0:0:
256,192,226804,1,8,0:0:0:0:
256,192,226976,1,0,0:0:0:0:
256,192,227062,1,0,0:0:0:0:
256,192,227148,1,8,0:0:0:0:
256,192,227235,1,8,0:0:0:0:
256,192,227321,1,0,0:0:0:0:
256,192,227493,1,0,0:0:0:0:
256,192,227666,1,0,0:0:0:0:
256,192,227838,1,0,0:0:0:0:
256,192,227924,1,0,0:0:0:0:
256,192,228011,1,8,0:0:0:0:
256,192,228097,1,8,0:0:0:0:
256,192,228183,1,0,0:0:0:0:
256,192,228269,1,8,0:0:0:0:
256,192,228355,1,8,0:0:0:0:
256,192,228442,1,8,0:0:0:0:
256,192,228528,1,0,0:0:0:0:
256,192,228614,1,0,0:0:0:0:
256,192,228700,1,8,0:0:0:0:
256,192,228873,1,8,0:0:0:0:
256,192,229045,1,0,0:0:0:0:
256,192,229131,1,0,0:0:0:0:
256,192,229217,1,8,0:0:0:0:
256,192,229304,1,0,0:0:0:0:
256,192,229390,1,8,0:0:0:0:
256,192,229476,1,8,0:0:0:0:
256,192,229562,1,0,0:0:0:0:
256,192,229648,1,8,0:0:0:0:
256,192,229735,1,0,0:0:0:0:
256,192,229821,1,8,0:0:0:0:
256,192,229907,1,8,0:0:0:0:
256,192,229993,1,8,0:0:0:0:
256,192,230080,1,0,0:0:0:0:
256,192,230166,1,0,0:0:0:0:
256,192,230252,1,8,0:0:0:0:
256,192,230338,1,8,0:0:0:0:
256,192,230424,1,0,0:0:0:0:
256,192,230511,1,0,0:0:0:0:
256,192,230597,1,0,0:0:0:0:
256,192,230683,1,0,0:0:0:0:
256,192,230769,1,8,0:0:0:0:
256,192,230855,1,8,0:0:0:0:
256,192,230942,1,8,0:0:0:0:
256,192,231028,1,8,0:0:0:0:
256,192,231114,1,8,0:0:0:0:
256,192,231200,1,8,0:0:0:0:
256,192,231286,1,0,0:0:0:0:
256,192,231459,1,0,0:0:0:0:
256,192,231631,1,8,0:0:0:0:
256,192,231804,12,0,236976,0:0:0:0:
