osu file format v9

[General]
AudioFilename: igorrr_mastication_numerique.mp3
AudioLeadIn: 1500
PreviewTime: 28483
Countdown: 0
SampleSet: Normal
StackLeniency: 0.4
Mode: 0
LetterboxInBreaks: 1

[Editor]
Bookmarks: 75110
DistanceSpacing: 1
BeatDivisor: 4
GridSize: 4

[Metadata]
Title:Mastication Numerique
Artist:Igorrr
Creator:grumd
Version:Hard
Source:
Tags:loctav breakcore francais baroquecore

[Difficulty]
HPDrainRate:5
CircleSize:4
OverallDifficulty:6
ApproachRate:7
SliderMultiplier:1
SliderTickRate:2

[Events]
//Background and Video events
0,0,"clear.jpg"
//Break Periods
2,26221,28395
//Storyboard Layer 0 (Background)
//Storyboard Layer 1 (Fail)
//Storyboard Layer 2 (Pass)
//Storyboard Layer 3 (Foreground)
//Storyboard Sound Samples
//Background Colour Transformations
3,100,163,162,255

[TimingPoints]
659,272.727272727273,3,2,0,30,1,0
3923,-100,3,1,0,40,0,0
3991,-100,3,2,0,50,0,0
4741,-100,3,1,0,40,0,0
4809,-100,3,2,0,50,0,0
5559,-100,3,1,0,40,0,0
5628,-100,3,2,0,50,0,0
6378,-100,3,1,0,40,0,0
6446,-100,3,2,0,50,0,0
7196,-100,3,1,0,40,0,0
7264,-100,3,2,0,50,0,0
8014,-100,3,1,0,40,0,0
8082,-100,3,2,0,50,0,0
8832,-100,3,1,0,40,0,0
8900,-100,3,2,0,50,0,0
9650,-100,3,1,0,40,0,0
9718,-100,3,2,0,50,0,0
10468,-100,3,1,0,40,0,0
10605,-100,3,2,0,50,0,0
11287,-100,3,1,0,40,0,0
11423,-100,3,2,0,50,0,0
12105,-100,3,1,0,40,0,0
12241,-100,3,2,0,50,0,0
12923,-100,3,1,0,40,0,0
13196,-100,3,2,0,50,0,0
13741,-100,3,1,0,40,0,0
13809,-100,3,2,0,50,0,0
14559,-100,3,1,0,40,0,0
14627,-100,3,2,0,50,0,0
15377,-100,3,1,0,40,0,0
15650,-100,3,2,0,50,0,0
16196,-100,3,1,0,40,0,0
16468,-100,3,2,0,50,0,0
17014,-100,3,1,0,40,0,0
17082,-100,3,2,0,50,0,0
17832,-100,3,1,0,40,0,0
17900,-100,3,2,0,50,0,0
18650,-100,3,1,0,40,0,0
18923,-100,3,2,0,50,0,0
19468,-100,3,1,0,40,0,0
19741,-100,3,2,0,50,0,0
20286,-100,3,1,0,40,0,0
20355,-100,3,2,0,50,0,0
21105,-100,3,1,0,40,0,0
21173,-100,3,2,0,50,0,0
21923,-100,3,1,0,40,0,0
22195,-100,3,2,0,50,0,0
22741,-100,3,1,0,40,0,0
23014,-100,3,2,0,50,0,0
23559,-100,3,1,0,40,0,0
25264,-100,3,2,0,50,0,0
26022,-100,3,1,0,50,0,0
29286,-83.3333333333333,3,1,0,40,0,0
29354,-83.3333333333333,3,2,0,50,0,0
29832,-83.3333333333333,3,1,0,40,0,0
29900,-83.3333333333333,3,2,0,50,0,0
30104,-83.3333333333333,3,1,0,40,0,0
30173,-83.3333333333333,3,2,0,50,0,0
30650,-83.3333333333333,3,1,0,40,0,0
30718,-83.3333333333333,3,2,0,50,0,0
30923,-83.3333333333333,3,1,0,40,0,0
30991,-83.3333333333333,3,2,0,50,0,0
31468,-83.3333333333333,3,1,0,40,0,0
31604,-83.3333333333333,3,2,0,50,0,0
31741,-83.3333333333333,3,1,0,40,0,0
31809,-83.3333333333333,3,2,0,50,0,0
32286,-83.3333333333333,3,1,0,40,0,0
32354,-83.3333333333333,3,2,0,50,0,0
32559,-83.3333333333333,3,1,0,40,0,0
32627,-83.3333333333333,3,2,0,50,0,0
33104,-83.3333333333333,3,1,0,40,0,0
33172,-83.3333333333333,3,2,0,50,0,0
33377,-83.3333333333333,3,1,0,40,0,0
33513,-83.3333333333333,3,2,0,50,0,0
33922,-83.3333333333333,3,1,0,40,0,0
34127,-83.3333333333333,3,2,0,50,0,0
34195,-83.3333333333333,3,1,0,40,0,0
34332,-83.3333333333333,3,2,0,50,0,0
34741,-83.3333333333333,3,1,0,40,0,0
34809,-83.3333333333333,3,2,0,50,0,0
35013,-83.3333333333333,3,1,0,40,0,0
35082,-83.3333333333333,3,2,0,50,0,0
35559,-83.3333333333333,3,1,0,40,0,0
35627,-83.3333333333333,3,2,0,50,0,0
35832,-83.3333333333333,3,1,0,40,0,0
35900,-83.3333333333333,3,2,0,50,0,0
36377,-83.3333333333333,3,1,0,40,0,0
36445,-83.3333333333333,3,2,0,50,0,0
36650,-83.3333333333333,3,1,0,40,0,0
36718,-83.3333333333333,3,2,0,50,0,0
37195,-83.3333333333333,3,1,0,40,0,0
37263,-83.3333333333333,3,2,0,50,0,0
37468,-83.3333333333333,3,1,0,40,0,0
37604,-83.3333333333333,3,2,0,50,0,0
38013,-83.3333333333333,3,1,0,40,0,0
38081,-83.3333333333333,3,2,0,50,0,0
38286,-83.3333333333333,3,1,0,40,0,0
38422,-83.3333333333333,3,2,0,50,0,0
39104,-83.3333333333333,3,1,0,40,0,0
40740,-83.3333333333333,3,2,0,50,0,0
41286,-83.3333333333333,3,1,0,35,0,0
41354,-83.3333333333333,3,2,0,50,0,0
42377,-100,3,1,0,40,0,0
42445,-100,3,2,0,50,0,0
43195,-100,3,1,0,30,0,0
43263,-100,3,2,0,50,0,0
44013,-100,3,1,0,40,0,0
44081,-100,3,2,0,50,0,0
44831,-100,3,1,0,30,0,0
44899,-100,3,2,0,50,0,0
45649,-100,3,1,0,40,0,0
45718,-100,3,2,0,50,0,0
46468,-100,3,1,0,30,0,0
46536,-100,3,2,0,50,0,0
47286,-100,3,1,0,40,0,0
47354,-100,3,2,0,50,0,0
47559,-100,3,1,0,30,0,0
47627,-100,3,2,0,50,0,0
47831,-100,3,1,0,30,0,0
47899,-100,3,2,0,50,0,0
48104,-83.3333333333333,3,2,0,50,0,0
48922,-100,3,1,0,40,0,0
48990,-100,3,2,0,50,0,0
49740,-100,3,1,0,30,0,0
49808,-100,3,2,0,50,0,0
50558,-100,3,1,0,40,0,0
50831,-100,3,2,0,50,0,0
51377,-100,3,1,0,30,0,0
51649,-100,3,2,0,50,0,0
52195,-100,3,1,0,40,0,0
52468,-100,3,2,0,50,0,0
53013,-100,3,1,0,30,0,0
53081,-100,3,2,0,50,0,0
53558,-100,3,1,0,40,0,0
53840,-83.3333333333333,3,1,0,40,0,0
53899,-83.3333333333333,3,2,0,50,0,0
54659,-83.3333333333333,3,1,0,35,0,0
54727,-83.3333333333333,3,2,0,50,0,0
55468,-100,3,1,0,40,0,0
55536,-100,3,2,0,50,0,0
56286,-100,3,1,0,30,0,0
56354,-100,3,2,0,50,0,0
57104,-100,3,1,0,40,0,0
57172,-100,3,2,0,50,0,0
57922,-100,3,1,0,30,0,0
57990,-100,3,2,0,50,0,0
58740,-100,3,1,0,40,0,0
58808,-100,3,2,0,50,0,0
59286,-100,3,1,0,40,0,0
59558,-100,3,1,0,30,0,0
59626,-100,3,2,0,50,0,0
60376,-100,3,1,0,40,0,0
61467,-100,3,2,0,50,0,0
62022,-83.3333333333333,3,1,0,55,0,1
66931,-83.3333333333333,3,2,0,50,0,0
67740,-83.3333333333333,3,1,0,35,0,0
68967,-83.3333333333333,3,2,0,50,0,0
69376,-83.3333333333333,3,1,0,40,0,0
69785,-83.3333333333333,3,2,0,50,0,0
70194,-83.3333333333333,3,1,0,40,0,0
70603,-83.3333333333333,3,2,0,50,0,0
71013,-83.3333333333333,3,1,0,40,0,0
71422,-83.3333333333333,3,2,0,50,0,0
71840,-83.3333333333333,3,1,0,55,0,1
75104,-83.3333333333333,3,1,0,40,0,0
75249,-83.3333333333333,3,2,0,50,0,0
75922,-83.3333333333333,3,1,0,40,0,0
75990,-83.3333333333333,3,2,0,50,0,0
76740,-83.3333333333333,3,1,0,40,0,0
76808,-83.3333333333333,3,2,0,50,0,0
77568,-55.5555555555556,3,1,0,60,0,1
78113,-83.3333333333333,3,1,0,40,0,0
78444,-83.3333333333333,3,2,0,50,0,0
79194,-83.3333333333333,3,1,0,40,0,0
79262,-83.3333333333333,3,2,0,50,0,0
80022,-83.3333333333333,3,1,0,55,0,1
81659,-83.3333333333333,3,1,0,40,0,0
81785,-83.3333333333333,3,2,0,55,0,0
82467,-83.3333333333333,3,1,0,40,0,0
82535,-83.3333333333333,3,2,0,55,0,0
83285,-83.3333333333333,3,1,0,40,0,0
83353,-83.3333333333333,3,2,0,55,0,0
84103,-83.3333333333333,3,1,0,40,0,0
84171,-83.3333333333333,3,2,0,70,0,0
84921,-83.3333333333333,3,1,0,40,0,0
85058,-83.3333333333333,3,2,0,50,0,0
85739,-83.3333333333333,3,1,0,40,0,0
85876,-83.3333333333333,3,2,0,40,0,0
86568,-83.3333333333333,3,1,0,50,0,1
91545,-83.3333333333333,3,2,0,50,0,0
92285,-83.3333333333333,3,1,0,40,0,0
92353,-83.3333333333333,3,2,0,50,0,0
93113,-83.3333333333333,3,1,0,50,0,1
94749,-83.3333333333333,3,1,0,40,0,0
94807,-83.3333333333333,3,2,0,50,0,0
95557,-83.3333333333333,3,1,0,40,0,0
95626,-83.3333333333333,3,2,0,50,0,0
96376,-83.3333333333333,3,2,0,60,0,0
97194,-83.3333333333333,3,1,0,40,0,0
97262,-83.3333333333333,3,2,0,60,0,0
98012,-83.3333333333333,3,1,0,40,0,0
98080,-83.3333333333333,3,2,0,60,0,0
98830,-83.3333333333333,3,1,0,40,0,0
98898,-83.3333333333333,3,2,0,60,0,0
99648,-83.3333333333333,3,1,0,40,0,0
101295,-83.3333333333333,3,1,0,45,0,0
101557,-100,3,2,0,50,0,0
102103,-100,3,1,0,40,0,0
102171,-100,3,2,0,50,0,0
102921,-100,3,1,0,40,0,0
102989,-100,3,2,0,50,0,0
103739,-100,3,1,0,40,0,0
104012,-100,3,2,0,50,0,0
104285,-100,3,1,0,40,0,0
104830,-100,3,2,0,50,0,0
105375,-100,3,1,0,40,0,0
105444,-100,3,2,0,50,0,0
106194,-100,3,1,0,40,0,0
106262,-100,3,2,0,50,0,0
107012,-100,3,1,0,40,0,0
107080,-100,3,2,0,50,0,0
107557,-100,3,1,0,40,0,0
107694,-100,3,2,0,50,0,0
107830,-100,3,1,0,40,0,0
107898,-100,3,2,0,50,0,0
108648,-100,3,1,0,40,0,0
108921,-100,3,2,0,50,0,0
109466,-100,3,1,0,40,0,0
109534,-100,3,2,0,50,0,0
110284,-100,3,1,0,40,0,0
110353,-100,3,2,0,50,0,0
110830,-100,3,1,0,40,0,0
111113,-83.3333333333333,3,1,0,40,0,1
111386,-83.3333333333333,3,2,0,50,0,1
111512,-83.3333333333333,3,1,0,40,0,1
111648,-83.3333333333333,3,2,0,50,0,1
111784,-83.3333333333333,3,1,0,40,0,1
111931,-83.3333333333333,3,1,0,40,0,0
112193,-83.3333333333333,3,2,0,50,0,0
112739,-83.3333333333333,3,1,0,40,0,0
113012,-83.3333333333333,3,2,0,50,0,0
113557,-83.3333333333333,3,1,0,40,0,0
113625,-83.3333333333333,3,2,0,50,0,0
114102,-83.3333333333333,3,1,0,40,0,0
114239,-83.3333333333333,3,2,0,50,0,0
114375,-83.3333333333333,3,1,0,40,0,0
114443,-83.3333333333333,3,2,0,50,0,0
116012,-83.3333333333333,3,1,0,40,0,0
116080,-83.3333333333333,3,2,0,55,0,0
116830,-83.3333333333333,3,1,0,40,0,0

[Colours]
Combo1 : 154,132,90
Combo2 : 138,101,83
Combo3 : 141,147,98

[HitObjects]
452,138,659,2,0,B|409:168|356:160,1,100,2|0
268,112,1204,1,2
169,127,1477,2,0,B|120:153|108:205,1,100,0|2
138,298,2022,1,0
234,323,2295,6,0,B|263:279|318:270,1,100,2|0
415,270,2840,1,2
363,183,3113,2,0,B|315:161|303:105,1,100,0|2
214,61,3658,1,0
139,128,3931,6,0,B|155:231,1,100,0|0
77,291,4477,2,0,B|61:188,2,100,2|8|0
171,324,5295,1,2
205,230,5568,6,0,B|245:195|300:200,1,100,0|0
384,250,6113,1,2
385,149,6386,2,0,B|350:109|355:54,1,100,8|0
257,31,6931,1,2
201,114,7204,6,0,B|158:80|105:91,1,100
51,174,7749,1,2
105,258,8022,2,0,B|163:240|163:240|207:246,1,100,8|0
275,313,8568,1,2
365,270,8840,6,0,B|386:319|437:333,2,100,0|0|2
400,176,9658,2,0,B|376:118|376:118|343:95,1,100,8|0
261,41,10204,1,2
190,112,10477,6,0,B|140:103,1,50
157,150,10749,2,0,B|106:154,1,50
133,196,11022,2,0,B|85:213,1,50
123,246,11295,6,0,B|161:278,1,50,8|0
185,235,11568,2,0,B|213:276,1,50
246,239,11840,2,0,B|263:286,1,50
295,247,12113,6,0,B|341:225,1,50,0|0
311,186,12386,2,0,B|361:177,1,50
341,133,12658,2,0,B|391:137,1,50
341,133,12931,6,0,B|310:88|258:76,1,100,8|0
162,61,13477,1,2
111,147,13749,6,0,B|138:191|131:250,1,100
67,320,14295,1,2
162,348,14568,1,8
249,299,14840,1,0
347,316,15113,1,2
405,234,15386,6,0,B|372:190|308:189,1,100
227,230,15931,1,2
136,272,16204,2,0,B|115:216|115:216|120:174,1,100,8|0
136,77,16749,1,2
215,138,17022,6,0,B|260:161|314:150,1,100
387,84,17568,1,2
472,135,17840,1,8
456,233,18113,1,0
356,244,18386,1,2
272,299,18659,6,0,B|175:283,1,100
75,261,19204,1,2
143,188,19477,2,0,B|240:204,1,100,8|0
341,196,20022,1,2
398,115,20295,6,0,B|408:63|448:28,2,100,0|0|2
341,196,21113,1,8
271,123,21386,2,0,B|225:147|171:138,1,100,0|2
78,108,21931,6,0,B|106:152|99:206,1,100
37,284,22477,1,2
132,312,22749,2,0,B|196:295|196:295|233:302,1,100,8|0
326,325,23295,1,2
396,254,23568,6,0,B|407:202,1,50
332,218,23840,2,0,B|343:166,1,50
268,181,24113,2,0,B|279:129,1,50
239,65,24386,6,8,B|187:54,1,50
203,129,24659,2,8,B|151:118,1,50
166,193,24931,2,8,B|114:182,1,50
60,229,25204,6,0,B|68:284|120:310,1,100,0|2
184,324,25613,1,0
248,293,25749,2,0,B|272:301|297:301,2,50,2|0|4
116,80,29295,6,0,B|156:129|224:127,1,120.000002861023
286,95,29704,1,2
353,121,29840,2,0,B|367:184|330:236,1,120.000002861023,0|8
269,274,30249,2,0,B|267:302|274:333,2,60.0000014305115,0|2|0
215,225,30659,2,0,B|166:192|99:198,2,120.000002861023,0|0|2
335,303,31477,6,0,B|394:280|425:225,1,120.000002861023,0|8
423,154,31886,2,0,B|434:123|451:102,1,60.0000014305115,0|2
384,73,32159,2,0,B|400:43|428:32,2,60.0000014305115
313,90,32568,2,0,B|265:127|200:122,1,120.000002861023,0|0
141,79,32977,1,2
72,100,33113,1,0
36,239,33386,6,0,B|89:206|151:212,1,120.000002861023,8|0
221,226,33795,1,2
284,259,33931,2,0,B|338:307|338:307|384:320,2,120.000002861023
281,186,34613,1,2
339,143,34749,2,0,B|371:137|397:121,1,60.0000014305115
351,65,35022,6,0,B|287:78|231:54,1,120.000002861023,8|0
175,11,35431,1,2
167,82,35568,2,0,B|160:114|143:136,1,60.0000014305115,0|0
75,162,35840,2,0,B|77:221|112:274,1,120.000002861023
169,318,36249,1,2
231,282,36386,1,0
354,357,36659,6,0,B|420:370|473:334,1,120.000002861023,8|0
502,272,37068,1,2
432,253,37204,2,0,B|402:245|382:223,1,60.0000014305115
409,155,37477,2,0,B|368:108|304:96,1,120.000002861023
234,101,37886,1,2
272,161,38022,2,0,B|226:199|156:195,1,120.000002861023,0|8
35,121,38568,6,0,B|47:153|42:184|42:183,2,60.0000014305115,0|2|0
67,56,38977,1,0
139,66,39113,6,0,B|202:52,1,60.0000014305115
198,125,39386,2,0,B|261:111,1,60.0000014305115
254,184,39659,2,0,B|317:170,1,60.0000014305115
384,170,39931,6,8,B|408:229,1,60.0000014305115,8|8
337,238,40204,2,8,B|361:297,1,60.0000014305115
288,304,40477,2,8,B|312:363,1,60.0000014305115
288,304,40749,6,0,B|225:305|175:268,1,120.000002861023,2|2
138,206,41159,1,2
117,137,41295,2,0,B|141:117|152:86,2,60.0000014305115,0|2|8
427,258,42386,6,0,B|375:257|331:288,1,100
254,348,42931,1,0
155,328,43204,2,0,B|109:303|88:256,1,100,8|0
80,156,43749,1,0
140,76,44022,5,0
236,103,44295,2,0,B|263:124|300:127,1,66.6666666666667
331,128,44568,2,0,B|384:126|425:98,2,100,0|8|0
264,201,45386,1,0
419,245,45658,5,0
258,287,45931,1,0
370,322,46204,1,0
258,287,46477,2,0,B|217:320|164:319,1,100,8|0
72,282,47022,1,0
33,189,47295,5,0
100,113,47568,2,0,B|129:94|162:94,1,66.6666666666667
188,99,47840,2,0,B|200:150|252:179,1,100,0|8
319,182,48249,5,0
388,163,48386,2,0,B|414:141|424:113,1,60.0000014305115
481,160,48658,2,0,B|470:190|476:223,1,60.0000014305115
498,289,48931,6,0,B|444:290|402:319,1,100
308,285,49477,1,0
242,209,49749,2,0,B|291:180|303:129,1,100,8|0
248,47,50295,1,0
158,90,50568,5,0
248,47,50840,2,0,B|272:70|307:76,1,66.6666666666667
333,81,51113,2,0,B|339:133|383:173,1,100,0|8
466,222,51659,2,0,B|452:271|404:298,1,100
315,257,52204,5,0
228,205,52477,2,0,B|164:200|164:200|129:210,1,100
82,297,53022,1,8
158,361,53295,2,0,B|186:317|243:306,1,100
353,271,53840,5,0
375,202,53977,1,0
310,168,54113,2,0,B|280:169|248:157,1,60.0000014305115,2|0
265,87,54386,2,0,B|291:67|323:65,1,60.0000014305115,0|2
388,89,54659,6,0,B|407:149|470:178,1,120.000002861023,8|0
484,245,55068,1,0
437,299,55204,2,0,B|406:297|378:309,1,60.0000014305115
315,346,55477,6,0,B|271:316|220:310,1,100
122,315,56022,1,0
62,234,56295,2,0,B|51:172|51:172|62:133,1,100,8|0
153,98,56840,1,0
198,187,57113,5,0
287,233,57386,2,0,B|319:220|340:184,1,66.6666666666667
348,167,57659,2,0,B|372:121|427:103,1,100,0|8
495,170,58204,1,0
453,260,58477,1,0
357,289,58749,6,0,B|314:261|260:260,1,100
168,224,59295,1,0
247,162,59568,2,0,B|287:125|299:77,1,100,8|0
387,32,60113,1,0
419,126,60386,5,0
372,214,60659,1,0
312,259,60840,2,0,B|303:296,1,33.3333333333333
214,243,61204,5,8
117,269,61477,2,0,B|114:216|81:177,1,100
84,57,62022,6,0,B|141:72,1,60.0000014305115
178,136,62295,2,0,B|235:121,1,60.0000014305115
290,73,62568,2,0,B|347:88,1,60.0000014305115
407,127,62840,6,0,B|464:112,1,60.0000014305115
432,194,63113,2,0,B|375:209,1,60.0000014305115
350,277,63386,2,0,B|293:262,1,60.0000014305115
243,315,63659,6,0,B|186:330,1,60.0000014305115
139,274,63931,2,0,B|82:259,1,60.0000014305115
45,195,64204,2,0,B|103:179,1,60.0000014305115
140,117,64477,6,0,B|198:132,1,60.0000014305115
215,201,64749,2,0,B|273:216,1,60.0000014305115
328,170,65022,2,0,B|386:154,1,60.0000014305115
397,226,65295,6,0,B|455:241,1,60.0000014305115
427,308,65568,2,0,B|368:323,1,60.0000014305115
308,284,65840,2,0,B|249:268,1,60.0000014305115
177,263,66113,6,0,B|118:278,1,60.0000014305115
150,197,66386,2,0,B|208:181,1,60.0000014305115
263,135,66659,2,0,B|321:150,1,60.0000014305115
382,188,66931,6,0,B|397:217|396:247,2,60.0000014305115
384,115,67340,1,0
338,58,67477,2,0,B|277:75|217:48,1,120.000002861023,0|8
159,88,67886,5,0
87,88,68022,2,0,B|74:114|73:146,1,60.0000014305115
116,203,68295,2,0,B|128:233|128:266,1,60.0000014305115
83,318,68568,6,0,B|136:282|200:283,1,120.000002861023
263,308,68977,2,0,B|275:336|300:356,2,60.0000014305115,0|2|0
252,236,69386,6,0,B|259:176|297:122,1,120.000002861023,8|0
357,89,69795,2,0,B|387:84|417:96,2,60.0000014305115,0|2|0
294,52,70204,6,0,B|248:100|182:104,1,120.000002861023,0|0
124,69,70613,2,0,B|99:53|65:49,2,60.0000014305115,0|2|0
126,141,71022,6,0,B|104:198|120:261,1,120.000002861023,8|0
174,306,71431,2,0,B|160:336|134:353,2,60.0000014305115,0|2|0
187,234,71840,6,0,B|245:210,1,60.0000014305115
257,129,72113,2,0,B|199:153,1,60.0000014305115
142,109,72386,2,0,B|86:86,1,60.0000014305115
81,159,72659,6,0,B|136:181,1,60.0000014305115
109,248,72931,2,0,B|53:270,1,60.0000014305115
102,326,73204,2,0,B|157:303,1,60.0000014305115
218,263,73477,6,0,B|247:313,2,60.0000014305115
273,217,73886,2,0,B|314:258,2,60.0000014305115
318,160,74295,2,0,B|369:187,2,60.0000014305115
345,93,74704,2,0,B|402:107,2,60.0000014305115
272,104,75113,6,0,B|224:148|152:144,1,120.000002861023
97,111,75522,2,0,B|92:80|70:58,2,60.0000014305115,0|2|0
100,183,75931,6,0,B|64:235|67:302,1,120.000002861023,8|0
57,367,76340,2,0,B|28:381|-1:375,2,60.0000014305115,0|2|0
124,342,76749,6,0,B|183:320|247:333,1,120.000002861023
313,315,77159,2,0,B|340:335|370:340,2,60.0000014305115,0|2|0
261,263,77568,6,0,B|224:252|224:252|200:209|200:209|166:179|111:179,2,179.999991416932
401,230,78386,6,0,B|438:181|436:116,1,120.000002861023
415,48,78795,2,0,B|441:31|470:24,2,60.0000014305115,0|2|0
366,102,79204,6,0,B|308:84|244:101,1,120.000002861023,8|0
222,167,79613,2,0,B|246:186|278:188,2,60.0000014305115,0|2|0
175,111,80022,6,0,B|113:103,1,60.0000014305115,0|0
53,166,80295,2,0,B|115:174,1,60.0000014305115,0|0
160,250,80568,2,0,B|98:242,1,60.0000014305115,0|0
42,307,80840,6,0,B|104:315,1,60.0000014305115,0|0
162,353,81113,2,0,B|224:345,1,60.0000014305115,0|0
288,267,81386,2,0,B|226:275,1,60.0000014305115,0|0
210,204,81659,6,0,B|232:180|240:152,1,60.0000014305115
202,90,81931,2,0,B|169:86|137:93,2,60.0000014305115
274,93,82340,1,0
334,53,82477,6,0,B|364:69|392:71,1,60.0000014305115
426,132,82749,2,0,B|456:114|485:112,2,60.0000014305115
392,196,83159,1,0
326,226,83295,6,0,B|309:253|303:288,1,60.0000014305115
243,321,83568,2,0,B|228:348|201:365,2,60.0000014305115
218,252,83977,1,0
151,278,84113,6,0,B|87:268,1,60.0000014305115
124,204,84386,2,0,B|60:194,1,60.0000014305115,0|0
98,130,84659,2,0,B|34:120,1,60.0000014305115,0|0
98,130,84931,6,0,B|146:89|216:88,1,120.000002861023
279,96,85340,2,0,B|301:75|312:45,2,60.0000014305115,0|2|0
237,155,85749,6,0,B|249:219|305:254,1,120.000002861023,8|0
349,306,86159,2,0,B|333:333|306:350,2,60.0000014305115,0|2|0
372,237,86568,6,0,B|430:221,1,60.0000014305115,0|0
461,140,86840,2,0,B|403:156,1,60.0000014305115,0|0
312,109,87113,2,0,B|370:93,1,60.0000014305115,0|0
284,43,87386,6,0,B|221:32,1,60.0000014305115,0|0
169,94,87659,2,0,B|228:104,1,60.0000014305115,0|0
174,167,87931,2,0,B|114:156,1,60.0000014305115,0|0
256,192,88204,12,4,91477
250,150,91749,5,0
181,127,91886,2,0,B|178:94|160:69,2,60.0000014305115,0|2|0
116,158,92295,6,0,B|93:212|96:277,1,120.000002861023,8|0
143,330,92704,2,0,B|120:353|93:360,2,60.0000014305115,0|2|0
167,261,93113,6,0,B|227:275,1,60.0000014305115
289,217,93386,2,0,B|229:203,1,60.0000014305115,0|0
291,145,93659,2,0,B|351:159,1,60.0000014305115,0|0
411,73,93931,6,0,B|352:86,1,60.0000014305115,0|0
419,144,94204,2,0,B|477:130,1,60.0000014305115,0|0
443,212,94477,2,0,B|384:225,1,60.0000014305115,0|0
336,279,94749,6,0,B|286:241|222:252,1,120.000002861023
156,282,95159,2,0,B|150:316|130:340|131:340,2,60.0000014305115,0|2|0
162,209,95568,6,0,B|116:173|104:106,1,120.000002861023,8|0
125,37,95977,2,0,B|92:30|71:12,2,60.0000014305115,0|2|0
173,90,96386,6,0,B|229:109|296:98,1,120.000002861023
409,181,96931,2,0,B|364:220|301:231,1,120.000002861023,0|8
157,216,97477,1,0
272,302,97749,6,0,B|287:331|285:362,2,60.0000014305115
228,243,98159,1,0
157,216,98295,2,0,B|125:212|92:221,1,60.0000014305115,2|0
38,177,98568,2,0,B|64:157|76:132,1,60.0000014305115,2|0
133,87,98840,6,0,B|192:120|252:116,2,120.000002861023,8|0|0
64,188,99659,2,0,B|29:240,1,60.0000014305115
127,217,99931,2,0,B|107:275,1,60.0000014305115
197,233,100204,2,0,B|193:295,2,60.0000014305115,0|0|8
407,87,101295,6,0,B|338:75|338:75|289:87,1,120.000002861023
215,154,101840,1,0
120,121,102113,1,8
72,209,102386,2,0,B|81:284|156:327,1,150
205,330,102931,6,0,B|238:292|291:280,1,100
389,290,103477,1,0
439,204,103749,2,0,B|453:152|438:100,1,100,8|0
402,70,104159,1,0
354,55,104295,6,0,B|311:83|260:82,1,100
160,67,104840,1,0
214,151,105113,1,0
114,159,105386,1,8
55,240,105659,2,0,B|104:258|129:312,1,100
222,335,106204,6,0,B|272:343|320:328,1,100
406,276,106749,1,0
422,177,107022,1,8
327,209,107295,6,0,B|270:204,1,50
306,163,107568,2,0,B|252:143,1,50
299,116,107840,6,0,B|286:68|240:38,1,100
155,92,108386,1,0
59,122,108659,2,0,B|43:173|59:225,1,100,8|0
114,303,109204,1,0
210,277,109477,6,0,B|226:226|210:174,1,100,0|0
142,105,110022,1,0
239,83,110295,2,0,B|298:98|298:98|338:92,1,100
407,167,110840,1,0
407,270,111113,6,0,B|355:301|284:299,1,120.000002861023
220,286,111522,1,0
159,245,111659,2,0,B|148:216|150:181,1,60.0000014305115
159,245,111931,6,0,B|138:304|85:336,2,120.000002861023,8|0|0
105,111,112749,5,0
256,153,113022,1,0
391,105,113295,1,0
412,247,113568,2,0,B|355:263|311:311,1,120.000002861023,8|0
167,314,114113,2,0,B|145:292|117:282,1,60.0000014305115
47,265,114386,6,0,B|26:288|-3:296,2,60.0000014305115
98,213,114795,1,0
75,144,114931,2,0,B|80:82|124:36,1,120.000002861023,0|8
256,71,115477,5,0
370,154,115749,1,0
326,289,116022,1,0
185,289,116295,1,0
141,154,116568,1,0
256,71,116840,1,8
