osu file format v9

[General]
AudioFilename: igorrr_mastication_numerique.mp3
AudioLeadIn: 1500
PreviewTime: 28483
Countdown: 0
SampleSet: Soft
StackLeniency: 0.4
Mode: 0
LetterboxInBreaks: 1

[Editor]
Bookmarks: 75110
DistanceSpacing: 1
BeatDivisor: 3
GridSize: 4

[Metadata]
Title:Mastication Numerique
Artist:Igorrr
Creator:grumd
Version:Folie
Source:
Tags:loctav breakcore francais baroquecore

[Difficulty]
HPDrainRate:6
CircleSize:4
OverallDifficulty:8
ApproachRate:9
SliderMultiplier:1.2666666666
SliderTickRate:2

[Events]
//Background and Video events
0,0,"clear.jpg"
//Break Periods
2,27040,28695
//Storyboard Layer 0 (Background)
//Storyboard Layer 1 (Fail)
//Storyboard Layer 2 (Pass)
//Storyboard Layer 3 (Foreground)
//Storyboard Sound Samples
//Background Colour Transformations
3,100,163,162,255

[TimingPoints]
659,272.727272727273,3,2,0,30,1,0
3931,-100,3,1,0,40,0,0
3999,-100,3,2,0,50,0,0
4749,-100,3,1,0,40,0,0
4818,-100,3,2,0,50,0,0
5568,-100,3,1,0,40,0,0
5840,-100,3,2,0,50,0,0
6386,-100,3,1,0,40,0,0
6590,-100,3,2,0,50,0,0
7204,-100,3,1,0,40,0,0
7272,-100,3,2,0,50,0,0
8022,-100,3,1,0,40,0,0
8090,-100,3,2,0,50,0,0
8840,-100,3,1,0,40,0,0
9113,-100,3,2,0,50,0,0
9659,-100,3,1,0,40,0,0
9931,-100,3,2,0,50,0,0
10477,-100,3,1,0,40,0,0
10613,-100,3,2,0,50,0,0
11295,-100,3,1,0,40,0,0
11431,-100,3,2,0,50,0,0
12113,-100,3,1,0,40,0,0
12249,-100,3,2,0,50,0,0
12931,-100,3,1,0,40,0,0
13204,-100,3,2,0,50,0,0
13749,-100,3,1,0,40,0,0
13818,-100,3,2,0,50,0,0
14568,-100,3,1,0,40,0,0
14636,-100,3,2,0,50,0,0
15386,-100,3,1,0,40,0,0
15659,-100,3,2,0,50,0,0
16204,-100,3,1,0,40,0,0
16477,-100,3,2,0,50,0,0
17022,-100,3,1,0,40,0,0
17090,-100,3,2,0,50,0,0
17840,-100,3,1,0,40,0,0
17909,-100,3,2,0,50,0,0
18659,-100,3,1,0,40,0,0
18931,-100,3,2,0,50,0,0
19477,-100,3,1,0,40,0,0
19749,-100,3,2,0,50,0,0
20295,-100,3,1,0,40,0,0
20363,-100,3,2,0,50,0,0
21113,-100,3,1,0,40,0,0
21181,-100,3,2,0,50,0,0
21931,-100,3,1,0,40,0,0
22204,-100,3,2,0,50,0,0
22749,-100,3,1,0,40,0,0
23022,-100,3,2,0,50,0,0
23568,-100,3,1,0,40,0,0
25272,-100,3,2,0,50,0,0
25749,-100,3,1,0,40,0,0
25818,-100,3,2,0,50,0,0
26022,-166.666666666667,3,1,0,40,0,0
26090,-166.666666666667,3,1,0,5,0,0
29227,-83.3333333333333,3,1,0,40,0,0
29363,-83.3333333333333,3,2,0,50,0,0
29840,-83.3333333333333,3,1,0,40,0,0
29909,-83.3333333333333,3,2,0,50,0,0
30113,-83.3333333333333,3,1,0,40,0,0
30181,-83.3333333333333,3,2,0,50,0,0
30659,-83.3333333333333,3,1,0,40,0,0
30727,-83.3333333333333,3,2,0,50,0,0
30931,-83.3333333333333,3,1,0,40,0,0
30999,-83.3333333333333,3,2,0,50,0,0
31477,-83.3333333333333,3,1,0,40,0,0
31613,-83.3333333333333,3,2,0,50,0,0
31749,-83.3333333333333,3,1,0,40,0,0
31818,-83.3333333333333,3,2,0,50,0,0
32295,-83.3333333333333,3,1,0,40,0,0
32499,-83.3333333333333,3,2,0,50,0,0
32568,-83.3333333333333,3,1,0,40,0,0
32636,-83.3333333333333,3,2,0,50,0,0
33113,-83.3333333333333,3,1,0,40,0,0
33181,-83.3333333333333,3,2,0,50,0,0
33386,-83.3333333333333,3,1,0,40,0,0
33522,-83.3333333333333,3,2,0,50,0,0
33931,-83.3333333333333,3,1,0,40,0,0
34136,-83.3333333333333,3,2,0,50,0,0
34204,-83.3333333333333,3,1,0,40,0,0
34340,-83.3333333333333,3,2,0,50,0,0
34749,-83.3333333333333,3,1,0,40,0,0
34817,-83.3333333333333,3,2,0,50,0,0
35021,-83.3333333333333,3,1,0,40,0,0
35090,-83.3333333333333,3,2,0,50,0,0
35567,-83.3333333333333,3,1,0,40,0,0
35703,-83.3333333333333,3,2,0,50,0,0
35840,-83.3333333333333,3,1,0,40,0,0
35908,-83.3333333333333,3,2,0,50,0,0
36385,-83.3333333333333,3,1,0,40,0,0
36453,-83.3333333333333,3,2,0,50,0,0
36658,-83.3333333333333,3,1,0,40,0,0
36726,-83.3333333333333,3,2,0,50,0,0
37203,-83.3333333333333,3,1,0,40,0,0
37408,-83.3333333333333,3,2,0,50,0,0
37476,-83.3333333333333,3,1,0,40,0,0
37612,-83.3333333333333,3,2,0,50,0,0
38021,-83.3333333333333,3,1,0,40,0,0
38089,-83.3333333333333,3,2,0,50,0,0
38294,-83.3333333333333,3,1,0,40,0,0
38430,-83.3333333333333,3,2,0,50,0,0
39112,-83.3333333333333,3,1,0,40,0,0
39930,-83.3333333333333,3,1,0,35,0,0
40748,-83.3333333333333,3,2,0,50,0,0
41294,-83.3333333333333,3,1,0,35,0,0
41362,-83.3333333333333,3,2,0,50,0,0
42112,-83.3333333333333,3,1,0,30,0,0
42248,-83.3333333333333,3,1,0,35,0,0
42385,-83.3333333333333,3,1,0,40,0,0
42658,-125,3,2,0,45,0,0
43203,-125,3,1,0,30,0,0
43271,-125,3,2,0,50,0,0
44021,-125,3,1,0,40,0,0
44089,-125,3,2,0,50,0,0
44839,-125,3,1,0,30,0,0
44907,-125,3,2,0,50,0,0
45657,-125,3,1,0,40,0,0
45726,-125,3,2,0,50,0,0
46476,-125,3,1,0,30,0,0
46544,-125,3,2,0,50,0,0
47294,-125,3,1,0,40,0,0
47362,-125,3,2,0,50,0,0
47567,-125,3,1,0,40,0,0
47772,-125,3,2,0,50,0,0
47840,-125,3,1,0,40,0,0
47907,-125,3,2,0,50,0,0
48112,-83.3333333333333,3,2,0,50,0,0
48930,-125,3,1,0,40,0,0
48998,-125,3,2,0,50,0,0
49748,-125,3,1,0,30,0,0
49816,-125,3,2,0,50,0,0
50566,-125,3,1,0,40,0,0
50839,-125,3,2,0,50,0,0
51385,-125,3,1,0,30,0,0
51657,-125,3,2,0,50,0,0
52203,-125,3,1,0,40,0,0
52476,-125,3,2,0,50,0,0
53021,-125,3,1,0,30,0,0
53089,-125,3,2,0,50,0,0
53566,-125,3,1,0,40,0,0
53907,-83.3333333333333,3,2,0,50,0,0
54659,-83.3333333333333,3,1,0,35,0,0
54727,-83.3333333333333,3,2,0,50,0,0
55340,-125,3,1,0,40,0,0
55544,-125,3,2,0,50,0,0
56294,-125,3,1,0,30,0,0
56362,-125,3,2,0,50,0,0
57112,-125,3,1,0,40,0,0
57180,-125,3,2,0,50,0,0
57930,-125,3,1,0,30,0,0
57998,-125,3,2,0,50,0,0
58748,-125,3,1,0,40,0,0
58816,-125,3,2,0,50,0,0
59294,-125,3,1,0,40,0,0
59566,-125,3,1,0,30,0,0
59634,-125,3,2,0,50,0,0
60384,-125,3,1,0,40,0,0
60863,-125,3,2,0,50,0,0
60931,-125,3,1,0,40,0,0
61475,-125,3,2,0,50,0,0
62022,-83.3333333333333,3,1,0,55,0,1
66931,-83.3333333333333,3,2,0,50,0,0
67749,-83.3333333333333,3,1,0,35,0,0
68975,-83.3333333333333,3,2,0,50,0,0
69384,-83.3333333333333,3,1,0,40,0,0
69793,-83.3333333333333,3,2,0,50,0,0
70202,-83.3333333333333,3,1,0,40,0,0
70611,-83.3333333333333,3,2,0,50,0,0
71021,-83.3333333333333,3,1,0,40,0,0
71430,-83.3333333333333,3,2,0,50,0,0
71840,-83.3333333333333,3,1,0,55,0,1
75113,-83.3333333333333,3,1,0,40,0,0
75248,-83.3333333333333,3,2,0,50,0,0
75930,-83.3333333333333,3,1,0,40,0,0
75998,-83.3333333333333,3,2,0,50,0,0
76748,-83.3333333333333,3,1,0,40,0,0
76816,-83.3333333333333,3,2,0,50,0,0
77568,-55.5555555555556,3,1,0,60,0,1
78113,-83.3333333333333,3,1,0,40,0,0
78452,-83.3333333333333,3,2,0,50,0,0
79202,-83.3333333333333,3,1,0,40,0,0
79270,-83.3333333333333,3,2,0,50,0,0
80022,-83.3333333333333,3,1,0,55,0,1
81659,-83.3333333333333,3,1,0,40,0,0
81793,-83.3333333333333,3,2,0,55,0,0
82475,-83.3333333333333,3,1,0,40,0,0
82543,-83.3333333333333,3,2,0,55,0,0
83293,-83.3333333333333,3,1,0,40,0,0
83361,-83.3333333333333,3,2,0,55,0,0
84111,-83.3333333333333,3,1,0,40,0,0
84179,-83.3333333333333,3,2,0,70,0,0
84929,-83.3333333333333,3,1,0,40,0,0
85066,-83.3333333333333,3,2,0,50,0,0
85747,-83.3333333333333,3,1,0,40,0,0
85884,-83.3333333333333,3,2,0,50,0,0
86568,-83.3333333333333,3,1,0,50,0,1
91545,-83.3333333333333,3,2,0,50,0,0
92293,-83.3333333333333,3,1,0,40,0,0
92361,-83.3333333333333,3,2,0,50,0,0
93113,-83.3333333333333,3,1,0,50,0,1
94749,-83.3333333333333,3,1,0,40,0,0
94815,-83.3333333333333,3,2,0,50,0,0
95565,-83.3333333333333,3,1,0,40,0,0
95634,-83.3333333333333,3,2,0,50,0,0
96384,-83.3333333333333,3,1,0,40,0,0
96454,-83.3333333333333,3,2,0,60,0,0
97202,-83.3333333333333,3,1,0,40,0,0
97270,-83.3333333333333,3,2,0,60,0,0
98020,-83.3333333333333,3,1,0,40,0,0
98088,-83.3333333333333,3,2,0,60,0,0
98838,-83.3333333333333,3,1,0,40,0,0
98906,-83.3333333333333,3,2,0,60,0,0
99656,-83.3333333333333,3,1,0,35,0,0
100477,-83.3333333333333,3,1,0,40,0,0
100545,-83.3333333333333,3,2,0,50,0,0
101293,-125,3,1,0,45,0,0
101565,-125,3,2,0,50,0,0
102111,-125,3,1,0,40,0,0
102179,-125,3,2,0,50,0,0
102929,-125,3,1,0,40,0,0
102997,-125,3,2,0,50,0,0
103747,-125,3,1,0,40,0,0
104020,-125,3,2,0,50,0,0
104293,-125,3,1,0,40,0,0
104838,-125,3,2,0,50,0,0
105383,-125,3,1,0,40,0,0
105452,-125,3,2,0,50,0,0
106202,-125,3,1,0,40,0,0
106270,-125,3,2,0,50,0,0
107020,-125,3,1,0,40,0,0
107088,-125,3,2,0,50,0,0
107565,-125,3,1,0,40,0,0
107702,-125,3,2,0,50,0,0
107838,-125,3,1,0,40,0,0
107906,-125,3,2,0,50,0,0
108656,-125,3,1,0,40,0,0
108929,-125,3,2,0,50,0,0
109474,-125,3,1,0,40,0,0
109542,-125,3,2,0,50,0,0
110292,-125,3,1,0,40,0,0
110361,-125,3,2,0,50,0,0
110838,-125,3,1,0,40,0,0
111113,-83.3333333333333,3,1,0,40,0,1
111383,-83.3333333333333,3,2,0,50,0,1
111520,-83.3333333333333,3,1,0,40,0,1
111656,-83.3333333333333,3,2,0,50,0,1
111792,-83.3333333333333,3,1,0,40,0,1
111931,-83.3333333333333,3,1,0,40,0,0
112201,-83.3333333333333,3,2,0,50,0,0
112747,-83.3333333333333,3,1,0,40,0,0
113020,-83.3333333333333,3,2,0,50,0,0
113565,-83.3333333333333,3,1,0,40,0,0
113633,-83.3333333333333,3,2,0,50,0,0
114110,-83.3333333333333,3,1,0,40,0,0
114247,-83.3333333333333,3,2,0,50,0,0
114383,-83.3333333333333,3,1,0,40,0,0
114451,-83.3333333333333,3,2,0,50,0,0
116020,-83.3333333333333,3,1,0,40,0,0
116088,-83.3333333333333,3,2,0,55,0,0

[Colours]
Combo1 : 154,132,90
Combo2 : 138,101,83
Combo3 : 141,147,98

[HitObjects]
296,304,659,2,0,B|343:317|388:291,1,94.999999995,2|0
406,274,931,2,0,B|356:228|360:160,1,126.66666666,0|2
317,68,1477,6,0,B|280:100|227:96,1,94.999999995
204,90,1749,2,0,B|156:76|112:98,1,94.999999995,2|0
91,114,2022,2,0,B|105:184|57:234,1,126.66666666,0|2
131,303,2568,6,0,B|170:271|225:278,1,94.999999995
244,283,2840,2,0,B|207:225|222:159,1,126.66666666,2|0
293,90,3386,6,0,B|342:48|341:48,1,63.33333333,2|0
356,133,3658,2,0,B|418:113,1,63.33333333,2|0
244,284,3931,6,0,B|193:280|157:315,1,94.999999995,0|0
139,332,4204,2,0,B|80:300|72:229,1,126.66666666,2|0
110,133,4749,6,0,B|151:156|207:144,1,94.999999995,8|0
226,137,5022,2,0,B|272:116|324:127,1,94.999999995,2|0
343,134,5295,2,0,B|408:160|419:234,1,126.66666666,2|0
353,337,5840,6,0,B|312:308|263:312,1,94.999999995,2|0
238,315,6113,2,0,B|176:284|174:210,1,126.66666666,2|8
89,157,6658,6,0,B|77:92,1,63.33333333,2|0
153,117,6931,2,0,B|165:52,1,63.33333333,2|0
227,114,7204,2,0,B|268:138|325:128,1,94.999999995
343,122,7477,2,0,B|371:66|443:50,1,126.66666666,2|0
486,141,8022,6,0,B|490:192|458:230,1,94.999999995,8|0
442,249,8295,2,0,B|404:216|352:218,1,94.999999995,2|0
329,221,8568,2,0,B|316:288|253:319,1,126.66666666,2|0
153,307,9113,6,0,B|138:260|95:232,1,94.999999995,2|0
72,222,9386,2,0,B|101:161|76:98,1,126.66666666,2|8
163,46,9931,6,0,B|228:34,1,63.33333333,2|0
203,110,10204,2,0,B|268:122,1,63.33333333,2|0
288,167,10477,5,0
292,217,10613,1,0
317,260,10749,1,2
361,286,10886,1,0
412,286,11022,2,0,B|446:273|467:246,1,63.33333333,2|0
386,332,11295,5,8
339,352,11431,1,0
288,353,11568,1,2
240,336,11704,1,0
195,312,11840,2,0,B|165:301|132:307,1,63.33333333,2|0
240,280,12113,5,0
261,234,12249,1,0
263,183,12386,1,2
239,138,12522,1,0
201,103,12658,2,0,B|170:88|140:90,2,63.33333333,2|0|8
319,76,13204,6,0,B|384:91,1,63.33333333,2|0
336,153,13477,2,0,B|386:192,1,63.33333333,2|0
313,227,13749,2,0,B|272:250|256:302,1,94.999999995
249,325,14022,2,0,B|178:334|128:284,1,126.66666666,2|0
103,190,14568,6,0,B|144:166|152:112,1,94.999999995,8|0
154,88,14840,2,0,B|199:105|248:85,1,94.999999995,2|0
269,75,15113,2,0,B|275:138|337:176,1,126.66666666,2|0
438,166,15658,6,0,B|413:210|427:263,1,94.999999995,2|0
432,283,15931,2,0,B|365:279|311:321,1,126.66666666,2|8
250,238,16477,6,0,B|265:172,1,63.33333333,2|0
182,212,16749,2,0,B|172:147,1,63.33333333,2|0
111,217,17022,2,0,B|94:264|40:280,1,94.999999995
18,283,17295,2,0,B|77:301|116:361,1,126.66666666,2|0
210,325,17840,6,0,B|258:333|303:307,1,94.999999995,8|0
321,292,18113,2,0,B|360:261|362:207,1,94.999999995,2|0
361,183,18386,2,0,B|352:119|389:61,1,126.66666666,2|0
459,133,18931,6,0,B|472:181|453:228,1,94.999999995,2|0
442,249,19204,2,0,B|378:240|320:279,1,126.66666666,2|8
227,316,19749,6,0,B|170:288,1,63.33333333,2|0
240,242,20022,2,0,B|197:198,1,63.33333333,2|0
279,178,20295,2,0,B|329:180|370:146,1,94.999999995
381,127,20568,2,0,B|312:105|292:38,1,126.66666666,2|0
196,75,21113,6,0,B|145:64|102:92,1,94.999999995,8|0
85,107,21386,2,0,B|45:142|45:193,1,94.999999995,2|0
45,215,21659,2,0,B|52:288|113:322,1,126.66666666,2|0
208,300,22204,6,0,B|231:257|281:240,1,94.999999995,2|0
304,235,22477,2,0,B|353:284|424:276,1,126.66666666,2|8
431,175,23022,6,0,B|458:114,1,63.33333333,2|0
372,132,23295,2,0,B|383:67,1,63.33333333,2|0
299,124,23568,5,0
256,188,23704,1,0
183,168,23840,1,0
177,92,23977,1,0
249,64,24113,2,0,B|279:47|297:23,1,63.33333333
235,126,24386,5,8
282,186,24522,1,8
241,250,24659,1,8
167,231,24795,1,8
161,155,24931,2,8,B|155:121|137:96,1,63.33333333
235,126,25204,6,0,B|302:136|359:102,1,126.66666666,0|2
433,96,25613,1,0
402,166,25749,2,0,B|378:207|376:256,1,94.999999995
374,280,26022,6,0,B|354:236|284:228|243:290|278:359|344:349,1,228.000005423944
92,112,29295,6,0,B|125:130|166:127,1,76.0000018079812
223,76,29568,1,2
299,74,29704,2,0,B|316:35,2,38.0000009039906
343,135,29977,1,0
418,147,30113,6,0,B|440:179|441:220,1,76.0000018079812,8|2
441,241,30318,1,0
436,263,30386,1,2
388,322,30522,1,2
312,331,30659,2,0,B|281:305|273:265,1,76.0000018079812
292,191,30931,6,0,B|261:169|223:163,1,76.0000018079812,0|2
199,160,31136,1,0
175,161,31204,1,2
107,196,31340,1,2
93,270,31477,1,0
34,220,31613,1,0
49,145,31749,6,0,B|85:128|102:92,1,76.0000018079812,8|2
110,71,31954,1,0
115,49,32022,1,2
184,19,32159,1,2
254,46,32295,2,0,B|292:88|356:86,1,114.000002711972
379,81,32568,6,0,B|415:149,1,76.0000018079812,0|2
425,168,32772,1,0
435,188,32840,1,2
406,258,32977,1,2
334,283,33113,2,0,B|301:260|264:257,1,76.0000018079812
198,295,33386,5,8
125,270,33522,2,0,B|89:289,2,38.0000009039906,2|0|2
137,195,33795,1,2
198,149,33931,2,0,B|196:106|172:74|172:74|189:42,1,114.000002711972
199,24,34204,5,0
269,50,34340,1,2
291,46,34409,1,0
313,42,34477,1,2
378,82,34613,1,2
411,150,34749,2,0,B|425:185|420:224,1,76.0000018079812
366,279,35022,6,0,B|335:252|293:256,1,76.0000018079812,8|2
273,258,35227,1,0
251,266,35295,1,2
202,325,35431,1,2
132,354,35568,1,0
58,331,35704,1,0
21,264,35840,6,0,B|40:231|44:191,1,76.0000018079812,0|2
44,169,36045,1,0
41,146,36113,1,2
10,76,36249,1,2
70,28,36386,2,0,B|107:22|145:40,1,76.0000018079812,0|0
183,105,36659,6,0,B|223:102|255:76,1,76.0000018079812,8|2
269,61,36863,1,0
283,43,36931,1,2
355,67,37068,1,2
344,141,37204,2,0,B|283:143|241:184,1,114.000002711972
227,202,37477,5,0
245,276,37613,1,2
267,281,37681,1,0
289,286,37749,1,2
351,328,37886,1,2
417,290,38022,2,0,B|443:258|440:215,1,76.0000018079812
416,148,38295,5,8
437,74,38431,2,0,B|474:83,2,38.0000009039906,2|0|2
371,26,38704,1,2
312,74,38840,2,0,B|322:112,2,38.0000009039906,2|0|2
240,47,39113,6,0,B|164:36,1,76.0000018079812
94,103,39386,2,0,B|170:114,1,76.0000018079812
200,196,39659,2,0,B|124:185,1,76.0000018079812
347,327,39931,6,0,B|423:316,1,76.0000018079812,8|8
454,235,40204,2,0,B|378:246,1,76.0000018079812,8|8
318,179,40477,2,0,B|394:168,1,76.0000018079812,8|8
190,323,40749,6,0,B|116:308,1,76.0000018079812,2|2
155,243,41022,2,0,B|81:228,1,76.0000018079812,2|2
49,149,41295,2,0,B|123:164,1,76.0000018079812,0|2
256,108,41568,5,8
215,256,41840,2,0,B|197:290,3,38.0000009039906
256,286,42113,2,0,B|256:329,3,38.0000009039906
297,256,42386,1,0
420,198,42659,5,0
353,114,42931,1,0
256,163,43204,1,8
159,114,43477,1,0
92,198,43749,1,0
123,302,44022,5,0
217,338,44295,2,0,B|240:312|274:304,1,67.555555552
307,298,44568,2,0,B|360:289|408:312,2,101.333333328,0|8|0
261,207,45386,1,0
354,163,45658,6,0,B|406:140|406:140|436:108,2,101.333333328
258,127,46477,2,0,B|204:131|164:93,1,101.333333328,8|0
104,13,47022,1,0
61,105,47295,6,0,B|72:166|72:166|61:207,1,101.333333328
37,273,47749,1,0
56,292,47840,2,0,B|90:325|148:329,1,101.333333328,0|8
216,296,48249,5,0
293,307,48386,2,0,B|300:344,2,38.0000009039906,2|0|2
346,252,48658,1,2
366,241,48727,1,0
386,230,48795,1,2
460,232,48931,6,0,B|478:184|466:128,1,101.333333328
368,107,49477,1,0
287,168,49749,2,0,B|225:175|225:175|184:200,2,101.333333328,8|0|0
273,67,50568,5,0
175,94,50840,2,0,B|106:87,1,67.555555552
79,107,51113,2,0,B|99:156|85:211,1,101.333333328,0|8
131,296,51658,1,0
227,331,51931,1,0
131,296,52204,5,0
227,331,52477,2,0,B|270:301|324:296,1,101.333333328
417,265,53022,2,0,B|396:216|401:165,1,101.333333328,8|0
444,73,53568,1,0
400,166,53840,5,0
336,206,53977,1,2
262,187,54113,1,0
238,114,54249,1,2
215,108,54318,1,0
192,102,54386,2,0,B|115:118,1,76.0000018079812,2|0
59,166,54658,6,0,B|50:205,2,38.0000009039906,8|0|2
130,190,54931,2,0,B|160:215|201:220,1,76.0000018079812
259,266,55204,1,2
279,256,55272,1,0
299,247,55340,1,0
372,265,55477,6,0,B|412:300|463:306,2,101.333333328
280,307,56295,2,0,B|222:295|222:295|176:301,1,101.333333328,8|0
80,318,56840,1,0
100,218,57113,6,0,B|153:217|196:185,1,101.333333328
242,130,57568,1,0
253,102,57658,2,0,B|276:55|324:29,2,101.333333328,0|8|0
296,193,58477,1,0
385,240,58749,6,0,B|446:253|446:253|488:249,2,101.333333328
305,304,59568,2,0,B|253:294|206:319,1,101.333333328,8|0
116,271,60113,1,0
65,183,60386,6,0,B|104:148|108:90,1,101.333333328
168,50,60840,1,0
194,59,60931,2,0,B|256:73|256:73|296:67,1,101.333333328,0|8
359,144,61477,2,0,B|392:185|386:239,1,101.333333328
256,318,62022,6,0,B|180:337,1,76.0000018079812
48,270,62295,2,0,B|121:251,1,76.0000018079812
256,318,62568,2,0,B|332:337,1,76.0000018079812
464,270,62840,2,0,B|390:251,1,76.0000018079812,0|0
334,61,63113,6,0,B|407:79,1,76.0000018079812
150,150,63386,2,0,B|76:168,1,76.0000018079812
362,150,63658,2,0,B|435:168,1,76.0000018079812
178,61,63931,2,0,B|104:79,1,76.0000018079812
175,327,64204,6,0,B|195:251,1,76.0000018079812
337,57,64477,2,0,B|317:133,1,76.0000018079812,0|0
295,312,64749,2,0,B|315:236,1,76.0000018079812
217,72,65022,2,0,B|197:148,1,76.0000018079812
391,272,65295,6,0,B|411:196,1,76.0000018079812
121,112,65568,2,0,B|101:188,1,76.0000018079812
297,67,65840,2,0,B|374:85,1,76.0000018079812
215,317,66113,2,0,B|138:299,1,76.0000018079812,0|0
364,206,66386,6,0,B|441:224,1,76.0000018079812
148,178,66658,2,0,B|71:160,1,76.0000018079812
46,89,66931,5,2
95,31,67068,1,0
162,63,67204,2,0,B|198:80|240:71,1,76.0000018079812,2|0
310,51,67477,1,2
332,56,67545,1,0
352,64,67613,1,2
370,76,67681,1,0
386,91,67749,6,0,B|412:122|416:163,1,76.0000018079812,8|0
411,238,68022,2,0,B|373:252|352:289,1,76.0000018079812
314,351,68295,1,0
251,308,68431,1,0
177,328,68568,6,0,B|92:328|44:264,1,152.000003615962,0|0
44,189,68977,1,2
51,167,69045,1,0
58,145,69113,1,2
65,123,69181,1,0
72,101,69249,1,2
136,59,69386,6,0,B|236:46|236:46|287:57,1,152.000003615962,8|0
333,116,69795,1,2
319,134,69863,1,0
310,155,69931,1,2
306,177,69999,1,0
307,199,70068,1,2
348,263,70204,6,0,B|306:332|222:338,1,152.000003615962
150,314,70613,1,2
138,294,70681,1,0
130,272,70749,1,2
125,249,70818,1,0
125,225,70886,1,2
161,158,71022,6,0,B|238:168|300:111,1,152.000003615962,8|0
360,64,71431,1,2
373,82,71499,1,0
389,97,71568,1,2
408,109,71636,1,0
429,117,71704,1,2
465,183,71840,6,0,B|387:206,1,76.0000018079812
269,337,72113,2,0,B|246:259,1,76.0000018079812
47,201,72386,2,0,B|125:178,1,76.0000018079812
243,47,72658,2,0,B|266:125,1,76.0000018079812,0|0
409,282,72931,6,0,B|337:260,1,76.0000018079812
103,102,73204,2,0,B|175:124,1,76.0000018079812
412,156,73477,6,0,B|335:169,1,76.0000018079812
100,228,73749,2,0,B|177:215,1,76.0000018079812
400,81,74022,6,0,B|326:109,1,76.0000018079812
112,303,74295,2,0,B|186:275,1,76.0000018079812,0|0
364,14,74568,6,0,B|295:56,1,76.0000018079812
148,370,74840,2,0,B|217:328,1,76.0000018079812
288,323,75113,5,0
363,332,75249,1,0
418,280,75386,2,0,B|472:249|481:183,1,114.000002711972,2|2
479,166,75659,1,2
474,143,75727,1,0
463,122,75795,1,2
393,152,75931,6,0,B|360:177|323:178,1,76.0000018079812,8|0
297,105,76204,2,0,B|266:60|196:50,1,114.000002711972,2|2
177,51,76477,1,2
155,57,76545,1,0
135,69,76613,1,2
77,118,76749,6,0,B|35:109|10:80,1,76.0000018079812
77,118,77022,2,0,B|62:179|103:231,1,114.000002711972,2|2
114,244,77295,1,2
130,260,77363,1,0
150,272,77431,1,2
148,344,77568,6,0,B|200:336|200:336|232:356|256:360|256:360|280:356|312:336|312:336|364:344,2,227.999989116113
25,233,78386,6,0,B|42:198|39:160,1,76.0000018079812
23,84,78659,1,2
90,49,78795,1,2
111,55,78863,1,0
132,61,78931,1,2
188,112,79068,1,2
260,86,79204,6,0,B|290:64|333:65,2,76.0000018079812,8|0|2
248,160,79613,2,0,B|299:175,2,38.0000009039906,2|0|2
185,204,79886,1,2
210,273,80022,6,0,B|289:293,1,76.0000018079812
302,111,80295,2,0,B|223:91,1,76.0000018079812
355,220,80568,6,0,B|434:240,1,76.0000018079812
157,164,80840,2,0,B|78:144,1,76.0000018079812,0|0
378,112,81113,6,0,B|452:93,1,76.0000018079812
134,272,81386,2,0,B|60:291,1,76.0000018079812
204,302,81659,5,0
278,313,81795,1,0
346,278,81931,1,2
393,219,82068,2,0,B|430:228,2,38.0000009039906,2|0|2
339,165,82340,1,0
317,92,82477,6,0,B|332:54|366:34,1,76.0000018079812,8|0
317,92,82749,1,2
244,113,82886,1,2
221,109,82954,1,0
198,105,83022,1,2
138,58,83159,1,0
74,100,83295,6,0,B|91:137|80:174,1,76.0000018079812
117,240,83568,1,2
189,263,83704,2,0,B|200:301,2,38.0000009039906,2|0|2
233,200,83977,1,2
308,203,84113,6,0,B|385:183,1,76.0000018079812,8|0
372,259,84386,2,0,B|449:239,1,76.0000018079812
435,315,84659,2,0,B|512:295,1,76.0000018079812
435,315,84931,5,0
361,334,85068,1,0
303,284,85204,1,2
318,209,85340,1,2
335,194,85409,1,0
356,187,85477,1,2
427,212,85613,1,2
501,195,85749,5,8
450,138,85886,1,0
437,65,86022,2,0,B|396:68|365:46,1,76.0000018079812,2|2
345,32,86227,1,0
328,15,86295,1,2
253,51,86431,1,2
193,99,86568,6,0,B|119:77,1,76.0000018079812
393,158,86840,2,0,B|465:136,1,76.0000018079812
119,158,87113,2,0,B|46:136,1,76.0000018079812
319,99,87386,2,0,B|393:77,1,76.0000018079812
106,285,87659,6,0,B|181:262,1,76.0000018079812
406,285,87931,2,0,B|331:262,1,76.0000018079812
256,192,88204,12,8,89022
256,192,89090,12,0,89840
256,192,89909,12,8,90659
256,192,90727,12,4,91477
325,211,91749,6,0,B|364:202|390:171,1,76.0000018079812,2|2
402,154,91954,1,0
412,133,92022,1,2
424,58,92159,1,2
353,31,92295,5,8
283,61,92431,1,0
207,51,92568,2,0,B|199:88|170:116,1,76.0000018079812,2|2
152,131,92772,1,0
133,144,92840,1,2
59,162,92977,1,2
81,234,93113,6,0,B|102:307,1,76.0000018079812
431,150,93386,2,0,B|410:77,1,76.0000018079812
168,245,93659,6,0,B|207:313,1,76.0000018079812
344,139,93931,2,0,B|305:71,1,76.0000018079812
256,242,94204,6,0,B|325:279,1,76.0000018079812
256,142,94477,2,0,B|187:105,1,76.0000018079812
117,131,94749,5,0
80,64,94886,1,0
117,131,95022,2,0,B|139:164|138:202,1,76.0000018079812,2|2
136,225,95227,1,0
130,246,95295,1,2
76,300,95431,1,2
149,320,95568,6,0,B|188:324|228:311,1,76.0000018079812,8|0
264,247,95840,2,0,B|299:231|342:229,1,76.0000018079812,2|2
360,230,96045,1,0
382,234,96113,1,2
434,289,96249,1,2
370,330,96386,6,0,B|334:346|295:345,1,76.0000018079812,0|0
108,260,96659,2,0,B|144:276|183:275,1,76.0000018079812,2|0
400,184,96931,2,0,B|364:200|325:199,1,76.0000018079812,2|0
128,112,97204,6,0,B|164:128|203:127,1,76.0000018079812,8|0
276,119,97477,2,0,B|313:54|403:41,1,152.000003615962
460,86,97886,1,0
498,151,98022,2,0,B|474:186|474:186|454:260,1,114.000002711972,0|0
450,277,98295,2,0,B|336:289,1,114.000002711972,2|0
313,292,98568,2,0,B|249:298|204:265,1,114.000002711972,2|0
189,249,98840,6,0,B|236:187|230:106,2,152.000003615962,8|0|0
124,290,99522,1,0
50,268,99659,6,0,B|11:202,1,76.0000018079812
86,191,99931,2,0,B|47:125,1,76.0000018079812
123,117,100204,2,0,B|84:51,2,76.0000018079812,0|0|8
196,97,100613,5,0
268,119,100749,2,0,B|308:117|340:92,1,76.0000018079812
411,114,101022,2,0,B|407:153|427:188,1,76.0000018079812
378,244,101295,6,0,B|335:271|283:276,1,101.333333328,0|8
231,276,101704,1,0
189,247,101840,2,0,B|171:222|170:194,1,50.666666664,0|0
182,297,102113,6,0,B|139:321|114:372,2,101.333333328,8|8|0
231,276,102795,1,0
281,271,102931,2,0,B|345:280|345:280|381:270,1,101.333333328
412,173,103477,2,0,B|464:155,2,50.666666664
346,95,104022,2,0,B|381:83,2,33.777777776
314,81,104295,6,0,B|261:89|215:69,1,101.333333328
117,97,104840,2,0,B|87:100|63:96,1,50.666666664,8|0
139,149,105113,2,0,B|152:173|176:184,1,50.666666664,8|0
94,184,105386,6,0,B|88:236|53:276,2,101.333333328,8|8|0
194,167,106204,2,0,B|240:186|292:184,1,101.333333328
338,172,106613,2,0,B|357:152|362:127,1,50.666666664,0|8
380,216,106886,1,0
380,269,107022,6,0,B|326:272|285:300,1,101.333333328,8|2
245,331,107431,1,0
195,341,107568,1,0
145,329,107704,1,0
105,297,107840,6,0,B|70:255|69:192,1,101.333333328
100,102,108386,1,0
199,120,108659,1,8
290,76,108931,1,0
382,118,109204,1,0
439,201,109477,6,0,B|429:262|429:262|437:303,2,101.333333328,0|0|0
337,209,110295,2,0,B|328:264|280:297,1,101.333333328,8|0
184,311,110840,1,0
76,289,111113,6,0,B|21:232|32:147,1,152.000003615962,0|8
71,84,111522,1,0
142,58,111659,2,0,B|215:78,1,76.0000018079812,8|0
280,38,111931,6,0,B|333:92|418:102,1,152.000003615962,8|0
490,88,112340,1,0
465,159,112477,1,0
456,234,112613,1,0
459,309,112749,6,0,B|439:236|383:174,1,152.000003615962
256,96,113295,1,0
126,177,113568,6,0,B|73:236|53:309,2,152.000003615962,8|0|0
189,134,114249,1,0
264,121,114386,2,0,B|304:111|332:85,2,76.0000018079812,0|0|8
238,192,114795,2,0,B|252:228|246:268,1,76.0000018079812,0|8
99,307,115204,6,0,B|142:240|148:163,1,152.000003615962
113,96,115613,1,0
188,99,115749,2,0,B|216:126|255:135,1,76.0000018079812
328,120,116022,2,0,B|371:53|459:47,1,152.000003615962
184,264,116568,2,0,B|141:331|53:337,1,152.000003615962,0|8
