osu file format v14

[General]
AudioFilename: igorrr_mastication_numerique.mp3
AudioLeadIn: 0
PreviewTime: 28477
Countdown: 0
SampleSet: None
StackLeniency: 0.7
Mode: 3
LetterboxInBreaks: 0
SpecialStyle: 0
WidescreenStoryboard: 0

[Editor]
DistanceSpacing: 0.8
BeatDivisor: 4
GridSize: 32
TimelineZoom: 2.1

[Metadata]
Title:Mastication Numerique
TitleUnicode:Mastication Numerique
Artist:Igorrr
ArtistUnicode:Igorrr
Creator:YunoFanatic
Version:Mastication
Source:
Tags:breakcore francais baroquecore kuo kyoka ExUsagi
BeatmapID:494822
BeatmapSetID:210319

[Difficulty]
HPDrainRate:8
CircleSize:4
OverallDifficulty:8
ApproachRate:5
SliderMultiplier:1.4
SliderTickRate:1

[Events]
//Background and Video events
0,0,"clear.jpg",0,0
//Break Periods
//Storyboard Layer 0 (Background)
//Storyboard Layer 1 (Fail)
//Storyboard Layer 2 (Pass)
//Storyboard Layer 3 (Foreground)
//Storyboard Sound Samples

[TimingPoints]
659,272.727272727273,3,2,0,50,1,0
3931,-100,3,3,1,50,0,0
62022,-100,3,3,1,50,0,1
66931,-100,3,3,1,50,0,0
71840,-100,3,3,1,50,0,1
75113,-100,3,3,1,50,0,0
80022,-100,3,3,1,50,0,1
81659,-100,3,3,1,50,0,0
93113,-100,3,3,1,50,0,1
94749,-100,3,3,1,50,0,0

[HitObjects]
448,192,79,5,0,0:0:0:0:
64,192,113,5,0,0:0:0:0:
192,192,181,1,0,0:0:0:0:
320,192,249,1,0,0:0:0:0:
448,192,318,1,0,0:0:0:0:
64,192,420,1,0,0:0:0:0:
192,192,488,1,0,0:0:0:0:
320,192,556,1,0,0:0:0:0:
448,192,624,1,0,0:0:0:0:
192,192,659,1,0,0:0:0:0:
64,192,659,1,0,0:0:0:0:
320,192,931,1,0,0:0:0:0:
448,192,931,1,0,0:0:0:0:
64,192,1204,1,0,0:0:0:0:
192,192,1204,1,0,0:0:0:0:
320,192,1477,1,0,0:0:0:0:
448,192,1477,1,0,0:0:0:0:
192,192,1749,1,0,0:0:0:0:
320,192,1749,1,0,0:0:0:0:
448,192,2022,1,0,0:0:0:0:
320,192,2022,1,0,0:0:0:0:
64,192,2295,1,0,0:0:0:0:
192,192,2295,1,0,0:0:0:0:
192,192,2568,1,0,0:0:0:0:
320,192,2568,1,0,0:0:0:0:
64,192,2840,1,0,0:0:0:0:
192,192,2840,1,0,0:0:0:0:
448,192,3113,128,0,3931:0:0:0:0:
320,192,3113,1,0,0:0:0:0:
64,192,3113,1,0,0:0:0:0:
192,192,3318,1,0,0:0:0:0:
320,192,3386,1,0,0:0:0:0:
192,192,3454,1,0,0:0:0:0:
64,192,3522,1,0,0:0:0:0:
192,192,3590,1,0,0:0:0:0:
320,192,3659,1,0,0:0:0:0:
192,192,3727,1,0,0:0:0:0:
64,192,3795,1,0,0:0:0:0:
192,192,3863,1,0,0:0:0:0:
320,192,3931,1,2,0:0:0:0:
64,192,3931,1,2,0:0:0:0:
192,192,4204,1,0,0:0:0:0:
448,192,4204,1,0,0:0:0:0:
64,192,4340,1,0,0:0:0:0:
320,192,4409,1,0,0:0:0:0:
192,192,4477,1,0,0:0:0:0:
448,192,4477,1,0,0:0:0:0:
64,192,4545,1,0,0:0:0:0:
320,192,4613,1,0,0:0:0:0:
192,192,4749,1,8,0:0:0:0:
64,192,4749,1,0,0:0:0:0:
448,192,4749,1,0,0:0:0:0:
192,192,5022,1,0,0:0:0:0:
320,192,5022,1,0,0:0:0:0:
64,192,5159,1,0,0:0:0:0:
192,192,5227,1,0,0:0:0:0:
320,192,5295,1,0,0:0:0:0:
448,192,5295,1,0,0:0:0:0:
64,192,5363,1,0,0:0:0:0:
192,192,5431,1,0,0:0:0:0:
64,192,5568,1,0,0:0:0:0:
448,192,5568,1,0,0:0:0:0:
320,192,5568,1,0,0:0:0:0:
320,192,5840,1,0,0:0:0:0:
64,192,5840,1,0,0:0:0:0:
192,192,5977,1,0,0:0:0:0:
320,192,6045,1,0,0:0:0:0:
448,192,6113,1,0,0:0:0:0:
64,192,6113,1,0,0:0:0:0:
192,192,6181,1,0,0:0:0:0:
320,192,6249,1,0,0:0:0:0:
448,192,6386,1,8,0:0:0:0:
64,192,6386,128,0,7204:0:0:0:0:
192,192,6386,1,0,0:0:0:0:
192,192,6590,1,0,0:0:0:0:
448,192,6659,1,0,0:0:0:0:
320,192,6727,1,0,0:0:0:0:
192,192,6795,1,0,0:0:0:0:
320,192,6863,1,0,0:0:0:0:
448,192,6931,1,0,0:0:0:0:
192,192,6999,1,0,0:0:0:0:
320,192,7068,1,0,0:0:0:0:
448,192,7136,1,0,0:0:0:0:
320,192,7204,1,2,0:0:0:0:
192,192,7204,1,2,0:0:0:0:
448,192,7477,1,0,0:0:0:0:
320,192,7477,1,0,0:0:0:0:
64,192,7613,1,0,0:0:0:0:
192,192,7681,1,0,0:0:0:0:
320,192,7749,1,0,0:0:0:0:
64,192,7749,1,0,0:0:0:0:
448,192,7818,1,0,0:0:0:0:
320,192,7886,1,0,0:0:0:0:
192,192,7954,1,0,0:0:0:0:
64,192,8022,1,0,0:0:0:0:
320,192,8022,1,0,0:0:0:0:
448,192,8022,1,8,0:0:0:0:
448,192,8295,1,0,0:0:0:0:
64,192,8295,1,0,0:0:0:0:
192,192,8431,1,0,0:0:0:0:
320,192,8499,1,0,0:0:0:0:
64,192,8568,1,0,0:0:0:0:
448,192,8568,1,0,0:0:0:0:
320,192,8636,1,0,0:0:0:0:
192,192,8704,1,0,0:0:0:0:
320,192,8772,1,0,0:0:0:0:
448,192,8840,1,0,0:0:0:0:
64,192,8840,1,0,0:0:0:0:
192,192,8840,1,0,0:0:0:0:
192,192,9113,1,0,0:0:0:0:
320,192,9113,1,0,0:0:0:0:
448,192,9249,1,0,0:0:0:0:
320,192,9318,1,0,0:0:0:0:
448,192,9386,1,0,0:0:0:0:
192,192,9386,1,0,0:0:0:0:
64,192,9454,1,0,0:0:0:0:
192,192,9522,1,0,0:0:0:0:
64,192,9590,1,0,0:0:0:0:
448,192,9659,1,8,0:0:0:0:
320,192,9659,128,0,10477:0:0:0:0:
192,192,9659,1,0,0:0:0:0:
448,192,9863,1,0,0:0:0:0:
192,192,9931,1,0,0:0:0:0:
448,192,9999,1,0,0:0:0:0:
192,192,10068,1,0,0:0:0:0:
64,192,10136,1,0,0:0:0:0:
192,192,10204,1,0,0:0:0:0:
448,192,10272,1,0,0:0:0:0:
192,192,10340,1,0,0:0:0:0:
64,192,10409,1,0,0:0:0:0:
192,192,10477,1,2,0:0:0:0:
448,192,10477,1,2,0:0:0:0:
192,192,10613,1,0,0:0:0:0:
448,192,10613,1,0,0:0:0:0:
192,192,10749,1,0,0:0:0:0:
448,192,10749,1,0,0:0:0:0:
192,192,10886,1,0,0:0:0:0:
448,192,10886,1,0,0:0:0:0:
64,192,10954,1,0,0:0:0:0:
320,192,11022,1,0,0:0:0:0:
192,192,11022,1,0,0:0:0:0:
448,192,11090,1,0,0:0:0:0:
64,192,11159,1,0,0:0:0:0:
320,192,11159,1,0,0:0:0:0:
64,192,11295,1,0,0:0:0:0:
320,192,11295,1,0,0:0:0:0:
448,192,11295,1,0,0:0:0:0:
320,192,11431,1,0,0:0:0:0:
64,192,11431,1,0,0:0:0:0:
320,192,11568,1,0,0:0:0:0:
64,192,11568,1,0,0:0:0:0:
320,192,11704,1,0,0:0:0:0:
64,192,11704,1,0,0:0:0:0:
64,192,11840,1,0,0:0:0:0:
320,192,11840,1,0,0:0:0:0:
192,192,11909,1,0,0:0:0:0:
448,192,11977,1,0,0:0:0:0:
320,192,11977,1,0,0:0:0:0:
64,192,12045,1,0,0:0:0:0:
320,192,12113,1,0,0:0:0:0:
192,192,12113,1,0,0:0:0:0:
192,192,12249,1,0,0:0:0:0:
320,192,12249,1,0,0:0:0:0:
192,192,12386,1,0,0:0:0:0:
320,192,12386,1,0,0:0:0:0:
192,192,12522,1,0,0:0:0:0:
320,192,12522,1,0,0:0:0:0:
448,192,12590,1,0,0:0:0:0:
64,192,12659,1,0,0:0:0:0:
192,192,12659,1,0,0:0:0:0:
320,192,12795,1,0,0:0:0:0:
64,192,12795,1,0,0:0:0:0:
448,192,12863,1,0,0:0:0:0:
64,192,12931,1,0,0:0:0:0:
320,192,12931,1,0,0:0:0:0:
192,192,12931,1,8,0:0:0:0:
192,192,13204,1,0,0:0:0:0:
448,192,13204,128,0,13749:0:0:0:0:
64,192,13272,1,0,0:0:0:0:
192,192,13340,1,0,0:0:0:0:
320,192,13409,1,0,0:0:0:0:
192,192,13477,1,0,0:0:0:0:
64,192,13545,1,0,0:0:0:0:
192,192,13613,1,0,0:0:0:0:
320,192,13681,1,0,0:0:0:0:
192,192,13749,1,2,0:0:0:0:
64,192,13749,1,2,0:0:0:0:
320,192,14022,1,0,0:0:0:0:
448,192,14022,1,0,0:0:0:0:
192,192,14159,1,0,0:0:0:0:
320,192,14227,1,0,0:0:0:0:
192,192,14295,1,0,0:0:0:0:
64,192,14295,1,0,0:0:0:0:
320,192,14363,1,0,0:0:0:0:
192,192,14431,1,0,0:0:0:0:
64,192,14499,1,0,0:0:0:0:
320,192,14568,1,8,0:0:0:0:
448,192,14568,1,0,0:0:0:0:
192,192,14568,1,0,0:0:0:0:
448,192,14840,1,0,0:0:0:0:
192,192,14840,1,0,0:0:0:0:
320,192,14977,1,0,0:0:0:0:
192,192,15045,1,0,0:0:0:0:
64,192,15113,1,0,0:0:0:0:
448,192,15113,1,0,0:0:0:0:
192,192,15181,1,0,0:0:0:0:
320,192,15249,1,0,0:0:0:0:
448,192,15318,1,0,0:0:0:0:
320,192,15386,1,0,0:0:0:0:
64,192,15386,1,0,0:0:0:0:
448,192,15659,1,0,0:0:0:0:
192,192,15659,1,0,0:0:0:0:
320,192,15795,1,0,0:0:0:0:
192,192,15863,1,0,0:0:0:0:
448,192,15931,1,0,0:0:0:0:
64,192,15931,1,0,0:0:0:0:
320,192,15999,1,0,0:0:0:0:
192,192,16068,1,0,0:0:0:0:
64,192,16136,1,0,0:0:0:0:
192,192,16204,1,0,0:0:0:0:
448,192,16204,128,0,17022:0:0:0:0:
320,192,16204,1,8,0:0:0:0:
320,192,16409,1,0,0:0:0:0:
192,192,16477,1,0,0:0:0:0:
64,192,16545,1,0,0:0:0:0:
192,192,16613,1,0,0:0:0:0:
320,192,16681,1,0,0:0:0:0:
192,192,16749,1,0,0:0:0:0:
64,192,16818,1,0,0:0:0:0:
192,192,16886,1,0,0:0:0:0:
320,192,16954,1,0,0:0:0:0:
192,192,17022,1,2,0:0:0:0:
64,192,17022,1,2,0:0:0:0:
320,192,17295,1,0,0:0:0:0:
448,192,17295,1,0,0:0:0:0:
64,192,17431,1,0,0:0:0:0:
192,192,17499,1,0,0:0:0:0:
320,192,17568,1,0,0:0:0:0:
64,192,17568,1,0,0:0:0:0:
448,192,17636,1,0,0:0:0:0:
320,192,17704,1,0,0:0:0:0:
192,192,17772,1,0,0:0:0:0:
64,192,17840,1,0,0:0:0:0:
448,192,17840,1,0,0:0:0:0:
320,192,17840,1,8,0:0:0:0:
192,192,18113,1,0,0:0:0:0:
448,192,18113,1,0,0:0:0:0:
320,192,18249,1,0,0:0:0:0:
192,192,18318,1,0,0:0:0:0:
64,192,18386,1,0,0:0:0:0:
448,192,18386,1,0,0:0:0:0:
192,192,18454,1,0,0:0:0:0:
320,192,18522,1,0,0:0:0:0:
448,192,18590,1,0,0:0:0:0:
320,192,18659,1,0,0:0:0:0:
64,192,18659,1,0,0:0:0:0:
192,192,18931,1,0,0:0:0:0:
448,192,18931,1,0,0:0:0:0:
320,192,19068,1,0,0:0:0:0:
192,192,19136,1,0,0:0:0:0:
64,192,19204,1,0,0:0:0:0:
448,192,19204,1,0,0:0:0:0:
320,192,19272,1,0,0:0:0:0:
192,192,19340,1,0,0:0:0:0:
64,192,19409,1,0,0:0:0:0:
448,192,19477,1,8,0:0:0:0:
320,192,19477,128,0,20295:0:0:0:0:
192,192,19477,1,0,0:0:0:0:
192,192,19681,1,0,0:0:0:0:
64,192,19749,1,0,0:0:0:0:
192,192,19818,1,0,0:0:0:0:
448,192,19886,1,0,0:0:0:0:
192,192,19954,1,0,0:0:0:0:
64,192,20022,1,0,0:0:0:0:
192,192,20090,1,0,0:0:0:0:
448,192,20159,1,0,0:0:0:0:
192,192,20227,1,0,0:0:0:0:
64,192,20295,1,2,0:0:0:0:
448,192,20295,1,2,0:0:0:0:
192,192,20568,1,0,0:0:0:0:
448,192,20568,1,0,0:0:0:0:
320,192,20704,1,0,0:0:0:0:
192,192,20772,1,0,0:0:0:0:
448,192,20840,1,0,0:0:0:0:
64,192,20840,1,0,0:0:0:0:
320,192,20909,1,0,0:0:0:0:
192,192,20977,1,0,0:0:0:0:
64,192,21045,1,0,0:0:0:0:
320,192,21113,1,8,0:0:0:0:
448,192,21113,1,0,0:0:0:0:
192,192,21113,1,0,0:0:0:0:
192,192,21386,1,0,0:0:0:0:
320,192,21386,1,0,0:0:0:0:
64,192,21522,1,0,0:0:0:0:
192,192,21590,1,0,0:0:0:0:
320,192,21659,1,0,0:0:0:0:
448,192,21659,1,0,0:0:0:0:
64,192,21727,1,0,0:0:0:0:
192,192,21795,1,0,0:0:0:0:
320,192,21863,1,0,0:0:0:0:
448,192,21931,1,0,0:0:0:0:
64,192,21931,1,0,0:0:0:0:
320,192,22204,1,0,0:0:0:0:
192,192,22204,1,0,0:0:0:0:
448,192,22340,1,0,0:0:0:0:
320,192,22409,1,0,0:0:0:0:
192,192,22477,1,0,0:0:0:0:
448,192,22477,1,0,0:0:0:0:
64,192,22545,1,0,0:0:0:0:
192,192,22613,1,0,0:0:0:0:
320,192,22681,1,0,0:0:0:0:
64,192,22749,1,0,0:0:0:0:
192,192,22749,128,0,23568:0:0:0:0:
448,192,22749,1,8,0:0:0:0:
320,192,22954,1,0,0:0:0:0:
448,192,23022,1,0,0:0:0:0:
64,192,23090,1,0,0:0:0:0:
320,192,23159,1,0,0:0:0:0:
448,192,23227,1,0,0:0:0:0:
320,192,23295,1,0,0:0:0:0:
64,192,23363,1,0,0:0:0:0:
320,192,23431,1,0,0:0:0:0:
448,192,23499,1,0,0:0:0:0:
320,192,23568,1,2,0:0:0:0:
64,192,23568,1,2,0:0:0:0:
64,192,23704,1,0,0:0:0:0:
320,192,23704,1,0,0:0:0:0:
320,192,23840,1,0,0:0:0:0:
64,192,23840,1,0,0:0:0:0:
320,192,23977,1,0,0:0:0:0:
64,192,23977,1,0,0:0:0:0:
192,192,24113,1,0,0:0:0:0:
448,192,24113,1,0,0:0:0:0:
64,192,24249,1,0,0:0:0:0:
320,192,24249,1,0,0:0:0:0:
192,192,24386,1,0,0:0:0:0:
448,192,24386,1,0,0:0:0:0:
192,192,24522,1,0,0:0:0:0:
448,192,24522,1,0,0:0:0:0:
192,192,24659,1,0,0:0:0:0:
448,192,24659,1,0,0:0:0:0:
192,192,24795,1,0,0:0:0:0:
448,192,24795,1,0,0:0:0:0:
320,192,24931,1,0,0:0:0:0:
64,192,24931,1,0,0:0:0:0:
192,192,25068,1,0,0:0:0:0:
448,192,25068,1,0,0:0:0:0:
64,192,25204,1,0,0:0:0:0:
320,192,25204,1,0,0:0:0:0:
192,192,25272,1,0,0:0:0:0:
448,192,25340,1,0,0:0:0:0:
320,192,25409,1,0,0:0:0:0:
64,192,25477,1,0,0:0:0:0:
448,192,25477,1,0,0:0:0:0:
192,192,25545,1,0,0:0:0:0:
448,192,25613,1,0,0:0:0:0:
320,192,25681,1,0,0:0:0:0:
192,192,25749,1,0,0:0:0:0:
448,192,25749,1,0,0:0:0:0:
64,192,25818,1,0,0:0:0:0:
320,192,25886,1,0,0:0:0:0:
192,192,25954,1,0,0:0:0:0:
64,192,26022,1,8,0:0:0:0:
448,192,26022,128,0,28749:0:0:0:0:
320,192,26022,1,0,0:0:0:0:
64,192,26295,1,8,0:0:0:0:
64,192,26568,1,8,0:0:0:0:
64,192,26840,1,8,0:0:0:0:
64,192,27113,1,8,0:0:0:0:
64,192,27386,1,8,0:0:0:0:
64,192,27659,1,8,0:0:0:0:
64,192,27931,1,8,0:0:0:0:
64,192,28204,1,8,0:0:0:0:
64,192,28477,1,8,0:0:0:0:
64,192,28749,1,0,0:0:0:0:
320,192,28749,128,0,29295:0:0:0:0:
192,192,28818,1,0,0:0:0:0:
64,192,28886,1,0,0:0:0:0:
192,192,28954,1,0,0:0:0:0:
448,192,29022,1,0,0:0:0:0:
192,192,29090,1,0,0:0:0:0:
448,192,29159,1,0,0:0:0:0:
192,192,29227,1,0,0:0:0:0:
64,192,29295,1,6,0:0:0:0:
448,192,29295,1,0,0:0:0:0:
320,192,29568,1,0,0:0:0:0:
448,192,29568,1,0,0:0:0:0:
192,192,29636,1,0,0:0:0:0:
64,192,29704,1,0,0:0:0:0:
192,192,29772,1,0,0:0:0:0:
320,192,29840,1,0,0:0:0:0:
448,192,29840,1,0,0:0:0:0:
448,192,30113,1,0,0:0:0:0:
64,192,30113,1,0,0:0:0:0:
320,192,30113,1,8,0:0:0:0:
192,192,30249,1,0,0:0:0:0:
320,192,30318,1,0,0:0:0:0:
448,192,30386,1,0,0:0:0:0:
64,192,30386,1,0,0:0:0:0:
192,192,30454,1,0,0:0:0:0:
320,192,30522,1,0,0:0:0:0:
192,192,30590,1,0,0:0:0:0:
448,192,30659,1,0,0:0:0:0:
64,192,30659,1,0,0:0:0:0:
192,192,30931,1,0,0:0:0:0:
448,192,30931,1,0,0:0:0:0:
320,192,31068,1,0,0:0:0:0:
192,192,31136,1,0,0:0:0:0:
448,192,31204,1,0,0:0:0:0:
64,192,31204,1,0,0:0:0:0:
192,192,31272,1,0,0:0:0:0:
320,192,31340,1,0,0:0:0:0:
192,192,31409,1,0,0:0:0:0:
448,192,31477,1,0,0:0:0:0:
64,192,31477,1,0,0:0:0:0:
448,192,31749,1,0,0:0:0:0:
320,192,31749,128,0,32568:0:0:0:0:
64,192,31749,1,8,0:0:0:0:
192,192,31954,1,0,0:0:0:0:
64,192,32022,1,0,0:0:0:0:
192,192,32090,1,0,0:0:0:0:
448,192,32159,1,0,0:0:0:0:
64,192,32227,1,0,0:0:0:0:
192,192,32295,1,0,0:0:0:0:
448,192,32363,1,0,0:0:0:0:
192,192,32431,1,0,0:0:0:0:
64,192,32499,1,0,0:0:0:0:
192,192,32568,1,2,0:0:0:0:
448,192,32568,1,2,0:0:0:0:
320,192,32704,1,0,0:0:0:0:
192,192,32772,1,0,0:0:0:0:
64,192,32840,1,0,0:0:0:0:
448,192,32840,1,0,0:0:0:0:
192,192,32909,1,0,0:0:0:0:
448,192,32977,1,0,0:0:0:0:
320,192,33045,1,0,0:0:0:0:
192,192,33113,1,0,0:0:0:0:
448,192,33113,1,0,0:0:0:0:
192,192,33386,1,0,0:0:0:0:
448,192,33386,1,0,0:0:0:0:
64,192,33386,1,0,0:0:0:0:
320,192,33522,1,0,0:0:0:0:
192,192,33590,1,0,0:0:0:0:
320,192,33659,1,0,0:0:0:0:
64,192,33659,1,0,0:0:0:0:
448,192,33727,1,0,0:0:0:0:
64,192,33795,1,0,0:0:0:0:
192,192,33863,1,0,0:0:0:0:
320,192,33931,1,0,0:0:0:0:
448,192,33931,1,0,0:0:0:0:
64,192,34204,1,0,0:0:0:0:
448,192,34204,1,0,0:0:0:0:
192,192,34340,1,0,0:0:0:0:
320,192,34409,1,0,0:0:0:0:
448,192,34477,1,0,0:0:0:0:
64,192,34477,1,0,0:0:0:0:
192,192,34545,1,0,0:0:0:0:
320,192,34613,1,0,0:0:0:0:
448,192,34681,1,0,0:0:0:0:
320,192,34749,1,0,0:0:0:0:
192,192,34749,1,0,0:0:0:0:
448,192,35022,1,0,0:0:0:0:
64,192,35022,128,0,35840:0:0:0:0:
320,192,35022,1,0,0:0:0:0:
192,192,35227,1,0,0:0:0:0:
320,192,35295,1,0,0:0:0:0:
448,192,35363,1,0,0:0:0:0:
192,192,35431,1,0,0:0:0:0:
320,192,35499,1,0,0:0:0:0:
192,192,35568,1,0,0:0:0:0:
448,192,35636,1,0,0:0:0:0:
320,192,35704,1,0,0:0:0:0:
192,192,35772,1,0,0:0:0:0:
448,192,35840,1,2,0:0:0:0:
320,192,35840,1,2,0:0:0:0:
192,192,35977,1,0,0:0:0:0:
64,192,36045,1,0,0:0:0:0:
192,192,36113,1,0,0:0:0:0:
320,192,36113,1,0,0:0:0:0:
448,192,36181,1,0,0:0:0:0:
320,192,36249,1,0,0:0:0:0:
192,192,36318,1,0,0:0:0:0:
64,192,36386,1,0,0:0:0:0:
320,192,36386,1,0,0:0:0:0:
64,192,36659,1,0,0:0:0:0:
192,192,36659,1,8,0:0:0:0:
448,192,36659,1,0,0:0:0:0:
320,192,36795,1,0,0:0:0:0:
448,192,36863,1,0,0:0:0:0:
192,192,36931,1,0,0:0:0:0:
64,192,36931,1,0,0:0:0:0:
320,192,36999,1,0,0:0:0:0:
64,192,37068,1,0,0:0:0:0:
192,192,37136,1,0,0:0:0:0:
448,192,37204,1,0,0:0:0:0:
320,192,37204,1,0,0:0:0:0:
192,192,37477,1,0,0:0:0:0:
320,192,37477,1,0,0:0:0:0:
448,192,37477,1,0,0:0:0:0:
64,192,37613,1,0,0:0:0:0:
192,192,37681,1,0,0:0:0:0:
320,192,37749,1,0,0:0:0:0:
448,192,37749,1,0,0:0:0:0:
192,192,37818,1,0,0:0:0:0:
64,192,37886,1,0,0:0:0:0:
192,192,37954,1,0,0:0:0:0:
320,192,38022,1,0,0:0:0:0:
64,192,38022,1,0,0:0:0:0:
448,192,38295,1,0,0:0:0:0:
64,192,38295,128,0,39113:0:0:0:0:
192,192,38295,1,8,0:0:0:0:
320,192,38499,1,0,0:0:0:0:
192,192,38568,1,0,0:0:0:0:
320,192,38636,1,0,0:0:0:0:
448,192,38704,1,0,0:0:0:0:
320,192,38772,1,0,0:0:0:0:
192,192,38840,1,0,0:0:0:0:
448,192,38909,1,0,0:0:0:0:
320,192,38977,1,0,0:0:0:0:
192,192,39045,1,0,0:0:0:0:
320,192,39113,1,2,0:0:0:0:
448,192,39113,1,2,0:0:0:0:
320,192,39249,1,0,0:0:0:0:
448,192,39249,1,0,0:0:0:0:
320,192,39386,1,0,0:0:0:0:
448,192,39386,1,0,0:0:0:0:
320,192,39522,1,0,0:0:0:0:
448,192,39522,1,0,0:0:0:0:
320,192,39659,1,0,0:0:0:0:
192,192,39659,1,0,0:0:0:0:
64,192,39795,1,0,0:0:0:0:
192,192,39795,1,0,0:0:0:0:
320,192,39931,1,0,0:0:0:0:
192,192,39931,1,0,0:0:0:0:
192,192,40068,1,0,0:0:0:0:
320,192,40068,1,0,0:0:0:0:
192,192,40204,1,0,0:0:0:0:
320,192,40204,1,0,0:0:0:0:
192,192,40340,1,0,0:0:0:0:
320,192,40340,1,0,0:0:0:0:
320,192,40477,1,0,0:0:0:0:
448,192,40477,1,0,0:0:0:0:
192,192,40613,1,0,0:0:0:0:
320,192,40613,1,0,0:0:0:0:
64,192,40749,1,0,0:0:0:0:
64,192,40886,1,0,0:0:0:0:
64,192,41022,1,0,0:0:0:0:
64,192,41159,1,0,0:0:0:0:
192,192,41295,1,0,0:0:0:0:
448,192,41295,1,0,0:0:0:0:
320,192,41295,1,0,0:0:0:0:
64,192,41568,1,0,0:0:0:0:
448,192,41568,128,0,42386:0:0:0:0:
320,192,41568,1,0,0:0:0:0:
192,192,41840,1,0,0:0:0:0:
64,192,41909,1,0,0:0:0:0:
192,192,41977,1,0,0:0:0:0:
320,192,42045,1,0,0:0:0:0:
64,192,42113,1,0,0:0:0:0:
192,192,42181,1,0,0:0:0:0:
320,192,42249,1,0,0:0:0:0:
64,192,42318,1,0,0:0:0:0:
320,192,42386,128,0,42931:0:0:0:0:
192,192,42386,1,2,0:0:0:0:
192,192,42659,1,0,0:0:0:0:
192,192,42931,1,0,0:0:0:0:
64,192,42931,128,0,43477:0:0:0:0:
192,192,43204,1,0,0:0:0:0:
448,192,43204,1,0,0:0:0:0:
192,192,43477,128,0,43749:0:0:0:0:
448,192,43477,1,0,0:0:0:0:
448,192,43749,128,0,44022:0:0:0:0:
320,192,43749,1,0,0:0:0:0:
192,192,44022,128,0,45113:0:0:0:0:
64,192,44022,1,0,0:0:0:0:
64,192,44295,1,0,0:0:0:0:
448,192,44568,128,0,45113:0:0:0:0:
64,192,44568,1,0,0:0:0:0:
64,192,44840,1,0,0:0:0:0:
320,192,44840,1,0,0:0:0:0:
64,192,45113,128,0,45386:0:0:0:0:
320,192,45113,1,0,0:0:0:0:
320,192,45386,128,0,45659:0:0:0:0:
192,192,45386,1,0,0:0:0:0:
448,192,45659,128,0,46204:0:0:0:0:
192,192,45659,1,0,0:0:0:0:
192,192,45931,1,0,0:0:0:0:
64,192,46204,128,0,46749:0:0:0:0:
192,192,46204,1,0,0:0:0:0:
192,192,46477,1,0,0:0:0:0:
448,192,46477,1,0,0:0:0:0:
320,192,46749,128,0,47022:0:0:0:0:
192,192,46749,1,0,0:0:0:0:
448,192,47022,128,0,47295:0:0:0:0:
192,192,47022,1,0,0:0:0:0:
192,192,47295,128,0,48113:0:0:0:0:
64,192,47295,1,0,0:0:0:0:
320,192,47295,1,0,0:0:0:0:
64,192,47568,1,0,0:0:0:0:
320,192,47568,1,0,0:0:0:0:
64,192,47840,1,0,0:0:0:0:
320,192,47840,1,0,0:0:0:0:
320,192,48113,1,0,0:0:0:0:
64,192,48113,1,0,0:0:0:0:
320,192,48249,1,0,0:0:0:0:
448,192,48318,128,0,48386:0:0:0:0:
64,192,48386,1,0,0:0:0:0:
192,192,48386,1,0,0:0:0:0:
320,192,48522,1,0,0:0:0:0:
192,192,48522,1,0,0:0:0:0:
64,192,48659,128,0,48931:0:0:0:0:
192,192,48659,1,0,0:0:0:0:
448,192,48795,1,0,0:0:0:0:
192,192,48795,1,0,0:0:0:0:
320,192,48931,128,0,50022:0:0:0:0:
192,192,48931,1,2,0:0:0:0:
448,192,48931,1,0,0:0:0:0:
448,192,49204,1,0,0:0:0:0:
448,192,49477,1,0,0:0:0:0:
448,192,49749,1,0,0:0:0:0:
192,192,49749,1,0,0:0:0:0:
64,192,50022,128,0,50295:0:0:0:0:
192,192,50022,1,0,0:0:0:0:
448,192,50295,128,0,50568:0:0:0:0:
192,192,50295,1,0,0:0:0:0:
320,192,50386,1,0,0:0:0:0:
192,192,50477,1,0,0:0:0:0:
64,192,50568,1,0,0:0:0:0:
192,192,50568,128,0,51113:0:0:0:0:
320,192,50568,1,0,0:0:0:0:
320,192,50840,1,0,0:0:0:0:
320,192,51113,1,0,0:0:0:0:
320,192,51386,1,0,0:0:0:0:
64,192,51386,1,0,0:0:0:0:
448,192,51659,128,0,51931:0:0:0:0:
320,192,51659,1,0,0:0:0:0:
64,192,51931,128,0,52204:0:0:0:0:
320,192,51931,1,0,0:0:0:0:
192,192,52022,1,0,0:0:0:0:
320,192,52113,1,0,0:0:0:0:
192,192,52204,128,0,52477:0:0:0:0:
448,192,52204,1,0,0:0:0:0:
448,192,52477,128,0,52749:0:0:0:0:
64,192,52477,1,0,0:0:0:0:
192,192,52749,128,0,53022:0:0:0:0:
320,192,52749,1,0,0:0:0:0:
64,192,53022,128,0,53295:0:0:0:0:
320,192,53022,1,0,0:0:0:0:
448,192,53022,1,0,0:0:0:0:
320,192,53295,128,0,53568:0:0:0:0:
448,192,53295,1,0,0:0:0:0:
192,192,53568,128,0,53840:0:0:0:0:
448,192,53568,1,0,0:0:0:0:
64,192,53704,1,0,0:0:0:0:
320,192,53772,1,0,0:0:0:0:
448,192,53840,128,0,54931:0:0:0:0:
64,192,53840,1,0,0:0:0:0:
192,192,53977,1,0,0:0:0:0:
64,192,54113,1,0,0:0:0:0:
320,192,54113,1,0,0:0:0:0:
192,192,54249,1,0,0:0:0:0:
320,192,54318,1,0,0:0:0:0:
64,192,54386,1,0,0:0:0:0:
192,192,54454,1,0,0:0:0:0:
320,192,54522,1,0,0:0:0:0:
64,192,54522,1,0,0:0:0:0:
192,192,54659,1,0,0:0:0:0:
320,192,54659,1,0,0:0:0:0:
64,192,54795,1,0,0:0:0:0:
192,192,54795,1,0,0:0:0:0:
64,192,54931,128,0,55204:0:0:0:0:
192,192,54931,1,0,0:0:0:0:
448,192,55068,1,0,0:0:0:0:
320,192,55204,128,0,55477:0:0:0:0:
192,192,55204,1,0,0:0:0:0:
64,192,55272,1,0,0:0:0:0:
192,192,55340,1,0,0:0:0:0:
64,192,55409,1,0,0:0:0:0:
448,192,55477,128,0,56295:0:0:0:0:
192,192,55477,1,2,0:0:0:0:
64,192,55749,1,0,0:0:0:0:
64,192,56022,1,0,0:0:0:0:
64,192,56295,1,0,0:0:0:0:
320,192,56295,1,0,0:0:0:0:
64,192,56568,128,0,56840:0:0:0:0:
192,192,56568,1,0,0:0:0:0:
320,192,56840,128,0,57113:0:0:0:0:
192,192,56840,1,0,0:0:0:0:
448,192,57113,128,0,57931:0:0:0:0:
192,192,57113,1,0,0:0:0:0:
64,192,57113,1,0,0:0:0:0:
192,192,57386,1,0,0:0:0:0:
192,192,57659,1,0,0:0:0:0:
192,192,57931,1,0,0:0:0:0:
320,192,57931,1,0,0:0:0:0:
64,192,58204,128,0,58477:0:0:0:0:
320,192,58204,1,0,0:0:0:0:
320,192,58477,128,0,58749:0:0:0:0:
192,192,58477,1,0,0:0:0:0:
448,192,58749,128,0,59022:0:0:0:0:
192,192,58749,1,0,0:0:0:0:
64,192,59022,128,0,59295:0:0:0:0:
192,192,59022,1,0,0:0:0:0:
320,192,59295,128,0,59568:0:0:0:0:
448,192,59295,1,0,0:0:0:0:
64,192,59568,1,0,0:0:0:0:
448,192,59568,1,0,0:0:0:0:
192,192,59659,1,0,0:0:0:0:
448,192,59749,1,0,0:0:0:0:
64,192,59840,1,0,0:0:0:0:
320,192,59840,128,0,59977:0:0:0:0:
64,192,59977,128,0,60113:0:0:0:0:
448,192,60113,128,0,60295:0:0:0:0:
192,192,60295,128,0,60386:0:0:0:0:
64,192,60386,128,0,60568:0:0:0:0:
320,192,60386,1,0,0:0:0:0:
448,192,60386,1,0,0:0:0:0:
448,192,60568,128,0,60659:0:0:0:0:
192,192,60659,128,0,60840:0:0:0:0:
320,192,60659,1,0,0:0:0:0:
64,192,60659,1,0,0:0:0:0:
320,192,60840,128,0,60931:0:0:0:0:
448,192,60931,128,0,61204:0:0:0:0:
64,192,60931,1,0,0:0:0:0:
192,192,60931,1,0,0:0:0:0:
192,192,61204,1,0,0:0:0:0:
320,192,61204,1,0,0:0:0:0:
64,192,61409,1,0,0:0:0:0:
192,192,61477,128,0,61749:0:0:0:0:
320,192,61477,1,0,0:0:0:0:
448,192,61749,128,0,62022:0:0:0:0:
320,192,61749,1,0,0:0:0:0:
192,192,62022,1,2,0:0:0:0:
320,192,62022,1,2,0:0:0:0:
64,192,62022,1,0,0:0:0:0:
320,192,62159,1,0,0:0:0:0:
448,192,62159,1,0,0:0:0:0:
192,192,62227,1,0,0:0:0:0:
320,192,62295,1,0,0:0:0:0:
448,192,62295,1,0,0:0:0:0:
192,192,62363,1,0,0:0:0:0:
320,192,62431,1,0,0:0:0:0:
448,192,62431,1,0,0:0:0:0:
64,192,62499,1,0,0:0:0:0:
448,192,62568,1,0,0:0:0:0:
320,192,62568,1,0,0:0:0:0:
192,192,62636,1,0,0:0:0:0:
64,192,62704,1,0,0:0:0:0:
448,192,62704,1,0,0:0:0:0:
320,192,62772,1,0,0:0:0:0:
192,192,62840,1,0,0:0:0:0:
448,192,62840,1,0,0:0:0:0:
64,192,62909,1,0,0:0:0:0:
192,192,62977,1,0,0:0:0:0:
320,192,62977,1,0,0:0:0:0:
64,192,63045,1,0,0:0:0:0:
448,192,63113,1,0,0:0:0:0:
320,192,63113,1,0,0:0:0:0:
192,192,63181,1,0,0:0:0:0:
320,192,63249,1,0,0:0:0:0:
64,192,63249,1,0,0:0:0:0:
192,192,63318,1,0,0:0:0:0:
448,192,63386,1,0,0:0:0:0:
64,192,63386,1,0,0:0:0:0:
320,192,63454,1,0,0:0:0:0:
192,192,63522,1,0,0:0:0:0:
64,192,63522,1,0,0:0:0:0:
448,192,63590,1,0,0:0:0:0:
320,192,63659,1,0,0:0:0:0:
64,192,63659,1,0,0:0:0:0:
192,192,63727,1,0,0:0:0:0:
320,192,63795,1,0,0:0:0:0:
448,192,63795,1,0,0:0:0:0:
64,192,63863,1,0,0:0:0:0:
192,192,63931,1,0,0:0:0:0:
448,192,63931,1,0,0:0:0:0:
320,192,63999,1,0,0:0:0:0:
192,192,64068,1,0,0:0:0:0:
448,192,64068,1,0,0:0:0:0:
64,192,64136,1,0,0:0:0:0:
320,192,64204,1,0,0:0:0:0:
448,192,64204,1,0,0:0:0:0:
192,192,64272,1,0,0:0:0:0:
320,192,64340,1,0,0:0:0:0:
448,192,64340,1,0,0:0:0:0:
64,192,64409,1,0,0:0:0:0:
192,192,64477,1,0,0:0:0:0:
448,192,64477,1,0,0:0:0:0:
320,192,64545,1,0,0:0:0:0:
192,192,64613,1,0,0:0:0:0:
448,192,64613,1,0,0:0:0:0:
64,192,64681,1,0,0:0:0:0:
320,192,64749,1,0,0:0:0:0:
448,192,64749,1,0,0:0:0:0:
192,192,64818,1,0,0:0:0:0:
320,192,64886,1,0,0:0:0:0:
64,192,64886,1,0,0:0:0:0:
192,192,64954,1,0,0:0:0:0:
64,192,65022,1,0,0:0:0:0:
448,192,65022,1,0,0:0:0:0:
320,192,65090,1,0,0:0:0:0:
448,192,65159,1,0,0:0:0:0:
64,192,65159,1,0,0:0:0:0:
192,192,65227,1,0,0:0:0:0:
320,192,65295,1,0,0:0:0:0:
64,192,65295,1,0,0:0:0:0:
448,192,65363,1,0,0:0:0:0:
192,192,65431,1,0,0:0:0:0:
64,192,65431,1,0,0:0:0:0:
320,192,65499,1,0,0:0:0:0:
64,192,65568,1,0,0:0:0:0:
448,192,65568,1,0,0:0:0:0:
192,192,65636,1,0,0:0:0:0:
64,192,65704,1,0,0:0:0:0:
448,192,65704,1,0,0:0:0:0:
320,192,65772,1,0,0:0:0:0:
192,192,65840,1,0,0:0:0:0:
448,192,65840,1,0,0:0:0:0:
320,192,65909,1,0,0:0:0:0:
64,192,65977,1,0,0:0:0:0:
192,192,65977,1,0,0:0:0:0:
448,192,66045,1,0,0:0:0:0:
192,192,66113,1,0,0:0:0:0:
320,192,66113,1,0,0:0:0:0:
64,192,66181,1,0,0:0:0:0:
192,192,66249,1,0,0:0:0:0:
448,192,66249,1,0,0:0:0:0:
64,192,66318,1,0,0:0:0:0:
192,192,66386,1,0,0:0:0:0:
320,192,66386,1,0,0:0:0:0:
448,192,66454,1,0,0:0:0:0:
320,192,66522,1,0,0:0:0:0:
64,192,66522,1,0,0:0:0:0:
192,192,66590,1,0,0:0:0:0:
64,192,66659,1,0,0:0:0:0:
320,192,66659,1,0,0:0:0:0:
448,192,66727,1,0,0:0:0:0:
192,192,66795,1,0,0:0:0:0:
64,192,66795,1,0,0:0:0:0:
320,192,66863,1,0,0:0:0:0:
448,192,66931,1,0,0:0:0:0:
64,192,66931,1,0,0:0:0:0:
192,192,67068,1,0,0:0:0:0:
320,192,67068,1,0,0:0:0:0:
64,192,67204,1,0,0:0:0:0:
448,192,67204,1,0,0:0:0:0:
320,192,67340,1,0,0:0:0:0:
192,192,67340,1,0,0:0:0:0:
192,192,67477,1,0,0:0:0:0:
448,192,67477,1,0,0:0:0:0:
64,192,67545,1,0,0:0:0:0:
192,192,67613,1,0,0:0:0:0:
320,192,67613,1,0,0:0:0:0:
448,192,67681,1,0,0:0:0:0:
320,192,67749,1,0,0:0:0:0:
64,192,67749,1,0,0:0:0:0:
448,192,67886,1,0,0:0:0:0:
320,192,67886,1,0,0:0:0:0:
64,192,68022,1,0,0:0:0:0:
192,192,68022,1,0,0:0:0:0:
192,192,68159,1,0,0:0:0:0:
448,192,68159,1,0,0:0:0:0:
320,192,68295,1,0,0:0:0:0:
64,192,68295,1,0,0:0:0:0:
192,192,68431,1,0,0:0:0:0:
320,192,68431,1,0,0:0:0:0:
64,192,68568,1,2,0:0:0:0:
192,192,68568,1,0,0:0:0:0:
448,192,68704,1,0,0:0:0:0:
64,192,68840,1,0,0:0:0:0:
320,192,68840,1,0,0:0:0:0:
448,192,68977,1,0,0:0:0:0:
320,192,69045,1,0,0:0:0:0:
192,192,69113,1,0,0:0:0:0:
64,192,69113,1,0,0:0:0:0:
320,192,69181,1,0,0:0:0:0:
448,192,69249,1,0,0:0:0:0:
192,192,69249,1,0,0:0:0:0:
64,192,69386,1,0,0:0:0:0:
320,192,69386,1,0,0:0:0:0:
192,192,69386,1,0,0:0:0:0:
448,192,69522,1,0,0:0:0:0:
192,192,69659,1,0,0:0:0:0:
64,192,69659,1,0,0:0:0:0:
320,192,69795,1,0,0:0:0:0:
448,192,69863,1,0,0:0:0:0:
320,192,69931,1,0,0:0:0:0:
64,192,69931,1,0,0:0:0:0:
192,192,69999,1,0,0:0:0:0:
320,192,70068,1,0,0:0:0:0:
448,192,70136,1,0,0:0:0:0:
320,192,70204,1,0,0:0:0:0:
64,192,70204,1,2,0:0:0:0:
192,192,70340,1,0,0:0:0:0:
448,192,70340,1,0,0:0:0:0:
64,192,70477,1,0,0:0:0:0:
320,192,70477,1,0,0:0:0:0:
448,192,70613,1,0,0:0:0:0:
320,192,70681,1,0,0:0:0:0:
192,192,70749,1,0,0:0:0:0:
64,192,70749,1,0,0:0:0:0:
448,192,70818,1,0,0:0:0:0:
320,192,70886,1,0,0:0:0:0:
64,192,71022,1,0,0:0:0:0:
448,192,71022,1,0,0:0:0:0:
192,192,71022,1,0,0:0:0:0:
320,192,71090,1,0,0:0:0:0:
192,192,71159,1,0,0:0:0:0:
320,192,71227,1,0,0:0:0:0:
448,192,71295,1,0,0:0:0:0:
64,192,71295,1,0,0:0:0:0:
192,192,71431,1,0,0:0:0:0:
320,192,71431,1,0,0:0:0:0:
64,192,71499,1,0,0:0:0:0:
192,192,71568,1,0,0:0:0:0:
448,192,71568,1,0,0:0:0:0:
64,192,71636,1,0,0:0:0:0:
192,192,71704,1,0,0:0:0:0:
448,192,71704,1,0,0:0:0:0:
320,192,71772,1,0,0:0:0:0:
448,192,71840,1,0,0:0:0:0:
64,192,71840,1,0,0:0:0:0:
192,192,71977,1,0,0:0:0:0:
320,192,71977,1,0,0:0:0:0:
64,192,72113,1,0,0:0:0:0:
320,192,72113,128,0,72386:0:0:0:0:
448,192,72113,1,0,0:0:0:0:
64,192,72249,1,0,0:0:0:0:
448,192,72249,1,0,0:0:0:0:
64,192,72386,1,0,0:0:0:0:
448,192,72386,1,0,0:0:0:0:
192,192,72386,128,0,72659:0:0:0:0:
448,192,72522,1,0,0:0:0:0:
320,192,72522,1,0,0:0:0:0:
320,192,72659,128,0,72931:0:0:0:0:
64,192,72659,1,0,0:0:0:0:
448,192,72795,1,0,0:0:0:0:
64,192,72795,1,0,0:0:0:0:
192,192,72931,128,0,73068:0:0:0:0:
448,192,72931,1,0,0:0:0:0:
64,192,72931,1,0,0:0:0:0:
320,192,73068,128,0,73204:0:0:0:0:
64,192,73068,1,0,0:0:0:0:
448,192,73068,1,0,0:0:0:0:
192,192,73204,128,0,73340:0:0:0:0:
448,192,73204,1,0,0:0:0:0:
64,192,73204,1,0,0:0:0:0:
320,192,73340,128,0,73477:0:0:0:0:
64,192,73340,1,0,0:0:0:0:
448,192,73340,1,0,0:0:0:0:
192,192,73477,128,0,73613:0:0:0:0:
448,192,73477,1,0,0:0:0:0:
64,192,73477,1,0,0:0:0:0:
320,192,73613,1,0,0:0:0:0:
448,192,73613,1,0,0:0:0:0:
64,192,73749,128,0,75113:0:0:0:0:
320,192,73749,1,0,0:0:0:0:
448,192,73749,1,0,0:0:0:0:
320,192,73886,1,0,0:0:0:0:
448,192,73886,1,0,0:0:0:0:
320,192,74022,1,0,0:0:0:0:
448,192,74022,1,0,0:0:0:0:
320,192,74159,1,0,0:0:0:0:
448,192,74159,1,0,0:0:0:0:
320,192,74295,1,0,0:0:0:0:
448,192,74295,1,0,0:0:0:0:
320,192,74431,1,0,0:0:0:0:
448,192,74431,1,0,0:0:0:0:
320,192,74568,1,0,0:0:0:0:
448,192,74568,1,0,0:0:0:0:
448,192,74704,1,0,0:0:0:0:
320,192,74704,1,0,0:0:0:0:
320,192,74840,1,0,0:0:0:0:
448,192,74840,1,0,0:0:0:0:
320,192,74977,1,0,0:0:0:0:
448,192,74977,1,0,0:0:0:0:
192,192,75113,1,2,0:0:0:0:
320,192,75113,1,2,0:0:0:0:
448,192,75113,1,0,0:0:0:0:
64,192,75249,1,0,0:0:0:0:
192,192,75386,1,0,0:0:0:0:
320,192,75386,1,0,0:0:0:0:
448,192,75522,1,0,0:0:0:0:
320,192,75590,1,0,0:0:0:0:
192,192,75659,1,0,0:0:0:0:
64,192,75659,1,0,0:0:0:0:
320,192,75727,1,0,0:0:0:0:
192,192,75795,1,0,0:0:0:0:
448,192,75795,1,0,0:0:0:0:
64,192,75863,1,0,0:0:0:0:
448,192,75931,1,0,0:0:0:0:
320,192,75931,1,8,0:0:0:0:
192,192,75931,1,0,0:0:0:0:
320,192,76204,1,0,0:0:0:0:
192,192,76204,1,0,0:0:0:0:
64,192,76340,1,0,0:0:0:0:
320,192,76409,1,0,0:0:0:0:
192,192,76477,1,0,0:0:0:0:
448,192,76545,1,0,0:0:0:0:
320,192,76613,1,0,0:0:0:0:
64,192,76613,1,0,0:0:0:0:
64,192,76749,1,0,0:0:0:0:
448,192,76749,1,0,0:0:0:0:
192,192,76749,1,8,0:0:0:0:
320,192,76886,1,0,0:0:0:0:
192,192,77022,1,0,0:0:0:0:
64,192,77022,1,0,0:0:0:0:
320,192,77159,1,0,0:0:0:0:
448,192,77227,1,0,0:0:0:0:
320,192,77295,1,0,0:0:0:0:
192,192,77363,1,0,0:0:0:0:
64,192,77431,1,0,0:0:0:0:
448,192,77431,1,0,0:0:0:0:
320,192,77568,1,8,0:0:0:0:
192,192,77568,1,0,0:0:0:0:
448,192,77568,1,0,0:0:0:0:
64,192,77568,128,0,78386:0:0:0:0:
320,192,77840,1,0,0:0:0:0:
192,192,78113,1,0,0:0:0:0:
320,192,78147,1,0,0:0:0:0:
448,192,78181,1,0,0:0:0:0:
192,192,78215,1,0,0:0:0:0:
320,192,78249,1,0,0:0:0:0:
448,192,78284,1,0,0:0:0:0:
192,192,78318,1,0,0:0:0:0:
320,192,78352,1,0,0:0:0:0:
448,192,78386,1,0,0:0:0:0:
192,192,78386,1,0,0:0:0:0:
320,192,78522,1,0,0:0:0:0:
64,192,78659,1,0,0:0:0:0:
448,192,78659,1,0,0:0:0:0:
192,192,78795,1,0,0:0:0:0:
320,192,78863,1,0,0:0:0:0:
448,192,78931,1,0,0:0:0:0:
64,192,78931,1,0,0:0:0:0:
192,192,78999,1,0,0:0:0:0:
320,192,79068,1,0,0:0:0:0:
448,192,79068,1,0,0:0:0:0:
64,192,79204,1,0,0:0:0:0:
320,192,79204,1,8,0:0:0:0:
448,192,79204,1,0,0:0:0:0:
192,192,79340,1,0,0:0:0:0:
448,192,79477,1,0,0:0:0:0:
320,192,79477,1,0,0:0:0:0:
64,192,79613,1,0,0:0:0:0:
192,192,79681,1,0,0:0:0:0:
320,192,79749,1,0,0:0:0:0:
448,192,79749,1,0,0:0:0:0:
192,192,79818,1,0,0:0:0:0:
64,192,79886,1,0,0:0:0:0:
448,192,79886,1,0,0:0:0:0:
192,192,80022,1,0,0:0:0:0:
320,192,80022,1,8,0:0:0:0:
64,192,80022,1,0,0:0:0:0:
64,192,80159,1,0,0:0:0:0:
448,192,80159,1,0,0:0:0:0:
192,192,80227,1,0,0:0:0:0:
320,192,80295,1,0,0:0:0:0:
448,192,80295,1,0,0:0:0:0:
192,192,80363,1,0,0:0:0:0:
64,192,80431,1,0,0:0:0:0:
320,192,80431,1,0,0:0:0:0:
448,192,80499,1,0,0:0:0:0:
320,192,80568,1,0,0:0:0:0:
192,192,80568,1,0,0:0:0:0:
64,192,80636,1,0,0:0:0:0:
192,192,80704,1,0,0:0:0:0:
448,192,80704,1,0,0:0:0:0:
320,192,80772,1,0,0:0:0:0:
192,192,80840,1,0,0:0:0:0:
64,192,80840,1,0,0:0:0:0:
448,192,80909,1,0,0:0:0:0:
320,192,80977,1,0,0:0:0:0:
64,192,80977,1,0,0:0:0:0:
192,192,81045,1,0,0:0:0:0:
64,192,81113,1,0,0:0:0:0:
320,192,81113,1,0,0:0:0:0:
448,192,81181,1,0,0:0:0:0:
320,192,81249,1,0,0:0:0:0:
192,192,81249,1,0,0:0:0:0:
64,192,81318,1,0,0:0:0:0:
192,192,81386,1,0,0:0:0:0:
448,192,81386,1,0,0:0:0:0:
320,192,81454,1,0,0:0:0:0:
64,192,81522,1,0,0:0:0:0:
448,192,81522,1,0,0:0:0:0:
192,192,81590,1,0,0:0:0:0:
64,192,81659,1,0,0:0:0:0:
320,192,81659,1,0,0:0:0:0:
448,192,81795,1,0,0:0:0:0:
320,192,81931,1,0,0:0:0:0:
64,192,81931,1,0,0:0:0:0:
448,192,82068,1,0,0:0:0:0:
320,192,82136,1,0,0:0:0:0:
192,192,82204,1,0,0:0:0:0:
64,192,82204,1,0,0:0:0:0:
320,192,82272,1,0,0:0:0:0:
448,192,82340,1,0,0:0:0:0:
64,192,82340,1,0,0:0:0:0:
192,192,82409,1,0,0:0:0:0:
64,192,82477,1,0,0:0:0:0:
320,192,82477,1,8,0:0:0:0:
448,192,82477,1,0,0:0:0:0:
192,192,82613,1,0,0:0:0:0:
320,192,82749,1,0,0:0:0:0:
448,192,82749,1,0,0:0:0:0:
64,192,82886,1,0,0:0:0:0:
192,192,82954,1,0,0:0:0:0:
320,192,83022,1,0,0:0:0:0:
448,192,83022,1,0,0:0:0:0:
64,192,83090,1,0,0:0:0:0:
192,192,83159,1,0,0:0:0:0:
448,192,83159,1,0,0:0:0:0:
320,192,83227,1,0,0:0:0:0:
192,192,83295,1,8,0:0:0:0:
448,192,83295,1,0,0:0:0:0:
64,192,83295,1,0,0:0:0:0:
320,192,83431,1,0,0:0:0:0:
192,192,83568,1,0,0:0:0:0:
64,192,83568,1,0,0:0:0:0:
320,192,83704,1,0,0:0:0:0:
448,192,83772,1,0,0:0:0:0:
320,192,83840,1,0,0:0:0:0:
64,192,83840,1,0,0:0:0:0:
192,192,83909,1,0,0:0:0:0:
320,192,83977,1,0,0:0:0:0:
64,192,83977,1,0,0:0:0:0:
448,192,84045,1,0,0:0:0:0:
320,192,84113,1,0,0:0:0:0:
64,192,84113,1,0,0:0:0:0:
192,192,84113,1,8,0:0:0:0:
448,192,84249,1,0,0:0:0:0:
64,192,84386,1,0,0:0:0:0:
320,192,84386,1,0,0:0:0:0:
448,192,84522,1,0,0:0:0:0:
192,192,84659,1,0,0:0:0:0:
320,192,84659,1,0,0:0:0:0:
64,192,84795,1,0,0:0:0:0:
192,192,84931,1,8,0:0:0:0:
320,192,84931,1,0,0:0:0:0:
64,192,84931,1,0,0:0:0:0:
448,192,85068,1,0,0:0:0:0:
64,192,85204,1,0,0:0:0:0:
320,192,85204,1,0,0:0:0:0:
192,192,85340,1,0,0:0:0:0:
320,192,85409,1,0,0:0:0:0:
448,192,85477,1,0,0:0:0:0:
64,192,85477,1,0,0:0:0:0:
192,192,85545,1,0,0:0:0:0:
320,192,85613,1,0,0:0:0:0:
448,192,85613,1,0,0:0:0:0:
192,192,85749,1,0,0:0:0:0:
64,192,85749,1,0,0:0:0:0:
448,192,85749,1,0,0:0:0:0:
320,192,85886,1,0,0:0:0:0:
64,192,86022,1,0,0:0:0:0:
192,192,86022,1,0,0:0:0:0:
448,192,86159,1,0,0:0:0:0:
192,192,86227,1,0,0:0:0:0:
320,192,86295,1,0,0:0:0:0:
64,192,86295,1,0,0:0:0:0:
448,192,86363,1,0,0:0:0:0:
192,192,86431,1,0,0:0:0:0:
320,192,86431,1,0,0:0:0:0:
448,192,86568,1,0,0:0:0:0:
320,192,86568,1,0,0:0:0:0:
64,192,86568,1,0,0:0:0:0:
192,192,86704,1,0,0:0:0:0:
448,192,86704,1,0,0:0:0:0:
320,192,86772,1,0,0:0:0:0:
448,192,86840,1,0,0:0:0:0:
64,192,86840,1,0,0:0:0:0:
192,192,86909,1,0,0:0:0:0:
64,192,86977,1,0,0:0:0:0:
448,192,86977,1,0,0:0:0:0:
320,192,87045,1,0,0:0:0:0:
448,192,87113,1,0,0:0:0:0:
192,192,87113,1,0,0:0:0:0:
64,192,87181,1,0,0:0:0:0:
192,192,87249,1,0,0:0:0:0:
448,192,87249,1,0,0:0:0:0:
320,192,87318,1,0,0:0:0:0:
192,192,87386,1,0,0:0:0:0:
448,192,87386,1,0,0:0:0:0:
64,192,87454,1,0,0:0:0:0:
192,192,87522,1,0,0:0:0:0:
448,192,87522,1,0,0:0:0:0:
320,192,87590,128,0,87659:0:0:0:0:
64,192,87659,1,0,0:0:0:0:
448,192,87659,1,0,0:0:0:0:
192,192,87795,1,0,0:0:0:0:
448,192,87795,1,0,0:0:0:0:
320,192,87931,1,0,0:0:0:0:
448,192,87931,1,0,0:0:0:0:
64,192,87931,128,0,88204:0:0:0:0:
448,192,88068,1,0,0:0:0:0:
192,192,88068,128,0,88204:0:0:0:0:
448,192,88204,1,2,0:0:0:0:
320,192,88204,128,2,89568:0:0:0:0:
448,192,88340,1,0,0:0:0:0:
192,192,88477,1,0,0:0:0:0:
64,192,88477,1,0,0:0:0:0:
448,192,88613,1,0,0:0:0:0:
192,192,88749,1,0,0:0:0:0:
64,192,88749,1,0,0:0:0:0:
448,192,88818,1,0,0:0:0:0:
192,192,88886,1,0,0:0:0:0:
64,192,89022,1,0,0:0:0:0:
448,192,89022,1,0,0:0:0:0:
192,192,89022,1,0,0:0:0:0:
448,192,89295,1,0,0:0:0:0:
192,192,89295,128,0,89568:0:0:0:0:
64,192,89568,128,0,89840:0:0:0:0:
448,192,89568,1,0,0:0:0:0:
320,192,89704,1,0,0:0:0:0:
192,192,89772,128,0,89840:0:0:0:0:
448,192,89840,128,0,91477:0:0:0:0:
320,192,89840,1,0,0:0:0:0:
320,192,90113,1,0,0:0:0:0:
64,192,90113,1,0,0:0:0:0:
192,192,90249,1,0,0:0:0:0:
320,192,90318,1,0,0:0:0:0:
64,192,90386,1,0,0:0:0:0:
192,192,90386,1,0,0:0:0:0:
320,192,90454,1,0,0:0:0:0:
192,192,90522,1,0,0:0:0:0:
64,192,90522,1,0,0:0:0:0:
192,192,90659,1,0,0:0:0:0:
320,192,90659,1,0,0:0:0:0:
64,192,90659,1,0,0:0:0:0:
64,192,90931,1,0,0:0:0:0:
320,192,90931,128,0,91204:0:0:0:0:
192,192,91204,128,0,91306:0:0:0:0:
64,192,91306,128,0,91409:0:0:0:0:
320,192,91409,128,0,91477:0:0:0:0:
192,192,91477,1,0,0:0:0:0:
64,192,91477,128,0,91749:0:0:0:0:
448,192,91749,128,0,92022:0:0:0:0:
192,192,91749,1,0,0:0:0:0:
320,192,91886,1,0,0:0:0:0:
192,192,92022,128,0,92295:0:0:0:0:
320,192,92022,1,0,0:0:0:0:
64,192,92022,1,0,0:0:0:0:
448,192,92090,1,0,0:0:0:0:
320,192,92159,1,0,0:0:0:0:
448,192,92295,1,0,0:0:0:0:
64,192,92295,1,0,0:0:0:0:
320,192,92295,1,0,0:0:0:0:
320,192,92431,1,0,0:0:0:0:
64,192,92568,1,0,0:0:0:0:
448,192,92568,128,0,92840:0:0:0:0:
192,192,92704,1,0,0:0:0:0:
320,192,92772,1,0,0:0:0:0:
64,192,92840,128,0,93113:0:0:0:0:
192,192,92840,1,0,0:0:0:0:
320,192,92909,1,0,0:0:0:0:
448,192,92977,1,0,0:0:0:0:
320,192,93045,128,0,93113:0:0:0:0:
448,192,93113,128,0,93386:0:0:0:0:
192,192,93113,1,0,0:0:0:0:
192,192,93249,1,0,0:0:0:0:
64,192,93249,1,0,0:0:0:0:
320,192,93318,1,0,0:0:0:0:
64,192,93386,1,0,0:0:0:0:
192,192,93386,1,0,0:0:0:0:
320,192,93454,1,0,0:0:0:0:
192,192,93522,1,0,0:0:0:0:
448,192,93522,1,0,0:0:0:0:
64,192,93590,1,0,0:0:0:0:
448,192,93659,1,0,0:0:0:0:
192,192,93659,1,0,0:0:0:0:
320,192,93727,1,0,0:0:0:0:
192,192,93795,1,0,0:0:0:0:
448,192,93795,1,0,0:0:0:0:
64,192,93863,1,0,0:0:0:0:
448,192,93931,1,0,0:0:0:0:
192,192,93931,1,0,0:0:0:0:
320,192,93999,1,0,0:0:0:0:
448,192,94068,1,0,0:0:0:0:
192,192,94068,1,0,0:0:0:0:
64,192,94136,1,0,0:0:0:0:
448,192,94204,1,0,0:0:0:0:
192,192,94204,1,0,0:0:0:0:
320,192,94272,1,0,0:0:0:0:
192,192,94340,1,0,0:0:0:0:
448,192,94340,1,0,0:0:0:0:
64,192,94409,1,0,0:0:0:0:
192,192,94477,1,0,0:0:0:0:
448,192,94477,1,0,0:0:0:0:
320,192,94545,1,0,0:0:0:0:
448,192,94613,1,0,0:0:0:0:
192,192,94613,1,0,0:0:0:0:
320,192,94681,1,0,0:0:0:0:
64,192,94749,128,0,95022:0:0:0:0:
192,192,94749,1,2,0:0:0:0:
448,192,94749,1,2,0:0:0:0:
320,192,94886,1,0,0:0:0:0:
320,192,95022,128,0,95295:0:0:0:0:
192,192,95022,1,0,0:0:0:0:
192,192,95159,1,0,0:0:0:0:
64,192,95227,1,0,0:0:0:0:
448,192,95295,128,0,95568:0:0:0:0:
192,192,95295,1,0,0:0:0:0:
64,192,95363,1,0,0:0:0:0:
192,192,95431,1,0,0:0:0:0:
320,192,95499,1,0,0:0:0:0:
64,192,95568,128,0,95840:0:0:0:0:
192,192,95568,1,0,0:0:0:0:
320,192,95704,1,0,0:0:0:0:
320,192,95840,128,0,96386:0:0:0:0:
448,192,95840,1,0,0:0:0:0:
192,192,95977,1,0,0:0:0:0:
448,192,96045,1,0,0:0:0:0:
64,192,96113,1,0,0:0:0:0:
448,192,96181,1,0,0:0:0:0:
64,192,96249,1,0,0:0:0:0:
448,192,96318,1,0,0:0:0:0:
192,192,96386,128,0,96931:0:0:0:0:
64,192,96386,1,0,0:0:0:0:
320,192,96522,1,0,0:0:0:0:
448,192,96659,1,0,0:0:0:0:
64,192,96659,1,0,0:0:0:0:
448,192,96795,1,0,0:0:0:0:
320,192,96863,1,0,0:0:0:0:
448,192,96931,128,0,97522:0:0:0:0:
64,192,96931,1,0,0:0:0:0:
192,192,97068,1,0,0:0:0:0:
320,192,97204,1,0,0:0:0:0:
64,192,97204,1,0,0:0:0:0:
192,192,97340,1,0,0:0:0:0:
64,192,97522,128,0,97749:0:0:0:0:
320,192,97522,1,0,0:0:0:0:
320,192,97749,128,0,97886:0:0:0:0:
448,192,97749,1,0,0:0:0:0:
448,192,97886,128,0,98022:0:0:0:0:
192,192,97886,1,0,0:0:0:0:
64,192,98022,1,0,0:0:0:0:
320,192,98022,128,0,98499:0:0:0:0:
448,192,98159,1,0,0:0:0:0:
64,192,98227,128,0,98295:0:0:0:0:
192,192,98227,1,0,0:0:0:0:
448,192,98295,1,0,0:0:0:0:
192,192,98431,128,0,98499:0:0:0:0:
448,192,98431,1,0,0:0:0:0:
64,192,98499,1,0,0:0:0:0:
448,192,98568,128,0,98840:0:0:0:0:
192,192,98568,1,0,0:0:0:0:
64,192,98704,1,0,0:0:0:0:
64,192,98840,128,0,99659:0:0:0:0:
320,192,98840,1,0,0:0:0:0:
192,192,98840,1,0,0:0:0:0:
192,192,98931,1,0,0:0:0:0:
448,192,99022,1,0,0:0:0:0:
320,192,99113,1,0,0:0:0:0:
192,192,99249,1,0,0:0:0:0:
448,192,99318,1,0,0:0:0:0:
192,192,99386,1,0,0:0:0:0:
320,192,99431,1,0,0:0:0:0:
448,192,99522,1,0,0:0:0:0:
320,192,99659,128,0,100477:0:0:0:0:
192,192,99659,1,0,0:0:0:0:
448,192,99795,1,0,0:0:0:0:
64,192,99931,128,0,100204:0:0:0:0:
192,192,99931,1,0,0:0:0:0:
448,192,99931,1,0,0:0:0:0:
448,192,100068,1,0,0:0:0:0:
192,192,100159,1,0,0:0:0:0:
448,192,100204,1,0,0:0:0:0:
192,192,100340,1,0,0:0:0:0:
448,192,100477,1,0,0:0:0:0:
64,192,100477,1,0,0:0:0:0:
192,192,100613,1,0,0:0:0:0:
320,192,100749,1,0,0:0:0:0:
448,192,100749,1,0,0:0:0:0:
192,192,100818,1,0,0:0:0:0:
64,192,100886,1,0,0:0:0:0:
448,192,100886,1,0,0:0:0:0:
192,192,101022,1,0,0:0:0:0:
320,192,101022,128,0,101295:0:0:0:0:
64,192,101090,1,0,0:0:0:0:
448,192,101159,1,0,0:0:0:0:
192,192,101159,1,0,0:0:0:0:
64,192,101295,1,2,0:0:0:0:
448,192,101295,1,2,0:0:0:0:
192,192,101431,1,0,0:0:0:0:
448,192,101568,128,0,101840:0:0:0:0:
64,192,101568,1,0,0:0:0:0:
320,192,101704,1,0,0:0:0:0:
64,192,101840,128,0,102113:0:0:0:0:
192,192,101840,1,0,0:0:0:0:
448,192,101977,1,0,0:0:0:0:
320,192,102113,128,0,102386:0:0:0:0:
192,192,102113,1,0,0:0:0:0:
448,192,102249,1,0,0:0:0:0:
192,192,102386,128,0,102659:0:0:0:0:
64,192,102386,1,0,0:0:0:0:
320,192,102522,1,0,0:0:0:0:
448,192,102659,128,0,102931:0:0:0:0:
64,192,102659,1,0,0:0:0:0:
320,192,102795,1,0,0:0:0:0:
64,192,102931,128,0,103204:0:0:0:0:
192,192,102931,1,0,0:0:0:0:
448,192,103068,1,0,0:0:0:0:
320,192,103204,128,0,103477:0:0:0:0:
192,192,103204,1,0,0:0:0:0:
448,192,103340,1,0,0:0:0:0:
64,192,103477,128,0,103749:0:0:0:0:
192,192,103477,1,0,0:0:0:0:
320,192,103613,1,0,0:0:0:0:
448,192,103749,128,0,104022:0:0:0:0:
192,192,103749,1,0,0:0:0:0:
320,192,103886,1,0,0:0:0:0:
64,192,104022,1,0,0:0:0:0:
320,192,104113,1,0,0:0:0:0:
448,192,104159,1,0,0:0:0:0:
64,192,104204,128,0,104386:0:0:0:0:
192,192,104204,1,0,0:0:0:0:
320,192,104386,128,0,104568:0:0:0:0:
448,192,104568,128,0,104840:0:0:0:0:
192,192,104568,1,0,0:0:0:0:
64,192,104704,1,0,0:0:0:0:
192,192,104840,128,0,105113:0:0:0:0:
320,192,104840,1,0,0:0:0:0:
448,192,104977,1,0,0:0:0:0:
64,192,105113,128,0,105386:0:0:0:0:
320,192,105113,1,0,0:0:0:0:
448,192,105249,1,0,0:0:0:0:
320,192,105318,1,0,0:0:0:0:
448,192,105386,128,0,105931:0:0:0:0:
192,192,105386,1,0,0:0:0:0:
192,192,105659,128,0,105931:0:0:0:0:
64,192,105659,1,0,0:0:0:0:
320,192,105795,1,0,0:0:0:0:
64,192,105931,128,0,106204:0:0:0:0:
320,192,105931,1,0,0:0:0:0:
192,192,106068,1,0,0:0:0:0:
320,192,106204,128,0,107022:0:0:0:0:
448,192,106204,128,0,106477:0:0:0:0:
192,192,106204,1,0,0:0:0:0:
64,192,106340,1,0,0:0:0:0:
192,192,106477,128,0,106749:0:0:0:0:
64,192,106477,1,0,0:0:0:0:
64,192,106613,1,0,0:0:0:0:
448,192,106613,1,0,0:0:0:0:
64,192,106749,128,0,107022:0:0:0:0:
448,192,106749,1,0,0:0:0:0:
448,192,106886,1,0,0:0:0:0:
192,192,106886,1,0,0:0:0:0:
448,192,107022,128,0,107840:0:0:0:0:
192,192,107022,1,0,0:0:0:0:
64,192,107295,1,0,0:0:0:0:
320,192,107295,128,0,107477:0:0:0:0:
64,192,107477,128,0,107568:0:0:0:0:
192,192,107568,1,0,0:0:0:0:
320,192,107659,1,0,0:0:0:0:
192,192,107749,1,0,0:0:0:0:
320,192,107840,128,0,108568:0:0:0:0:
64,192,107840,1,0,0:0:0:0:
192,192,108113,1,0,0:0:0:0:
192,192,108386,1,0,0:0:0:0:
64,192,108568,128,0,108659:0:0:0:0:
448,192,108659,128,0,109386:0:0:0:0:
192,192,108659,1,0,0:0:0:0:
320,192,108659,1,0,0:0:0:0:
192,192,108931,1,0,0:0:0:0:
192,192,109204,1,0,0:0:0:0:
64,192,109386,128,0,109477:0:0:0:0:
320,192,109477,128,0,110204:0:0:0:0:
192,192,109477,1,0,0:0:0:0:
192,192,109749,1,0,0:0:0:0:
192,192,110022,1,0,0:0:0:0:
64,192,110204,128,0,110295:0:0:0:0:
192,192,110295,128,0,110772:0:0:0:0:
448,192,110295,1,0,0:0:0:0:
448,192,110568,1,0,0:0:0:0:
320,192,110772,1,0,0:0:0:0:
64,192,110840,1,0,0:0:0:0:
192,192,110840,1,0,0:0:0:0:
320,192,110909,1,0,0:0:0:0:
448,192,110977,128,0,111113:0:0:0:0:
192,192,111113,128,2,111931:0:0:0:0:
320,192,111113,128,0,111931:0:0:0:0:
64,192,111113,1,2,0:0:0:0:
64,192,111386,1,0,0:0:0:0:
448,192,111454,1,0,0:0:0:0:
64,192,111522,1,0,0:0:0:0:
448,192,111590,1,0,0:0:0:0:
64,192,111659,1,0,0:0:0:0:
448,192,111727,1,0,0:0:0:0:
64,192,111795,1,0,0:0:0:0:
64,192,111931,1,0,0:0:0:0:
448,192,111931,128,0,112204:0:0:0:0:
64,192,112204,128,0,112749:0:0:0:0:
192,192,112204,1,0,0:0:0:0:
320,192,112204,1,0,0:0:0:0:
192,192,112340,1,0,0:0:0:0:
320,192,112477,1,0,0:0:0:0:
448,192,112477,1,0,0:0:0:0:
192,192,112613,1,0,0:0:0:0:
448,192,112749,128,0,113295:0:0:0:0:
192,192,112749,1,0,0:0:0:0:
320,192,112749,1,0,0:0:0:0:
64,192,113022,1,0,0:0:0:0:
192,192,113022,1,0,0:0:0:0:
320,192,113159,1,0,0:0:0:0:
192,192,113295,128,0,113840:0:0:0:0:
64,192,113295,1,0,0:0:0:0:
320,192,113295,1,0,0:0:0:0:
448,192,113431,1,0,0:0:0:0:
64,192,113568,1,0,0:0:0:0:
320,192,113568,1,0,0:0:0:0:
448,192,113704,1,0,0:0:0:0:
320,192,113840,128,0,114113:0:0:0:0:
64,192,113840,1,0,0:0:0:0:
192,192,113977,1,0,0:0:0:0:
64,192,114113,128,0,114249:0:0:0:0:
448,192,114113,1,0,0:0:0:0:
192,192,114113,1,0,0:0:0:0:
448,192,114249,128,0,114386:0:0:0:0:
320,192,114249,1,0,0:0:0:0:
192,192,114386,128,0,114613:0:0:0:0:
64,192,114386,1,0,0:0:0:0:
320,192,114386,1,0,0:0:0:0:
320,192,114613,128,0,114704:0:0:0:0:
448,192,114704,128,0,114840:0:0:0:0:
320,192,114840,128,0,114931:0:0:0:0:
192,192,114931,128,0,115204:0:0:0:0:
64,192,114931,1,0,0:0:0:0:
448,192,115068,1,0,0:0:0:0:
64,192,115204,128,0,115749:0:0:0:0:
320,192,115204,1,0,0:0:0:0:
448,192,115272,1,0,0:0:0:0:
192,192,115340,1,0,0:0:0:0:
320,192,115409,1,0,0:0:0:0:
448,192,115477,1,0,0:0:0:0:
320,192,115545,1,0,0:0:0:0:
192,192,115613,1,0,0:0:0:0:
448,192,115681,1,0,0:0:0:0:
320,192,115749,1,0,0:0:0:0:
448,192,115795,128,0,116022:0:0:0:0:
192,192,115795,1,0,0:0:0:0:
320,192,115886,1,0,0:0:0:0:
192,192,115954,1,0,0:0:0:0:
64,192,116022,128,2,116840:0:0:0:0:
320,192,116022,128,2,116840:0:0:0:0:
192,192,116295,128,0,116431:0:0:0:0:
448,192,116431,128,0,116568:0:0:0:0:
192,192,116568,128,0,116840:0:0:0:0:
448,192,116840,1,0,0:0:0:0:
