osu file format v13

[General]
AudioFilename: Double Monk.mp3
AudioLeadIn: 0
PreviewTime: 39171
Countdown: 0
SampleSet: Soft
StackLeniency: 0.3
Mode: 0
LetterboxInBreaks: 0
WidescreenStoryboard: 0

[Editor]
Bookmarks: 321,24771,39171,53571,67971,73371,87771,94971,102171,109371,111171,125571,139971,154371,168771
DistanceSpacing: 1.1
BeatDivisor: 6
GridSize: 32
TimelineZoom: 3.499998

[Metadata]
Title:Double Monk
TitleUnicode:Double Monk
Artist:Igorrr
ArtistUnicode:Igorrr
Creator:Sieg
Version:Insane
Source:
Tags:idm breakcore baroquecore nostril electronic hardcore experimental
BeatmapID:456247
BeatmapSetID:180657

[Difficulty]
HPDrainRate:6
CircleSize:3.7
OverallDifficulty:7.5
ApproachRate:9
SliderMultiplier:2
SliderTickRate:1

[Events]
//Background and Video events
0,0,"bg.jpg",0,0
//Break Periods
2,68171,71721
2,109030,110271
//Storyboard Layer 0 (Background)
//Storyboard Layer 1 (Fail)
//Storyboard Layer 2 (Pass)
//Storyboard Layer 3 (Foreground)
//Storyboard Sound Samples
//Background Colour Transformations
3,100,163,162,255

[TimingPoints]
24771,300,6,2,3,30,1,0
24771,-100,6,2,3,90,0,0
25071,-100,6,2,3,70,0,0
37671,-100,6,2,3,80,0,0
38271,-100,6,2,3,70,0,0
39021,-100,6,2,3,90,0,0
39171,-100,6,2,3,90,0,1
51771,-100,6,2,3,60,0,1
53521,-100,6,2,3,90,0,0
53571,-100,6,2,3,90,0,1
64371,-100,6,2,3,70,0,1
67971,-100,6,2,3,90,0,0
73371,-100,6,2,3,90,0,1
73421,-100,6,2,3,90,0,0
76971,-100,6,2,3,90,0,1
77021,-100,6,2,3,90,0,0
80571,-100,6,2,3,90,0,1
80621,-100,6,2,3,90,0,0
87771,-100,6,2,3,90,0,1
94071,-100,6,2,3,90,0,0
101471,-100,6,2,3,10,0,0
101571,-100,6,2,3,90,0,0
110871,-100,6,2,3,70,0,0
151671,-100,6,2,3,55,0,0
153171,-100,6,2,3,40,0,0
153471,-100,6,2,3,30,0,0
154371,-100,6,2,3,60,0,1
167871,-100,6,2,3,90,0,0

[Colours]
Combo1 : 232,118,0
Combo2 : 13,106,75
Combo3 : 223,5,0

[HitObjects]
87,229,23871,6,0,L|69:293,3,50,0|0|0|0,0:0|0:0|0:0|0:0,0:0:0:0:
159,267,24171,2,0,L|158:325,3,50,0|0|0|0,0:0|0:0|0:0|0:0,0:0:0:0:
237,288,24471,2,0,L|253:343,3,50,0|0|0|0,0:0|0:0|0:0|0:0,0:0:0:0:
316,283,24771,1,4,0:0:0:0:
477,143,25071,6,0,P|429:86|360:60,1,133.333333333333,2|0,0:0|0:0,0:0:0:0:
235,140,25371,2,0,P|274:124|291:97,2,66.6666666666667,0|0|0,0:0|0:0|0:0,0:0:0:0:
221,65,25670,1,8,0:0:0:0:
52,215,25871,1,0,0:0:0:0:
52,215,25971,2,0,B|73:358,1,133.333333333333,0|0,0:0|0:0,0:0:0:0:
215,324,26271,2,0,P|289:324|353:360,1,133.333333333333,0|0,0:0|0:0,0:0:0:0:
474,275,26571,6,0,P|474:200|510:136,1,133.333333333333,0|0,0:0|0:0,0:0:0:0:
367,96,26871,2,0,P|292:95|228:59,1,133.333333333333,0|0,0:0|0:0,0:0:0:0:
85,83,27171,2,0,L|92:164,2,66.6666666666667,0|0|0,0:0|0:0|0:0,0:0:0:0:
45,19,27471,1,8,0:0:0:0:
156,356,27671,1,0,0:0:0:0:
156,356,27771,2,0,L|143:208,1,133.333333333333,0|0,0:0|0:0,0:0:0:0:
166,70,28071,2,0,P|218:29|296:49,1,133.333333333333,0|0,0:0|0:0,0:0:0:0:
396,185,28371,6,0,P|286:192|238:105,1,200,8|8,0:3|0:3,0:0:0:0:
432,30,28971,1,0,0:0:0:0:
494,71,29071,1,0,0:0:0:0:
507,143,29171,1,0,0:0:0:0:
498,218,29271,2,0,B|492:364,1,133.333333333333,8|0,0:0|0:0,0:0:0:0:
311,321,29571,2,0,P|252:275|179:264,1,133.333333333333,0|0,0:0|0:0,0:0:0:0:
142,104,29871,2,0,P|200:149|273:160,1,133.333333333333,0|0,0:0|0:0,0:0:0:0:
442,64,30171,6,0,P|367:58|300:90,1,133.333333333333,0|0,0:0|0:0,0:0:0:0:
142,104,30471,2,0,P|67:97|6:55,1,133.333333333333,0|0,0:0|0:0,0:0:0:0:
13,235,30771,2,0,B|23:315,2,66.6666666666667,0|0|0,0:0|0:0|0:0,0:0:0:0:
20,162,31071,1,8,0:0:0:0:
220,263,31271,1,0,0:0:0:0:
220,263,31371,2,0,P|285:299|323:362,1,133.333333333333,0|0,0:0|0:0,0:0:0:0:
345,170,31671,2,0,P|413:141|486:149,1,133.333333333333,0|0,0:0|0:0,0:0:0:0:
355,37,31971,6,0,P|240:32|153:89,1,200,8|8,0:3|0:3,0:0:0:0:
223,230,32571,1,0,0:0:0:0:
296,214,32671,1,0,0:0:0:0:
369,230,32771,1,0,0:0:0:0:
440,258,32871,2,0,L|452:112,1,133.333333333333,8|0,0:0|0:0,0:0:0:0:
296,214,33171,2,0,B|285:366,1,133.333333333333,0|0,0:0|0:0,0:0:0:0:
80,253,33471,6,0,P|153:236|208:186,1,133.333333333333,0|0,0:0|0:0,0:0:0:0:
262,36,33771,2,0,P|188:52|133:102,1,133.333333333333,0|0,0:0|0:0,0:0:0:0:
313,131,34071,2,0,P|383:112|435:61,1,133.333333333333,0|0,0:0|0:0,0:0:0:0:
462,191,34371,2,0,L|454:271,2,66.6666666666667,0|0|0,0:0|0:0|0:0,0:0:0:0:
490,122,34671,1,8,0:0:0:0:
229,248,34871,1,0,0:0:0:0:
229,248,34971,2,0,P|180:304|165:376,1,133.333333333333,0|0,0:0|0:0,0:0:0:0:
228,151,35271,2,0,P|155:167|100:217,1,133.333333333333,0|0,0:0|0:0,0:0:0:0:
323,208,35571,6,0,P|418:220|532:155,1,200,8|8,0:3|0:3,0:0:0:0:
281,85,36171,1,0,0:0:0:0:
214,53,36271,1,0,0:0:0:0:
141,44,36371,1,0,0:0:0:0:
74,75,36471,1,8,0:0:0:0:
172,316,36671,1,0,0:0:0:0:
172,316,36771,2,0,P|171:247|107:204,1,133.333333333333,0|0,0:0|0:0,0:0:0:0:
103,281,37071,1,0,0:0:0:0:
467,339,37371,5,4,0:0:0:0:
428,105,37671,2,0,L|409:137,5,33.3333333333333,0|0|0|0|0|0,1:0|1:0|1:0|1:0|1:0|1:0,0:0:0:0:
425,64,37971,1,0,1:0:0:0:
260,327,38271,1,4,0:0:0:0:
12,117,38571,1,2,0:3:0:0:
113,213,38721,1,2,0:3:0:0:
86,68,38871,1,2,0:3:0:0:
48,259,39021,1,2,0:0:0:0:
163,44,39171,6,0,P|277:61|374:24,1,200,4|0,0:1|0:0,0:0:0:0:
469,296,39771,2,0,L|461:213,2,66.6666666666667,0|0|0,0:0|0:0|0:0,0:0:0:0:
353,177,40071,2,0,P|397:114|469:102,1,133.333333333333,2|0,0:0|0:0,0:0:0:0:
339,277,40371,2,0,B|345:355,2,66.6666666666667,0|0|0,0:0|0:0|0:0,0:0:0:0:
106,303,40671,2,0,P|179:297|240:256,1,133.333333333333,2|0,0:3|0:0,0:0:0:0:
76,187,40971,6,0,P|78:113|44:48,1,133.333333333333,2|0,0:3|0:0,0:0:0:0:
180,34,41271,2,0,L|333:51,1,133.333333333333,0|0,0:0|0:0,0:0:0:0:
191,189,41571,2,0,L|173:118,2,66.6666666666667,0|0|0,0:0|0:0|0:0,0:0:0:0:
399,179,41871,2,0,P|328:195|274:244,1,133.333333333333,2|0,0:0|0:0,0:0:0:0:
181,317,42171,2,0,L|111:347,1,66.6666666666667,0|0,0:0|0:0,0:0:0:0:
259,356,42371,1,0,0:0:0:0:
259,356,42471,2,0,L|330:324,1,66.6666666666667,0|0,0:0|0:0,0:0:0:0:
482,30,42771,6,0,P|381:108|287:93,1,200,4|0,0:0|0:0,0:0:0:0:
18,110,43371,2,0,L|24:192,2,66.6666666666667,0|0|0,0:0|0:0|0:0,0:0:0:0:
61,283,43671,2,0,P|112:231|182:211,1,133.333333333333,2|0,0:0|0:0,0:0:0:0:
243,206,43971,1,0,0:0:0:0:
319,212,44071,1,0,0:0:0:0:
393,192,44171,1,0,0:0:0:0:
449,139,44271,2,0,P|377:121|324:70,1,133.333333333333,2|0,0:3|0:0,0:0:0:0:
130,89,44571,6,0,P|203:86|268:120,1,133.333333333333,2|0,0:3|0:0,0:0:0:0:
387,321,44871,2,0,P|405:250|387:178,1,133.333333333333,4|0,0:0|0:0,0:0:0:0:
269,295,45171,2,0,P|195:297|132:336,1,133.333333333333,2|0,0:3|0:0,0:0:0:0:
273,105,45471,2,0,P|211:144|137:149,1,133.333333333333,2|0,0:0|0:0,0:0:0:0:
31,296,45771,2,0,L|23:376,2,66.6666666666667,2|0|0,0:0|0:0|0:0,0:0:0:0:
19,150,46071,2,0,L|29:74,1,66.6666666666667,2|0,0:0|0:0,0:0:0:0:
239,188,46371,6,0,P|323:229|341:348,1,200,4|0,0:0|0:0,0:0:0:0:
462,96,46971,2,0,B|469:14,2,66.6666666666667,0|0|0,0:0|0:0|0:0,0:0:0:0:
333,90,47271,2,0,P|272:48|199:40,1,133.333333333333,2|0,0:0|0:0,0:0:0:0:
341,217,47571,2,0,P|364:184|407:172,2,66.6666666666667,0|0|0,0:0|0:0|0:0,0:0:0:0:
301,324,47871,2,0,P|227:318|166:277,1,133.333333333333,2|0,0:3|0:0,0:0:0:0:
46,143,48171,6,0,P|115:118|164:63,1,133.333333333333,2|0,0:3|0:0,0:0:0:0:
256,192,48471,2,0,L|250:340,1,133.333333333333,0|0,0:0|0:0,0:0:0:0:
120,216,48771,2,0,L|116:294,2,66.6666666666667,0|0|0,0:0|0:0|0:0,0:0:0:0:
123,38,49071,2,0,P|190:66|264:58,1,133.333333333333,2|0,0:0|0:0,0:0:0:0:
369,120,49371,2,0,L|442:111,1,66.6666666666667,0|0,0:0|0:0,0:0:0:0:
315,193,49571,1,0,0:0:0:0:
315,193,49671,2,0,L|242:203,1,66.6666666666667,0|0,0:0|0:0,0:0:0:0:
13,342,49971,6,0,P|78:361|192:271,1,200,4|0,0:0|0:0,0:0:0:0:
47,106,50571,2,0,L|42:152,5,33.3333333333333,2|0|0|0|0|0,0:0|0:0|0:0|0:0|0:0|0:0,0:0:0:0:
54,71,50871,2,0,P|127:73|192:39,1,133.333333333333,2|0,0:0|0:0,0:0:0:0:
294,164,51171,2,0,L|205:147,2,66.6666666666667,0|0|0,0:0|0:0|0:0,0:0:0:0:
300,43,51471,2,0,L|380:27,2,66.6666666666667,2|0|0,0:0|0:0|0:0,0:0:0:0:
124,57,51771,6,0,L|113:131,1,66.6666666666667,2|0,0:3|0:0,0:0:0:0:
214,133,51971,1,2,0:3:0:0:
214,133,52071,2,0,L|213:208,1,66.6666666666667,2|0,0:3|0:0,0:0:0:0:
314,187,52271,1,2,0:3:0:0:
314,187,52371,2,0,L|326:262,1,66.6666666666667,2|0,0:3|0:0,0:0:0:0:
121,149,52671,6,0,B|67:119,3,50,0|0|0|0,0:0|0:0|0:0|0:0,0:0:0:0:
11,191,52971,2,0,B|62:220,3,50,0|0|0|0,0:0|0:0|0:0|0:0,0:0:0:0:
74,309,53271,2,0,B|18:339,3,50,0|0|0|0,0:0|0:0|0:0|0:0,0:0:0:0:
145,254,53571,6,0,P|241:243|346:299,1,200,4|0,0:0|0:0,0:0:0:0:
394,96,54171,2,0,L|383:24,2,66.6666666666667,0|0|0,0:0|0:0|0:0,0:0:0:0:
486,59,54471,2,0,B|504:214,1,133.333333333333,2|0,0:0|0:0,0:0:0:0:
375,229,54771,2,0,L|384:302,2,66.6666666666667,0|0|0,0:0|0:0|0:0,0:0:0:0:
241,328,55071,2,0,P|173:358|101:352,1,133.333333333333,2|0,0:3|0:0,0:0:0:0:
82,199,55371,6,0,P|149:168|222:174,1,133.333333333333,2|0,0:3|0:0,0:0:0:0:
369,182,55671,2,0,B|374:38,1,133.333333333333,0|0,0:0|0:0,0:0:0:0:
218,36,55971,2,0,L|145:23,2,66.6666666666667,0|0|0,0:0|0:0|0:0,0:0:0:0:
53,133,56271,2,0,P|126:133|190:169,1,133.333333333333,2|0,0:0|0:0,0:0:0:0:
254,247,56571,2,0,L|264:332,1,66.6666666666667,0|0,0:0|0:0,0:0:0:0:
291,156,56771,1,0,0:0:0:0:
290,156,56871,2,0,L|279:76,1,66.6666666666667,0|0,0:0|0:0,0:0:0:0:
454,40,57171,6,0,P|375:102|258:72,1,200,4|0,0:0|0:0,0:0:0:0:
57,66,57771,2,0,L|52:141,2,66.6666666666667,0|0|0,0:0|0:0|0:0,0:0:0:0:
133,211,58071,2,0,L|125:354,1,133.333333333333,2|0,0:0|0:0,0:0:0:0:
185,288,58371,1,0,0:0:0:0:
251,242,58471,1,0,0:0:0:0:
330,253,58571,1,0,0:0:0:0:
392,305,58671,2,0,P|454:344|528:349,1,133.333333333333,2|0,0:3|0:0,0:0:0:0:
296,329,58971,6,0,P|234:368|160:373,1,133.333333333333,2|0,0:3|0:0,0:0:0:0:
77,220,59271,2,0,P|132:183|198:175,1,133.333333333333,4|0,0:0|0:0,0:0:0:0:
384,56,59571,2,0,P|318:59|260:92,1,133.333333333333,2|0,0:3|0:0,0:0:0:0:
57,78,59871,2,0,P|123:79|183:53,1,133.333333333333,2|0,0:0|0:0,0:0:0:0:
76,195,60171,2,0,L|-4:187,2,66.6666666666667,2|0|0,0:0|0:0|0:0,0:0:0:0:
194,271,60471,2,0,L|271:280,1,66.6666666666667,2|0,0:0|0:0,0:0:0:0:
301,138,60771,6,0,P|343:57|464:36,1,200,4|0,0:0|0:0,0:0:0:0:
394,237,61371,2,0,L|390:311,2,66.6666666666667,0|0|0,0:0|0:0|0:0,0:0:0:0:
496,206,61671,2,0,B|491:368,1,133.333333333333,2|0,0:0|0:0,0:0:0:0:
290,273,61971,2,0,L|285:361,2,66.6666666666667,0|0|0,0:0|0:0|0:0,0:0:0:0:
140,324,62271,2,0,P|66:323|2:287,1,133.333333333333,2|0,0:3|0:0,0:0:0:0:
106,178,62571,6,0,P|119:105|96:35,1,133.333333333333,2|0,0:3|0:0,0:0:0:0:
242,41,62871,2,0,P|315:41|379:77,1,133.333333333333,0|0,0:0|0:0,0:0:0:0:
241,172,63171,2,0,L|307:162,2,66.6666666666667,0|0|0,0:0|0:0|0:0,0:0:0:0:
29,216,63471,2,0,P|101:223|162:266,1,133.333333333333,2|0,0:0|0:0,0:0:0:0:
312,264,63771,2,0,L|388:255,1,66.6666666666667,0|0,0:0|0:0,0:0:0:0:
252,344,63971,1,0,0:0:0:0:
252,344,64071,2,0,L|179:351,1,66.6666666666667,0|0,0:0|0:0,0:0:0:0:
38,90,64371,5,8,1:2:0:0:
83,34,64471,1,0,1:0:0:0:
154,23,64571,1,2,1:3:0:0:
214,61,64671,1,0,1:0:0:0:
234,130,64771,1,8,1:2:0:0:
203,195,64871,1,0,1:0:0:0:
161,260,64971,2,0,P|166:295|202:330,2,66.6666666666667,2|0|0,1:3|1:0|1:0,0:0:0:0:
241,263,65271,2,0,P|263:291|303:306,2,66.6666666666667,2|0|0,1:3|1:0|1:0,0:0:0:0:
203,196,65571,5,0,1:0:0:0:
204,122,65671,1,0,1:0:0:0:
246,62,65771,1,2,1:3:0:0:
314,34,65871,1,2,1:3:0:0:
386,45,65971,1,0,1:0:0:0:
440,95,66071,1,0,1:0:0:0:
466,164,66171,6,0,L|458:250,2,66.6666666666667,2|0|0,1:3|1:0|1:0,0:0:0:0:
364,149,66471,2,0,P|324:144|287:171,1,66.6666666666667,8|0,1:2|1:0,0:0:0:0:
241,262,66671,1,0,1:0:0:0:
241,262,66771,2,0,P|230:333|174:376,1,133.333333333333,8|0,1:2|1:0,0:0:0:0:
63,302,67071,2,0,P|91:287|136:285,1,66.6666666666667,2|0,1:3|1:0,0:0:0:0:
255,181,67271,1,0,1:0:0:0:
255,181,67371,2,0,P|183:170|140:114,1,133.333333333333,8|0,1:2|1:0,0:0:0:0:
333,36,67671,2,0,P|404:46|447:102,1,133.333333333333,8|0,1:2|1:0,0:0:0:0:
285,100,67971,5,4,1:2:0:0:
421,166,72321,6,0,P|360:211|234:188,1,200,2|0,0:0|0:0,0:0:0:0:
242,195,73071,5,0,0:0:0:0:
242,195,73171,2,0,L|248:276,1,66.6666666666667,0|0,0:0|0:0,0:0:0:0:
48,168,73371,2,0,P|73:91|200:43,1,200,4|0,0:0|0:0,0:0:0:0:
357,34,73821,1,0,0:0:0:0:
463,177,73971,2,0,L|393:189,2,66.6666666666667,2|0|0,0:0|0:0|0:0,0:0:0:0:
387,286,74271,2,0,L|246:312,1,133.333333333333,8|0,0:0|0:0,0:0:0:0:
119,318,74571,2,0,L|138:394,2,66.6666666666667,2|0|0,0:0|0:0|0:0,0:0:0:0:
72,253,74871,1,8,0:0:0:0:
41,179,74971,1,0,0:0:0:0:
50,100,75071,1,0,0:0:0:0:
119,57,75171,6,0,P|183:91|257:91,1,133.333333333333,0|0,0:0|0:0,0:0:0:0:
394,118,75471,2,0,P|430:108|479:109,2,66.6666666666667,0|0|0,0:0|0:0|0:0,0:0:0:0:
291,202,75771,2,0,P|222:227|173:282,1,133.333333333333,0|0,0:0|0:0,0:0:0:0:
156,341,76071,1,8,0:1:0:0:
324,334,76771,6,0,L|333:256,1,66.6666666666667,2|0,0:0|0:0,0:0:0:0:
362,82,76971,2,0,P|399:144|463:182,1,133.333333333333,4|0,0:0|0:0,0:0:0:0:
270,78,77271,2,0,P|205:43|131:43,1,133.333333333333,0|0,0:0|0:0,0:0:0:0:
73,59,77571,1,2,0:0:0:0:
19,112,77671,1,0,0:0:0:0:
3,186,77771,1,0,0:0:0:0:
33,255,77871,2,0,P|89:302|161:317,1,133.333333333333,8|0,0:0|0:0,0:0:0:0:
226,187,78171,2,0,P|199:172|155:173,2,66.6666666666667,2|0|0,0:0|0:0|0:0,0:0:0:0:
344,238,78471,2,0,P|352:165|395:105,1,133.333333333333,8|0,0:0|0:0,0:0:0:0:
221,315,78771,6,0,P|293:308|361:337,1,133.333333333333,0|0,0:0|0:0,0:0:0:0:
153,197,79071,1,0,0:0:0:0:
153,197,79171,2,0,L|159:283,1,66.6666666666667,0|0,0:0|0:0,0:0:0:0:
247,91,79371,1,0,0:0:0:0:
247,91,79471,2,0,L|273:174,1,66.6666666666667,0|0,0:0|0:0,0:0:0:0:
350,337,79671,2,0,P|408:292|481:281,1,133.333333333333,8|0,0:0|0:0,0:0:0:0:
344,238,79971,2,0,P|271:248|202:222,1,133.333333333333,0|0,0:0|0:0,0:0:0:0:
96,160,80271,5,2,0:0:0:0:
96,160,80371,2,0,L|89:72,1,66.6666666666667,0|0,0:0|0:0,0:0:0:0:
221,39,80571,2,0,P|305:37|402:129,1,200,4|0,0:0|0:0,0:0:0:0:
437,267,81021,1,0,0:0:0:0:
278,304,81171,2,0,P|204:301|141:264,1,133.333333333333,2|0,0:0|0:0,0:0:0:0:
253,62,81471,2,0,P|224:128|231:201,1,133.333333333333,8|0,0:0|0:0,0:0:0:0:
352,282,81771,2,0,P|388:281|425:294,2,66.6666666666667,2|0|0,0:0|0:0|0:0,0:0:0:0:
189,327,82071,2,0,P|115:332|53:371,1,133.333333333333,8|0,0:0|0:0,0:0:0:0:
1,152,82371,6,0,P|68:181|141:176,1,133.333333333333,0|0,0:0|0:0,0:0:0:0:
285,157,82671,2,0,L|273:238,2,66.6666666666667,0|0|0,0:0|0:0|0:0,0:0:0:0:
415,252,82971,2,0,L|426:174,2,66.6666666666667,0|0|0,0:0|0:0|0:0,0:0:0:0:
256,192,83271,12,4,83871,0:3:0:0:
51,54,84171,6,0,L|33:165,1,100,2|0,0:0|0:0,0:0:0:0:
201,94,84471,2,0,L|225:203,1,100,2|0,0:0|0:0,0:0:0:0:
402,127,84771,1,2,0:0:0:0:
402,127,84871,2,0,L|428:209,1,66.6666666666667,0|0,0:0|0:0,0:0:0:0:
410,308,85071,2,0,P|338:292|267:313,1,133.333333333333,8|0,0:0|0:0,0:0:0:0:
142,325,85371,2,0,P|107:336|59:321,2,66.6666666666667,8|0|8,0:0|0:0|0:0,0:0:0:0:
248,234,85671,2,0,P|279:218|315:217,1,66.6666666666667,0|0,0:0|0:0,0:0:0:0:
166,45,85971,5,4,0:0:0:0:
109,282,86271,1,4,0:0:0:0:
346,339,86571,1,4,0:0:0:0:
403,105,86871,2,0,L|410:74,23,16.6666666666667,4|0|0|0|0|0|0|0|0|0|0|0|0|0|0|0|0|0|0|0|0|0|0|0,0:0|0:0|0:0|0:0|0:0|0:0|0:0|0:0|0:0|0:0|0:0|0:0|0:0|0:0|0:0|0:0|0:0|0:0|0:0|0:0|0:0|0:0|0:0|0:0,0:0:0:0:
424,73,87471,1,4,0:0:0:0:
33,136,87771,6,0,P|56:80|97:48,1,100,4|0,0:0|0:0,0:0:0:0:
227,104,88071,2,0,P|242:155|279:193,1,100,0|0,0:0|0:0,0:0:0:0:
216,318,88371,2,0,L|146:340,2,66.6666666666667,2|0|0,0:0|0:0|0:0,0:0:0:0:
294,313,88671,1,2,0:0:0:0:
366,340,88771,1,0,0:0:0:0:
441,325,88871,1,0,0:0:0:0:
482,259,88971,2,0,L|494:166,2,66.6666666666667,0|0|0,0:0|0:0|0:0,0:0:0:0:
377,64,89271,2,0,L|300:69,2,66.6666666666667,8|0|0,0:0|0:0|0:0,0:0:0:0:
361,191,89571,6,0,P|313:211|258:198,1,100,4|0,0:0|0:0,0:0:0:0:
102,185,89871,2,0,L|116:148,5,33.3333333333333,0|0|0|0|0|0,0:0|0:0|0:0|0:0|0:0|0:0,0:0:0:0:
58,165,90171,2,0,L|62:93,2,66.6666666666667,2|0|0,0:0|0:0|0:0,0:0:0:0:
44,237,90471,1,2,0:0:0:0:
81,300,90571,1,0,0:0:0:0:
152,320,90671,1,0,0:0:0:0:
223,335,90771,2,0,L|241:378,5,33.3333333333333,0|0|0|0|0|0,0:0|0:0|0:0|0:0|0:0|0:0,0:0:0:0:
273,337,91071,2,0,P|340:366|413:361,1,133.333333333333,2|0,0:0|0:0,0:0:0:0:
431,202,91371,6,0,P|434:134|456:85,1,100,2|0,0:3|0:0,0:0:0:0:
233,222,91671,2,0,P|213:287|189:330,1,100,2|0,0:3|0:0,0:0:0:0:
143,86,91971,2,0,P|83:53|43:16,1,100,2|0,0:0|0:0,0:0:0:0:
323,129,92271,2,0,P|390:135|439:153,1,100,2|0,0:3|0:0,0:0:0:0:
175,253,92571,2,0,P|109:272|63:300,1,100,2|0,0:0|0:0,0:0:0:0:
256,38,92871,2,0,L|240:77,5,33.3333333333333,4|0|0|0|0|0,0:0|0:0|0:0|0:0|0:0|0:0,0:0:0:0:
297,41,93171,6,0,L|408:52,1,100,4|2,1:3|0:0,0:0:0:0:
104,231,93471,2,0,L|58:130,1,100,4|2,1:3|0:0,0:0:0:0:
366,303,93771,2,0,L|301:393,1,100,4|2,1:3|0:0,0:0:0:0:
256,192,94071,1,4,1:3:0:0:
101,208,94671,6,0,L|108:246,5,33.3333333333333,2|0|0|0|0|0,0:0|0:0|0:0|0:0|0:0|0:0,0:0:0:0:
50,244,94971,2,0,L|46:329,2,66.6666666666667,4|0|0,0:0|0:0|0:0,0:0:0:0:
33,172,95271,1,0,0:0:0:0:
40,99,95371,1,0,0:0:0:0:
94,49,95471,1,0,0:0:0:0:
168,52,95571,2,0,P|241:52|306:17,1,133.333333333333,2|0,0:3|0:0,0:0:0:0:
455,124,95871,2,0,P|383:140|328:189,1,133.333333333333,2|0,0:3|0:0,0:0:0:0:
412,290,96171,2,0,L|401:364,2,66.6666666666667,2|0|0,0:0|0:0|0:0,0:0:0:0:
285,218,96471,2,0,P|274:145|231:85,1,133.333333333333,2|0,0:3|0:0,0:0:0:0:
24,57,96771,6,0,P|34:129|77:189,1,133.333333333333,4|0,0:0|0:0,0:0:0:0:
167,52,97071,2,0,P|203:42|244:41,2,66.6666666666667,8|0|0,0:0|0:0|0:0,0:0:0:0:
36,193,97371,2,0,P|0:245|13:327,1,133.333333333333,8|0,0:0|0:0,0:0:0:0:
94,273,97671,1,4,0:0:0:0:
414,253,98271,6,0,L|404:301,5,33.3333333333333,2|0|0|0|0|0,0:0|0:0|0:0|0:0|0:0|0:0,0:0:0:0:
451,278,98571,2,0,L|466:361,2,66.6666666666667,4|0|0,0:0|0:0|0:0,0:0:0:0:
423,138,98871,2,0,P|358:103|284:103,1,133.333333333333,0|0,0:0|0:0,0:0:0:0:
227,124,99171,1,2,0:0:0:0:
152,138,99271,1,0,0:0:0:0:
79,117,99371,1,0,0:0:0:0:
11,82,99471,2,0,L|6:237,1,133.333333333333,8|0,0:0|0:0,0:0:0:0:
99,274,99771,2,0,L|98:348,2,66.6666666666667,2|0|0,0:3|0:0|0:0,0:0:0:0:
235,237,100071,2,0,P|307:247|367:290,1,133.333333333333,2|0,0:0|0:0,0:0:0:0:
349,74,100371,6,0,P|276:63|216:20,1,133.333333333333,4|0,1:2|1:0,0:0:0:0:
74,51,100671,1,0,1:0:0:0:
74,51,100771,2,0,L|79:130,1,66.6666666666667,0|0,1:0|1:0,0:0:0:0:
14,266,100971,1,0,1:0:0:0:
14,266,101071,2,0,L|22:348,1,66.6666666666667,0|0,1:0|1:0,0:0:0:0:
178,364,101271,2,0,P|252:359|315:321,1,133.333333333333,0|0,1:0|1:0,0:0:0:0:
466,305,101571,2,0,P|469:232|508:169,1,133.333333333333,0|0,0:0|0:0,0:0:0:0:
446,59,101871,6,0,L|487:65,5,33.3333333333333,2|0|0|0|0|0,0:0|0:0|0:0|0:0|0:0|0:0,0:0:0:0:
421,31,102171,2,0,L|498:16,2,66.6666666666667,4|0|0,0:0|0:0|0:0,0:0:0:0:
351,57,102471,1,0,0:0:0:0:
280,77,102571,1,0,0:0:0:0:
207,67,102671,1,0,0:0:0:0:
138,42,102771,2,0,P|64:45|0:81,1,133.333333333333,2|0,0:3|0:0,0:0:0:0:
4,220,103071,2,0,B|26:357,1,133.333333333333,2|0,0:3|0:0,0:0:0:0:
177,246,103371,2,0,P|233:198|305:181,1,133.333333333333,2|0,0:0|0:0,0:0:0:0:
426,93,103671,2,0,L|435:51,5,33.3333333333333,2|0|0|0|0|0,0:3|0:0|0:0|0:0|0:0|0:0,0:0:0:0:
472,102,103971,6,0,P|451:172|466:245,1,133.333333333333,4|0,0:0|0:0,0:0:0:0:
361,288,104271,2,0,L|374:362,2,66.6666666666667,8|0|0,0:0|0:0|0:0,0:0:0:0:
235,245,104571,2,0,P|161:251|99:290,1,133.333333333333,8|0,0:0|0:0,0:0:0:0:
61,337,104871,1,4,0:3:0:0:
344,222,105471,6,0,L|387:224,5,33.3333333333333,2|0|0|0|0|0,0:0|0:0|0:0|0:0|0:0|0:0,0:0:0:0:
383,177,105771,2,0,L|452:214,2,66.6666666666667,4|0|0,0:0|0:0|0:0,0:0:0:0:
270,78,106071,2,0,P|205:43|131:43,1,133.333333333333,0|0,0:0|0:0,0:0:0:0:
74,61,106371,1,2,0:0:0:0:
17,110,106471,1,0,0:0:0:0:
2,185,106571,1,0,0:0:0:0:
33,255,106671,2,0,P|89:302|161:317,1,133.333333333333,8|0,0:0|0:0,0:0:0:0:
226,187,106971,2,0,P|199:172|155:173,2,66.6666666666667,2|0|0,0:3|0:0|0:0,0:0:0:0:
344,237,107271,2,0,P|356:164|402:107,1,133.333333333333,2|0,0:0|0:0,0:0:0:0:
212,307,107571,6,0,P|283:317|342:360,1,133.333333333333,0|0,1:0|1:0,0:0:0:0:
445,257,107871,1,0,1:0:0:0:
445,257,107971,2,0,L|434:175,1,66.6666666666667,0|0,1:0|1:0,0:0:0:0:
303,170,108171,1,0,1:0:0:0:
303,170,108271,2,0,L|272:96,1,66.6666666666667,0|0,1:0|1:0,0:0:0:0:
186,230,108471,2,0,P|137:179|25:212,1,200,0|0,1:0|0:0,0:0:0:0:
6,144,110871,6,0,L|0:100,5,33.3333333333333,0|0|0|0|0|0,0:0|0:0|0:0|0:0|0:0|0:0,0:0:0:0:
12,75,111171,2,0,P|77:36|218:51,1,200,4|0,0:3|0:0,0:0:0:0:
256,192,111771,1,8,0:0:0:0:
500,309,112071,2,0,P|435:348|294:333,2,200,0|8|0,0:0|0:0|0:0,0:0:0:0:
256,192,112971,6,0,P|321:153|462:168,1,200,0|0,0:0|0:0,0:0:0:0:
245,351,113571,1,8,0:0:0:0:
61,187,113871,2,0,P|59:246|33:295,2,100,0|0|0,0:0|0:0|0:0,0:0:0:0:
86,60,114321,1,8,0:0:0:0:
213,39,114471,2,0,P|293:35|361:66,1,133.333333333333,8|8,0:0|0:0,0:0:0:0:
383,227,114771,6,0,P|343:170|201:154,1,200,0|0,0:0|0:0,0:0:0:0:
52,258,115221,2,0,L|40:368,1,100,8|0,0:0|0:0,0:0:0:0:
181,346,115521,1,0,0:0:0:0:
318,337,115671,2,0,L|339:381,3,33.3333333333333,8|0|0|0,0:0|0:0|0:0|0:0,0:0:0:0:
445,287,115971,2,0,L|488:305,3,33.3333333333333,8|0|0|0,0:0|0:0|0:0|0:0,0:0:0:0:
436,148,116271,5,0,0:0:0:0:
455,77,116371,1,0,0:0:0:0:
392,38,116471,1,0,0:0:0:0:
321,53,116571,2,0,P|260:57|174:15,1,133.333333333333,8|0,0:0|0:0,0:0:0:0:
59,158,116871,2,0,P|114:126|197:129,1,133.333333333333,8|8,0:0|0:0,0:0:0:0:
60,308,117171,2,0,P|92:253|168:218,1,133.333333333333,8|0,0:0|0:0,0:0:0:0:
250,348,117471,2,0,L|328:363,1,66.6666666666667,8|0,0:1|0:0,0:0:0:0:
297,213,117671,1,8,0:0:0:0:
297,213,117771,2,0,L|291:137,1,66.6666666666667,8|0,0:0|0:0,0:0:0:0:
424,120,117971,1,0,0:0:0:0:
424,120,118071,2,0,L|386:55,1,66.6666666666667,8|8,0:0|0:0,0:0:0:0:
191,26,118371,6,0,P|230:91|212:234,1,200,4|0,0:3|0:0,0:0:0:0:
98,251,118821,1,0,0:0:0:0:
21,162,118971,1,8,0:0:0:0:
137,138,119121,1,0,0:0:0:0:
212,280,119271,2,0,P|162:342|27:356,2,200,0|8|0,0:0|0:0|0:0,0:0:0:0:
343,50,120171,5,8,0:0:0:0:
266,331,120771,1,8,0:0:0:0:
428,342,121071,2,0,P|476:298|494:183,1,166.666666666667,8|8,0:0|0:0,0:0:0:0:
510,27,121521,2,0,P|400:52|333:27,1,166.666666666667,0|0,0:0|0:0,0:0:0:0:
159,35,121971,5,0,0:0:0:0:
258,101,122121,1,0,0:0:0:0:
288,217,122271,1,0,0:0:0:0:
146,314,122421,2,0,P|97:337|42:329,1,100,8|0,0:0|0:0,0:0:0:0:
75,199,122721,1,0,0:0:0:0:
253,314,122871,1,4,0:3:0:0:
256,192,122921,12,0,123671,0:0:0:0:
251,32,123771,6,0,P|312:28|398:75,1,133.333333333333,0|0,1:0|1:0,0:0:0:0:
332,264,124071,2,0,P|300:209|303:125,1,133.333333333333,8|8,1:2|1:2,0:0:0:0:
106,177,124371,2,0,P|161:209|197:290,1,133.333333333333,8|0,1:2|1:0,0:0:0:0:
329,351,124671,2,0,L|411:334,1,66.6666666666667,8|0,1:2|1:0,0:0:0:0:
466,174,124871,1,8,1:2:0:0:
466,174,124971,2,0,L|395:191,1,66.6666666666667,8|8,1:2|1:2,0:0:0:0:
265,80,125171,1,0,0:0:0:0:
265,80,125271,2,0,L|339:63,2,66.6666666666667,8|8|0,1:2|1:2|1:0,0:0:0:0:
196,238,125571,6,0,P|121:253|-7:189,1,200,4|0,0:3|0:0,0:0:0:0:
27,96,126021,1,0,0:0:0:0:
121,24,126171,1,8,0:0:0:0:
135,142,126321,1,0,0:0:0:0:
265,80,126471,2,0,P|330:41|473:58,2,200,0|8|0,0:0|0:0|0:0,0:0:0:0:
202,197,127221,1,0,0:0:0:0:
95,276,127371,6,0,P|55:296|-13:285,1,100,0|0,0:0|0:0,0:0:0:0:
246,364,127821,1,0,0:0:0:0:
353,326,127971,2,0,P|397:319|462:348,1,100,8|0,0:0|0:0,0:0:0:0:
501,235,128271,2,0,P|454:241|394:215,2,100,0|0|0,0:0|0:0|0:0,0:0:0:0:
465,115,128721,2,0,L|450:6,1,100,8|0,0:0|0:0,0:0:0:0:
204,44,129071,5,8,0:0:0:0:
204,44,129171,2,0,P|211:98|191:166,1,100,0|0,0:0|0:0,0:0:0:0:
360,217,129471,2,0,P|305:221|265:262,1,100,0|8,0:0|0:0,0:0:0:0:
157,350,129771,1,0,0:0:0:0:
42,243,129921,1,0,0:0:0:0:
94,89,130071,2,0,L|85:40,3,33.3333333333333,8|0|0|0,0:0|0:0|0:0|0:0,0:0:0:0:
241,109,130371,2,0,L|247:58,3,33.3333333333333,8|0|0|0,0:0|0:0|0:0|0:0,0:0:0:0:
357,189,130671,5,0,0:0:0:0:
332,120,130771,1,0,0:0:0:0:
357,51,130871,1,0,0:0:0:0:
430,41,130971,2,0,L|524:66,1,66.6666666666667,8|8,0:0|0:0,0:0:0:0:
465,159,131171,1,0,0:0:0:0:
465,159,131271,2,0,L|483:306,1,133.333333333333,8|8,0:0|0:0,0:0:0:0:
295,286,131571,6,0,P|357:296|417:359,1,133.333333333333,8|0,0:0|0:0,0:0:0:0:
189,360,131871,2,0,L|113:364,1,66.6666666666667,8|0,0:1|0:0,0:0:0:0:
146,224,132071,1,8,0:0:0:0:
146,224,132171,2,0,L|165:151,1,66.6666666666667,8|8,0:0|0:0,0:0:0:0:
51,38,132371,1,0,0:0:0:0:
51,38,132471,2,0,L|32:110,2,66.6666666666667,8|8|0,0:0|0:0|0:0,0:0:0:0:
253,69,132771,6,0,P|318:30|460:48,1,200,4|0,0:3|0:0,0:0:0:0:
365,152,133221,1,0,0:0:0:0:
256,190,133371,1,8,0:0:0:0:
146,224,133521,1,0,0:0:0:0:
55,338,133671,2,0,P|161:361|259:315,2,200,0|8|0,0:0|0:0|0:0,0:0:0:0:
27,202,134421,1,0,0:0:0:0:
81,24,134571,6,0,P|83:68|125:125,2,100,8|0|0,0:0|0:0|0:0,0:0:0:0:
190,242,135171,2,0,P|150:222|86:231,1,100,8|0,0:0|0:0,0:0:0:0:
253,48,135471,2,0,P|298:59|422:7,1,166.666666666667,8|8,0:0|0:0,0:0:0:0:
248,184,135921,2,0,P|351:138|419:150,1,166.666666666667,0|0,0:0|0:0,0:0:0:0:
505,302,136371,5,0,0:0:0:0:
392,344,136521,1,0,0:0:0:0:
277,308,136671,1,0,0:0:0:0:
397,194,136821,2,0,P|365:147|316:117,1,100,8|0,0:0|0:0,0:0:0:0:
214,86,137121,1,0,0:0:0:0:
96,249,137271,1,4,0:3:0:0:
256,192,137321,12,0,138071,0:0:0:0:
96,249,138171,6,0,P|76:189|5:147,1,133.333333333333,0|0,1:0|1:0,0:0:0:0:
216,25,138471,2,0,P|161:57|77:56,1,133.333333333333,8|8,1:2|1:2,0:0:0:0:
207,172,138771,2,0,P|262:204|301:280,1,133.333333333333,8|0,1:2|1:0,0:0:0:0:
439,351,139071,2,0,L|446:275,1,66.6666666666667,8|0,1:2|1:0,0:0:0:0:
357,186,139271,1,8,1:2:0:0:
357,186,139371,2,0,L|367:111,1,66.6666666666667,8|8,1:2|1:2,0:0:0:0:
210,88,139571,1,0,1:0:0:0:
210,88,139671,2,0,L|217:14,2,66.6666666666667,8|8|0,1:2|1:2|1:0,0:0:0:0:
186,274,139971,6,0,P|129:336|-5:344,1,200,4|0,0:3|0:0,0:0:0:0:
54,203,140421,1,0,0:0:0:0:
76,89,140571,1,8,0:0:0:0:
174,30,140721,1,0,0:0:0:0:
324,61,140871,2,0,P|418:73|529:3,2,200,0|8|0,0:0|0:0|0:0,0:0:0:0:
174,185,141621,1,0,0:0:0:0:
46,327,141771,6,0,P|86:307|156:314,1,100,8|0,0:0|0:0,0:0:0:0:
376,342,142221,1,0,0:0:0:0:
376,342,142371,2,0,P|314:337|273:358,1,100,8|0,0:0|0:0,0:0:0:0:
473,205,142671,2,0,P|468:253|496:307,2,100,0|0|0,0:0|0:0|0:0,0:0:0:0:
379,35,143121,2,0,P|399:78|391:141,1,100,8|8,0:0|0:0,0:0:0:0:
305,310,143471,5,8,0:0:0:0:
305,309,143571,2,0,P|255:286|186:286,1,100,0|0,0:0|0:0,0:0:0:0:
249,134,143871,2,0,P|301:118|340:76,1,100,0|8,0:0|0:0,0:0:0:0:
240,20,144171,1,0,0:0:0:0:
127,44,144321,1,0,0:0:0:0:
16,77,144471,2,0,L|5:126,3,33.3333333333333,8|0|0|0,0:0|0:0|0:0|0:0,0:0:0:0:
134,200,144771,2,0,L|126:251,3,33.3333333333333,8|0|0|0,0:0|0:0|0:0|0:0,0:0:0:0:
250,87,145071,5,0,0:0:0:0:
312,47,145171,1,0,0:0:0:0:
385,46,145271,1,0,0:0:0:0:
457,59,145371,2,0,L|484:144,1,66.6666666666667,8|8,0:0|0:0,0:0:0:0:
460,268,145571,1,0,0:0:0:0:
460,268,145671,2,0,P|430:214|358:165,1,133.333333333333,8|8,0:0|0:0,0:0:0:0:
242,238,145971,6,0,P|304:248|363:306,1,133.333333333333,8|0,0:0|0:0,0:0:0:0:
215,352,146271,2,0,L|136:360,1,66.6666666666667,8|0,0:0|0:0,0:0:0:0:
40,269,146471,1,8,0:0:0:0:
40,269,146571,2,0,L|31:196,1,66.6666666666667,8|8,0:0|0:0,0:0:0:0:
109,58,146771,1,0,0:0:0:0:
109,58,146871,2,0,L|119:132,1,66.6666666666667,8|8,0:0|0:0,0:0:0:0:
294,330,147171,6,0,P|271:257|319:125,1,200,4|0,0:3|0:0,0:0:0:0:
478,285,147621,1,0,0:0:0:0:
370,239,147771,1,8,0:0:0:0:
464,167,147921,1,0,0:0:0:0:
250,104,148071,2,0,P|365:98|434:25,2,200,0|8|0,0:0|0:0|0:0,0:0:0:0:
108,58,148821,1,0,0:0:0:0:
9,181,148971,6,0,L|-2:299,1,100,8|0,0:0|0:0,0:0:0:0:
257,244,149421,1,0,0:0:0:0:
257,244,149571,2,0,L|277:358,1,100,8|0,0:0|0:0,0:0:0:0:
330,173,149871,2,0,P|357:135|490:99,1,166.666666666667,8|8,0:0|0:0,0:0:0:0:
171,133,150321,2,0,P|279:102|328:48,1,166.666666666667,0|0,0:0|0:0,0:0:0:0:
484,24,150771,5,0,0:0:0:0:
464,133,150921,1,0,0:0:0:0:
445,243,151071,1,0,0:0:0:0:
424,351,151221,2,0,L|309:309,1,100,8|0,0:0|0:0,0:0:0:0:
197,347,151521,1,0,0:0:0:0:
182,184,151671,2,0,L|172:132,3,33.3333333333333,8|0|0|0,0:0|0:0|0:0|0:0,0:0:0:0:
22,137,151971,2,0,L|2:92,3,33.3333333333333,8|0|0|0,0:0|0:0|0:0|0:0,0:0:0:0:
57,351,152271,5,0,0:0:0:0:
115,307,152371,1,0,0:0:0:0:
187,294,152471,1,0,0:0:0:0:
261,300,152571,2,0,P|324:302|396:250,1,133.333333333333,2|0,0:0|0:0,0:0:0:0:
394,41,152871,2,0,P|330:44|272:104,1,133.333333333333,2|0,0:0|0:0,0:0:0:0:
113,163,153171,2,0,P|157:210|249:217,1,133.333333333333,2|0,0:0|0:0,0:0:0:0:
209,31,153471,6,0,L|202:110,1,66.6666666666667,8|0,0:0|0:0,0:0:0:0:
345,143,153671,1,0,0:0:0:0:
345,143,153771,2,0,L|339:220,1,66.6666666666667,8|0,0:0|0:0,0:0:0:0:
472,269,153971,1,0,0:0:0:0:
472,269,154071,2,0,L|466:343,2,66.6666666666667,8|0|0,0:0|0:0|0:0,0:0:0:0:
303,300,154371,6,0,P|250:339|186:353,1,133.333333333333,4|0,0:0|0:0,0:0:0:0:
168,170,154671,2,0,P|220:130|284:116,1,133.333333333333,0|0,0:0|0:0,0:0:0:0:
464,72,154971,2,0,L|460:141,2,66.6666666666667,2|0|0,0:0|0:0|0:0,0:0:0:0:
287,38,155271,2,0,L|213:48,1,66.6666666666667,8|0,0:0|0:0,0:0:0:0:
46,88,155471,1,0,0:0:0:0:
46,88,155571,2,0,L|49:-1,1,66.6666666666667,8|0,0:0|0:0,0:0:0:0:
70,252,155871,6,0,L|3:298,2,66.6666666666667,2|0|0,0:0|0:0|0:0,0:0:0:0:
179,315,156171,2,0,L|157:393,2,66.6666666666667,2|0|0,0:0|0:0|0:0,0:0:0:0:
304,312,156471,2,0,L|339:383,2,66.6666666666667,2|0|0,0:0|0:0|0:0,0:0:0:0:
434,295,156771,2,0,L|506:326,2,66.6666666666667,2|0|0,0:3|0:0|0:0,0:0:0:0:
504,197,157071,1,2,0:3:0:0:
206,174,157271,5,0,1:0:0:0:
281,188,157371,1,0,1:0:0:0:
355,170,157471,1,0,1:0:0:0:
410,118,157571,1,0,1:0:0:0:
426,44,157671,1,0,1:0:0:0:
229,36,157871,5,0,0:0:0:0:
229,36,157971,2,0,P|111:64|63:144,1,200,4|0,0:0|0:0,0:0:0:0:
352,197,158571,1,2,0:0:0:0:
352,197,158671,2,0,L|354:272,1,66.6666666666667,0|0,0:0|0:0,0:0:0:0:
166,339,158871,2,0,P|225:315|315:338,1,133.333333333333,2|0,0:0|0:0,0:0:0:0:
203,280,159171,1,2,0:3:0:0:
203,280,159271,2,0,P|154:270|116:243,1,66.6666666666667,0|0,0:0|0:0,0:0:0:0:
21,220,159471,1,2,0:3:0:0:
21,220,159571,2,0,L|17:308,1,66.6666666666667,0|0,0:0|0:0,0:0:0:0:
22,104,159771,6,0,P|106:49|208:100,1,200,4|0,0:0|1:0,0:0:0:0:
228,146,160171,1,0,1:0:0:0:
257,213,160271,1,0,1:0:0:0:
315,258,160371,1,0,1:0:0:0:
388,263,160471,1,0,1:0:0:0:
455,234,160571,1,0,1:0:0:0:
489,169,160671,1,0,1:0:0:0:
256,192,160721,12,0,161421,0:0:0:0:
294,81,161571,6,0,P|354:170|343:281,1,200,4|0,0:0|0:0,0:0:0:0:
96,290,162171,2,0,P|125:227|203:201,1,133.333333333333,2|0,0:0|0:0,0:0:0:0:
310,309,162471,2,0,P|247:271|172:290,1,133.333333333333,2|0,0:3|0:0,0:0:0:0:
240,144,162771,2,0,P|320:152|434:70,1,200,2|0,0:0|0:0,0:0:0:0:
450,24,163171,1,0,0:0:0:0:
427,252,163371,6,0,P|347:225|285:253,1,133.333333333333,4|0,0:0|0:0,0:0:0:0:
162,278,163671,2,0,P|79:286|24:245,1,133.333333333333,8|0,0:0|0:0,0:0:0:0:
8,194,163971,1,0,1:0:0:0:
15,121,164071,1,0,1:0:0:0:
66,69,164171,1,0,1:0:0:0:
134,43,164271,1,0,1:0:0:0:
230,199,164871,5,4,0:0:0:0:
117,160,165171,2,0,P|194:86|298:106,1,200,2|0,0:0|0:0,0:0:0:0:
230,199,165771,1,0,0:0:0:0:
339,237,166071,2,0,P|261:310|157:290,1,200,2|0,0:0|0:0,0:0:0:0:
307,77,166671,1,2,0:3:0:0:
385,48,166771,1,2,0:3:0:0:
463,76,166871,1,2,0:3:0:0:
506,146,166971,1,2,0:3:0:0:
372,198,167271,5,0,0:0:0:0:
362,222,167571,1,0,0:0:0:0:
359,247,167871,1,4,0:2:0:0:
