osu file format v14

[General]
AudioFilename: 01. Barbecue.mp3
AudioLeadIn: 0
PreviewTime: 95982
Countdown: 0
SampleSet: Normal
StackLeniency: 0.7
Mode: 3
LetterboxInBreaks: 0
SpecialStyle: 0
WidescreenStoryboard: 1

[Editor]
DistanceSpacing: 0.9
BeatDivisor: 4
GridSize: 32
TimelineZoom: 2.599999

[Metadata]
Title:Barbecue
TitleUnicode:Barbecue
Artist:Igorrr & Ruby My Dear
ArtistUnicode:Igorrr & Ruby My Dear
Creator:JamesHappy
Version:Raw
Source:
Tags:
BeatmapID:1093811
BeatmapSetID:515053

[Difficulty]
HPDrainRate:7
CircleSize:5
OverallDifficulty:7.8
ApproachRate:9
SliderMultiplier:1.6
SliderTickRate:1

[Events]
//Background and Video events
0,0,"1q2w3e.jpg",0,0
//Break Periods
//Storyboard Layer 0 (Background)
//Storyboard Layer 1 (Fail)
//Storyboard Layer 2 (Pass)
//Storyboard Layer 3 (Foreground)
//Storyboard Sound Samples

[TimingPoints]
582,400,3,1,0,90,1,0
582,-75.187969924812,3,1,0,90,0,0
50982,300,3,1,0,60,1,0
99582,400,3,1,0,90,1,0
99582,-75.187969924812,3,1,0,90,0,0
128382,300,3,1,0,90,1,0
212982,-100,3,1,0,90,0,1
220182,-100,3,1,0,90,0,0

[Colours]
Combo1 : 253,202,0
Combo2 : 217,9,9
Combo3 : 241,84,7

[HitObjects]
51,192,582,128,0,682:0:0:0:0:
153,192,582,128,0,682:0:0:0:0:
153,192,982,128,0,1082:0:0:0:0:
358,192,982,128,0,1082:0:0:0:0:
358,192,1382,128,0,1482:0:0:0:0:
460,192,1382,128,0,1482:0:0:0:0:
256,192,1382,1,0,0:0:0:0:
51,192,1782,128,0,1882:0:0:0:0:
153,192,1782,128,0,1882:0:0:0:0:
153,192,2182,128,0,2282:0:0:0:0:
358,192,2182,128,0,2282:0:0:0:0:
358,192,2582,128,0,2682:0:0:0:0:
460,192,2582,128,0,2682:0:0:0:0:
256,192,2582,1,0,0:0:0:0:
358,192,2982,128,0,3082:0:0:0:0:
460,192,2982,128,0,3082:0:0:0:0:
256,192,2982,1,0,0:0:0:0:
153,192,3382,128,0,3482:0:0:0:0:
51,192,3382,128,0,3482:0:0:0:0:
256,192,3382,1,0,0:0:0:0:
153,192,3782,128,0,3882:0:0:0:0:
358,192,3782,128,0,3882:0:0:0:0:
51,192,4182,128,0,4282:0:0:0:0:
460,192,4182,128,0,4282:0:0:0:0:
256,192,4182,1,0,0:0:0:0:
153,192,4582,128,0,4682:0:0:0:0:
51,192,4582,128,0,4682:0:0:0:0:
51,192,4982,128,0,5082:0:0:0:0:
358,192,4982,128,0,5082:0:0:0:0:
358,192,5382,128,0,5482:0:0:0:0:
460,192,5382,128,0,5482:0:0:0:0:
256,192,5382,1,0,0:0:0:0:
153,192,5782,128,0,5882:0:0:0:0:
51,192,5782,128,0,5882:0:0:0:0:
358,192,5982,128,0,6082:0:0:0:0:
460,192,5982,1,0,0:0:0:0:
51,192,6182,128,0,6282:0:0:0:0:
153,192,6182,128,0,6282:0:0:0:0:
358,192,6382,128,0,6482:0:0:0:0:
256,192,6382,1,0,0:0:0:0:
460,192,6582,128,0,6682:0:0:0:0:
51,192,6582,128,0,6682:0:0:0:0:
153,192,6582,1,0,0:0:0:0:
358,192,6982,128,0,7082:0:0:0:0:
460,192,6982,128,0,7082:0:0:0:0:
153,192,7182,128,0,7282:0:0:0:0:
51,192,7182,128,0,7282:0:0:0:0:
256,192,7182,1,0,0:0:0:0:
358,192,7382,128,0,7482:0:0:0:0:
460,192,7382,128,0,7482:0:0:0:0:
51,192,7582,128,0,7682:0:0:0:0:
256,192,7582,1,0,0:0:0:0:
460,192,7782,128,0,7882:0:0:0:0:
358,192,7782,128,0,7882:0:0:0:0:
256,192,7782,1,0,0:0:0:0:
256,192,8182,128,0,8282:0:0:0:0:
358,192,8182,128,0,8282:0:0:0:0:
51,192,8382,128,0,8482:0:0:0:0:
460,192,8382,1,0,0:0:0:0:
460,192,8582,128,0,8682:0:0:0:0:
358,192,8582,128,0,8682:0:0:0:0:
51,192,8982,128,0,9082:0:0:0:0:
153,192,8982,128,0,9082:0:0:0:0:
153,192,9382,128,0,9482:0:0:0:0:
358,192,9382,128,0,9482:0:0:0:0:
358,192,9782,128,0,9882:0:0:0:0:
460,192,9782,128,0,9882:0:0:0:0:
153,192,10182,128,0,10282:0:0:0:0:
51,192,10182,128,0,10282:0:0:0:0:
153,192,10582,128,0,10682:0:0:0:0:
358,192,10582,128,0,10682:0:0:0:0:
358,192,10982,128,0,11082:0:0:0:0:
460,192,10982,128,0,11082:0:0:0:0:
256,192,10982,1,0,0:0:0:0:
51,192,11382,128,0,11482:0:0:0:0:
153,192,11382,128,0,11482:0:0:0:0:
358,192,11782,128,0,11882:0:0:0:0:
153,192,11782,128,0,11882:0:0:0:0:
460,192,12182,128,0,12282:0:0:0:0:
358,192,12182,128,0,12282:0:0:0:0:
256,192,12182,1,0,0:0:0:0:
358,192,12582,128,0,12682:0:0:0:0:
460,192,12582,128,0,12682:0:0:0:0:
256,192,12582,1,0,0:0:0:0:
153,192,12982,128,0,13082:0:0:0:0:
51,192,12982,128,0,13082:0:0:0:0:
256,192,12982,1,0,0:0:0:0:
358,192,13382,128,0,13482:0:0:0:0:
153,192,13382,128,0,13482:0:0:0:0:
460,192,13782,128,0,13882:0:0:0:0:
256,192,13782,128,0,13882:0:0:0:0:
51,192,13782,1,0,0:0:0:0:
51,192,14182,128,0,14282:0:0:0:0:
153,192,14182,128,0,14282:0:0:0:0:
51,192,14582,128,0,14682:0:0:0:0:
358,192,14582,128,0,14682:0:0:0:0:
460,192,14982,128,0,15082:0:0:0:0:
358,192,14982,128,0,15082:0:0:0:0:
256,192,14982,1,0,0:0:0:0:
153,192,15382,128,0,15482:0:0:0:0:
51,192,15382,128,0,15482:0:0:0:0:
460,192,15582,128,0,15682:0:0:0:0:
256,192,15582,1,0,0:0:0:0:
51,192,15782,128,0,15882:0:0:0:0:
153,192,15782,128,0,15882:0:0:0:0:
358,192,15982,128,0,16082:0:0:0:0:
256,192,15982,1,0,0:0:0:0:
358,192,16182,128,0,16282:0:0:0:0:
460,192,16182,128,0,16282:0:0:0:0:
153,192,16182,1,0,0:0:0:0:
460,192,16582,128,0,16682:0:0:0:0:
358,192,16582,128,0,16682:0:0:0:0:
51,192,16782,128,0,16882:0:0:0:0:
256,192,16782,1,0,0:0:0:0:
460,192,16982,128,0,17082:0:0:0:0:
358,192,16982,128,0,17082:0:0:0:0:
153,192,17182,128,0,17282:0:0:0:0:
256,192,17182,1,0,0:0:0:0:
153,192,17382,128,0,17482:0:0:0:0:
51,192,17382,128,0,17482:0:0:0:0:
358,192,17382,1,0,0:0:0:0:
460,192,17782,128,0,17882:0:0:0:0:
358,192,17782,128,0,17882:0:0:0:0:
51,192,17982,128,0,18082:0:0:0:0:
153,192,17982,128,0,18082:0:0:0:0:
256,192,17982,1,0,0:0:0:0:
358,192,18182,128,0,18282:0:0:0:0:
460,192,18182,128,0,18282:0:0:0:0:
153,192,18582,128,0,18682:0:0:0:0:
51,192,18582,128,0,18682:0:0:0:0:
153,192,18982,128,0,19082:0:0:0:0:
358,192,18982,128,0,19082:0:0:0:0:
358,192,19382,128,0,19482:0:0:0:0:
460,192,19382,128,0,19482:0:0:0:0:
51,192,19782,128,0,19882:0:0:0:0:
153,192,19782,128,0,19882:0:0:0:0:
256,192,19782,128,0,19882:0:0:0:0:
358,192,20182,128,0,20282:0:0:0:0:
153,192,20182,128,0,20282:0:0:0:0:
256,192,20182,128,0,20282:0:0:0:0:
460,192,20582,128,0,20682:0:0:0:0:
358,192,20582,128,0,20682:0:0:0:0:
256,192,20982,128,0,21082:0:0:0:0:
153,192,20982,128,0,21082:0:0:0:0:
51,192,20982,128,0,21082:0:0:0:0:
153,192,21382,128,0,21482:0:0:0:0:
358,192,21382,128,0,21482:0:0:0:0:
256,192,21382,128,0,21482:0:0:0:0:
358,192,21782,128,0,21882:0:0:0:0:
460,192,21782,128,0,21882:0:0:0:0:
460,192,22182,128,0,22282:0:0:0:0:
358,192,22182,128,0,22282:0:0:0:0:
256,192,22182,128,0,22282:0:0:0:0:
51,192,22582,128,0,22682:0:0:0:0:
256,192,22582,128,0,22682:0:0:0:0:
153,192,22582,128,0,22682:0:0:0:0:
153,192,22982,128,0,23082:0:0:0:0:
358,192,22982,128,0,23082:0:0:0:0:
256,192,23382,128,0,23482:0:0:0:0:
358,192,23382,128,0,23482:0:0:0:0:
460,192,23382,128,0,23482:0:0:0:0:
153,192,23782,128,0,23882:0:0:0:0:
51,192,23782,128,0,23882:0:0:0:0:
256,192,23782,128,0,23882:0:0:0:0:
358,192,24182,128,0,24282:0:0:0:0:
51,192,24182,128,0,24282:0:0:0:0:
358,192,24582,128,0,24682:0:0:0:0:
256,192,24582,128,0,24682:0:0:0:0:
460,192,24582,128,0,24682:0:0:0:0:
51,192,24982,128,0,25082:0:0:0:0:
153,192,24982,128,0,25082:0:0:0:0:
256,192,24982,128,0,25082:0:0:0:0:
358,192,25382,128,0,25482:0:0:0:0:
153,192,25382,128,0,25482:0:0:0:0:
358,192,25782,128,0,25882:0:0:0:0:
256,192,25782,128,0,25882:0:0:0:0:
153,192,25782,128,0,25882:0:0:0:0:
256,192,26182,128,0,26282:0:0:0:0:
358,192,26182,128,0,26282:0:0:0:0:
153,192,26182,128,0,26282:0:0:0:0:
51,192,26382,128,0,26482:0:0:0:0:
460,192,26382,1,0,0:0:0:0:
256,192,26582,128,0,26682:0:0:0:0:
460,192,26582,128,0,26682:0:0:0:0:
256,192,26982,128,0,27082:0:0:0:0:
460,192,26982,128,0,27082:0:0:0:0:
358,192,26982,128,0,27082:0:0:0:0:
358,192,27382,128,0,27482:0:0:0:0:
153,192,27382,128,0,27482:0:0:0:0:
51,192,27382,128,0,27482:0:0:0:0:
460,192,27782,128,0,27882:0:0:0:0:
256,192,27782,128,0,27882:0:0:0:0:
51,192,28182,128,0,28282:0:0:0:0:
153,192,28182,128,0,28282:0:0:0:0:
358,192,28182,128,0,28282:0:0:0:0:
358,192,28582,128,0,28682:0:0:0:0:
153,192,28582,128,0,28682:0:0:0:0:
256,192,28582,128,0,28682:0:0:0:0:
460,192,28982,128,0,29082:0:0:0:0:
358,192,28982,128,0,29082:0:0:0:0:
256,192,29382,128,0,31382:0:0:0:0:
153,192,29382,128,0,29482:0:0:0:0:
51,192,29382,128,0,29482:0:0:0:0:
358,192,29782,128,0,29882:0:0:0:0:
460,192,29782,128,0,29882:0:0:0:0:
153,192,30182,128,0,30282:0:0:0:0:
358,192,30582,128,0,31382:0:0:0:0:
460,192,30582,128,0,30682:0:0:0:0:
51,192,30982,128,0,31082:0:0:0:0:
153,192,31382,1,0,0:0:0:0:
153,192,31782,128,0,32048:0:0:0:0:
51,192,31782,128,0,32048:0:0:0:0:
460,192,31782,128,0,32048:0:0:0:0:
256,192,32048,128,0,32315:0:0:0:0:
358,192,32048,128,0,32582:0:0:0:0:
153,192,32582,1,0,0:0:0:0:
51,192,32582,128,0,32715:0:0:0:0:
460,192,32582,128,0,32715:0:0:0:0:
153,192,32982,1,0,0:0:0:0:
256,192,32982,1,0,0:0:0:0:
358,192,32982,128,0,34082:0:0:0:0:
460,192,32982,128,0,34082:0:0:0:0:
256,192,33782,1,0,0:0:0:0:
51,192,34082,1,0,0:0:0:0:
153,192,34082,1,0,0:0:0:0:
256,192,34182,1,0,0:0:0:0:
460,192,34182,128,0,35282:0:0:0:0:
358,192,34182,128,0,34282:0:0:0:0:
153,192,34582,1,0,0:0:0:0:
358,192,34582,128,0,35282:0:0:0:0:
256,192,34582,128,0,34682:0:0:0:0:
51,192,34982,1,0,0:0:0:0:
256,192,34982,128,0,35282:0:0:0:0:
153,192,34982,128,0,35082:0:0:0:0:
256,192,35382,1,0,0:0:0:0:
358,192,35382,1,0,0:0:0:0:
460,192,35382,1,0,0:0:0:0:
256,192,36182,128,0,36282:0:0:0:0:
460,192,36582,1,0,0:0:0:0:
51,192,36582,1,0,0:0:0:0:
153,192,36582,1,0,0:0:0:0:
153,192,36982,1,0,0:0:0:0:
256,192,36982,1,0,0:0:0:0:
358,192,36982,1,0,0:0:0:0:
153,192,37382,1,0,0:0:0:0:
256,192,37382,1,0,0:0:0:0:
51,192,37382,1,0,0:0:0:0:
358,192,37482,1,0,0:0:0:0:
153,192,37582,1,0,0:0:0:0:
358,192,37682,1,0,0:0:0:0:
51,192,37782,1,0,0:0:0:0:
460,192,37782,1,0,0:0:0:0:
256,192,37782,128,0,38182:0:0:0:0:
358,192,38182,128,0,38582:0:0:0:0:
153,192,38182,1,0,0:0:0:0:
51,192,38182,1,0,0:0:0:0:
153,192,38582,128,0,38982:0:0:0:0:
51,192,38582,1,0,0:0:0:0:
460,192,38582,1,0,0:0:0:0:
358,192,38782,1,0,0:0:0:0:
460,192,38782,1,0,0:0:0:0:
358,192,38882,1,0,0:0:0:0:
460,192,38882,1,0,0:0:0:0:
256,192,38982,1,0,0:0:0:0:
51,192,38982,128,0,39582:0:0:0:0:
358,192,39382,1,0,0:0:0:0:
460,192,39382,1,0,0:0:0:0:
256,192,39582,128,0,39782:0:0:0:0:
51,192,39782,1,0,0:0:0:0:
460,192,39782,128,0,40182:0:0:0:0:
153,192,39782,1,0,0:0:0:0:
51,192,39915,1,0,0:0:0:0:
153,192,39915,1,0,0:0:0:0:
51,192,40048,1,0,0:0:0:0:
153,192,40048,1,0,0:0:0:0:
51,192,40182,1,0,0:0:0:0:
153,192,40182,1,0,0:0:0:0:
256,192,40182,1,0,0:0:0:0:
51,192,40582,1,0,0:0:0:0:
460,192,40982,1,0,0:0:0:0:
256,192,41382,128,0,42182:0:0:0:0:
358,192,41382,128,0,41782:0:0:0:0:
153,192,41382,128,0,42182:0:0:0:0:
460,192,41782,128,0,42582:0:0:0:0:
51,192,41982,128,0,42182:0:0:0:0:
358,192,42182,128,0,42582:0:0:0:0:
51,192,42582,1,0,0:0:0:0:
153,192,42582,1,0,0:0:0:0:
256,192,42582,128,0,43682:0:0:0:0:
153,192,43382,1,0,0:0:0:0:
460,192,43682,1,0,0:0:0:0:
358,192,43682,1,0,0:0:0:0:
51,192,43782,128,0,44882:0:0:0:0:
153,192,43782,128,0,43882:0:0:0:0:
256,192,43782,1,0,0:0:0:0:
153,192,44182,128,0,44882:0:0:0:0:
256,192,44182,128,0,44282:0:0:0:0:
358,192,44182,1,0,0:0:0:0:
256,192,44582,128,0,44882:0:0:0:0:
358,192,44582,128,0,44682:0:0:0:0:
460,192,44582,1,0,0:0:0:0:
51,192,44982,1,0,0:0:0:0:
153,192,44982,1,0,0:0:0:0:
256,192,44982,128,0,46182:0:0:0:0:
51,192,46182,1,0,0:0:0:0:
460,192,46182,1,0,0:0:0:0:
153,192,46182,1,0,0:0:0:0:
51,192,46582,1,0,0:0:0:0:
358,192,46582,1,0,0:0:0:0:
460,192,46582,1,0,0:0:0:0:
51,192,46982,1,0,0:0:0:0:
153,192,46982,1,0,0:0:0:0:
460,192,46982,1,0,0:0:0:0:
358,192,47082,1,0,0:0:0:0:
51,192,47182,1,0,0:0:0:0:
153,192,47282,1,0,0:0:0:0:
460,192,47382,1,0,0:0:0:0:
256,192,47382,1,0,0:0:0:0:
358,192,47382,128,0,47782:0:0:0:0:
51,192,47582,1,0,0:0:0:0:
153,192,47582,1,0,0:0:0:0:
51,192,47682,1,0,0:0:0:0:
153,192,47682,1,0,0:0:0:0:
51,192,47782,1,0,0:0:0:0:
153,192,47782,1,0,0:0:0:0:
460,192,47782,1,0,0:0:0:0:
153,192,48182,1,0,0:0:0:0:
256,192,48182,1,0,0:0:0:0:
358,192,48182,1,0,0:0:0:0:
51,192,48582,1,0,0:0:0:0:
153,192,48582,1,0,0:0:0:0:
256,192,48582,128,0,48982:0:0:0:0:
460,192,48982,128,0,49382:0:0:0:0:
153,192,48982,128,0,49182:0:0:0:0:
51,192,49382,128,0,49782:0:0:0:0:
256,192,49382,1,0,0:0:0:0:
358,192,49382,1,0,0:0:0:0:
256,192,49515,1,0,0:0:0:0:
358,192,49515,1,0,0:0:0:0:
256,192,49648,1,0,0:0:0:0:
358,192,49648,1,0,0:0:0:0:
358,192,49782,1,0,0:0:0:0:
460,192,49782,1,0,0:0:0:0:
153,192,49782,128,0,50982:0:0:0:0:
256,192,50982,1,0,0:0:0:0:
460,192,50982,1,0,0:0:0:0:
51,192,50982,1,0,0:0:0:0:
256,192,51582,128,0,51882:0:0:0:0:
153,192,51882,1,0,0:0:0:0:
358,192,51882,1,0,0:0:0:0:
51,192,52182,1,0,0:0:0:0:
460,192,52182,1,0,0:0:0:0:
153,192,52257,1,0,0:0:0:0:
358,192,52332,1,0,0:0:0:0:
153,192,52407,1,0,0:0:0:0:
358,192,52482,1,0,0:0:0:0:
256,192,52557,1,0,0:0:0:0:
153,192,52632,1,0,0:0:0:0:
358,192,52707,1,0,0:0:0:0:
256,192,52782,1,0,0:0:0:0:
51,192,52782,1,0,0:0:0:0:
153,192,53982,1,0,0:0:0:0:
358,192,53982,1,0,0:0:0:0:
460,192,54057,1,0,0:0:0:0:
256,192,54132,1,0,0:0:0:0:
358,192,54207,1,0,0:0:0:0:
51,192,54282,1,0,0:0:0:0:
153,192,54357,1,0,0:0:0:0:
256,192,54432,1,0,0:0:0:0:
460,192,54432,1,0,0:0:0:0:
153,192,54507,1,0,0:0:0:0:
358,192,54582,1,0,0:0:0:0:
460,192,54582,1,0,0:0:0:0:
51,192,54657,1,0,0:0:0:0:
153,192,54732,1,0,0:0:0:0:
358,192,54807,1,0,0:0:0:0:
153,192,54882,1,0,0:0:0:0:
256,192,54957,1,0,0:0:0:0:
358,192,55032,1,0,0:0:0:0:
153,192,55107,1,0,0:0:0:0:
256,192,55182,1,0,0:0:0:0:
460,192,55182,1,0,0:0:0:0:
51,192,55257,1,0,0:0:0:0:
153,192,55332,1,0,0:0:0:0:
256,192,55407,1,0,0:0:0:0:
358,192,55482,1,0,0:0:0:0:
256,192,55632,1,0,0:0:0:0:
153,192,55782,1,0,0:0:0:0:
51,192,55932,1,0,0:0:0:0:
460,192,56082,1,0,0:0:0:0:
358,192,56232,1,0,0:0:0:0:
256,192,56382,1,0,0:0:0:0:
153,192,56532,1,0,0:0:0:0:
51,192,56682,1,0,0:0:0:0:
460,192,56982,1,0,0:0:0:0:
153,192,57057,1,0,0:0:0:0:
460,192,57132,1,0,0:0:0:0:
153,192,57207,1,0,0:0:0:0:
256,192,57282,1,0,0:0:0:0:
358,192,57357,1,0,0:0:0:0:
256,192,57432,1,0,0:0:0:0:
153,192,57507,1,0,0:0:0:0:
460,192,57582,1,0,0:0:0:0:
153,192,57657,1,0,0:0:0:0:
358,192,57732,1,0,0:0:0:0:
256,192,57807,1,0,0:0:0:0:
153,192,57882,1,0,0:0:0:0:
51,192,57882,1,0,0:0:0:0:
358,192,57957,1,0,0:0:0:0:
153,192,58032,1,0,0:0:0:0:
358,192,58107,1,0,0:0:0:0:
256,192,58182,128,0,58632:0:0:0:0:
51,192,58182,1,0,0:0:0:0:
153,192,58257,1,0,0:0:0:0:
460,192,58332,1,0,0:0:0:0:
51,192,58482,1,0,0:0:0:0:
153,192,58557,1,0,0:0:0:0:
358,192,58632,1,0,0:0:0:0:
51,192,58632,128,0,58782:0:0:0:0:
460,192,58707,1,0,0:0:0:0:
153,192,58782,128,0,59382:0:0:0:0:
358,192,58782,128,0,59382:0:0:0:0:
256,192,59382,1,0,0:0:0:0:
460,192,59382,1,0,0:0:0:0:
153,192,59457,1,0,0:0:0:0:
358,192,59532,1,0,0:0:0:0:
256,192,59607,1,0,0:0:0:0:
51,192,59682,1,0,0:0:0:0:
153,192,59682,1,0,0:0:0:0:
358,192,59757,1,0,0:0:0:0:
460,192,59832,1,0,0:0:0:0:
153,192,59832,1,0,0:0:0:0:
256,192,59907,1,0,0:0:0:0:
358,192,59982,1,0,0:0:0:0:
51,192,59982,1,0,0:0:0:0:
153,192,60057,1,0,0:0:0:0:
256,192,60132,1,0,0:0:0:0:
460,192,60132,1,0,0:0:0:0:
153,192,60207,1,0,0:0:0:0:
358,192,60282,1,0,0:0:0:0:
51,192,60282,1,0,0:0:0:0:
256,192,60357,1,0,0:0:0:0:
358,192,60432,1,0,0:0:0:0:
153,192,60507,1,0,0:0:0:0:
256,192,60582,1,0,0:0:0:0:
358,192,60657,1,0,0:0:0:0:
51,192,60732,1,0,0:0:0:0:
153,192,60807,1,0,0:0:0:0:
256,192,60882,1,0,0:0:0:0:
460,192,60882,128,0,61782:0:0:0:0:
51,192,61782,1,0,0:0:0:0:
256,192,61782,128,0,62982:0:0:0:0:
153,192,62982,1,0,0:0:0:0:
358,192,62982,1,0,0:0:0:0:
460,192,62982,128,0,63882:0:0:0:0:
51,192,63882,1,0,0:0:0:0:
358,192,63882,1,0,0:0:0:0:
51,192,64182,1,0,0:0:0:0:
358,192,64182,1,0,0:0:0:0:
153,192,64332,1,0,0:0:0:0:
460,192,64332,1,0,0:0:0:0:
256,192,64332,1,0,0:0:0:0:
256,192,64782,1,0,0:0:0:0:
460,192,64782,1,0,0:0:0:0:
358,192,64857,1,0,0:0:0:0:
153,192,64932,1,0,0:0:0:0:
358,192,65007,1,0,0:0:0:0:
51,192,65082,128,0,65157:0:0:0:0:
256,192,65082,128,0,65157:0:0:0:0:
460,192,65157,1,0,0:0:0:0:
153,192,65232,1,0,0:0:0:0:
256,192,65307,1,0,0:0:0:0:
358,192,65382,1,0,0:0:0:0:
51,192,65382,1,0,0:0:0:0:
460,192,65382,1,0,0:0:0:0:
153,192,65457,1,0,0:0:0:0:
256,192,65532,1,0,0:0:0:0:
51,192,65607,1,0,0:0:0:0:
358,192,65682,1,0,0:0:0:0:
153,192,65682,1,0,0:0:0:0:
460,192,65757,1,0,0:0:0:0:
256,192,65832,1,0,0:0:0:0:
358,192,65907,1,0,0:0:0:0:
51,192,65982,1,0,0:0:0:0:
153,192,65982,128,0,66282:0:0:0:0:
256,192,66282,1,0,0:0:0:0:
460,192,66282,1,0,0:0:0:0:
460,192,66432,1,0,0:0:0:0:
153,192,66432,1,0,0:0:0:0:
256,192,66507,1,0,0:0:0:0:
51,192,66582,1,0,0:0:0:0:
460,192,66582,1,0,0:0:0:0:
153,192,66657,1,0,0:0:0:0:
256,192,66732,1,0,0:0:0:0:
358,192,66732,1,0,0:0:0:0:
51,192,66882,128,0,67082:0:0:0:0:
153,192,66882,128,0,67082:0:0:0:0:
460,192,67082,128,0,67282:0:0:0:0:
358,192,67082,128,0,67282:0:0:0:0:
51,192,67282,128,0,67482:0:0:0:0:
153,192,67282,128,0,67482:0:0:0:0:
358,192,67482,128,0,67682:0:0:0:0:
460,192,67482,1,0,0:0:0:0:
256,192,67482,128,0,67682:0:0:0:0:
153,192,67682,128,0,67782:0:0:0:0:
51,192,67682,128,0,67782:0:0:0:0:
460,192,67782,1,0,0:0:0:0:
358,192,67782,1,0,0:0:0:0:
153,192,67857,1,0,0:0:0:0:
358,192,67932,1,0,0:0:0:0:
153,192,68007,1,0,0:0:0:0:
51,192,68082,1,0,0:0:0:0:
460,192,68082,1,0,0:0:0:0:
51,192,68682,1,0,0:0:0:0:
153,192,68682,1,0,0:0:0:0:
358,192,68757,1,0,0:0:0:0:
460,192,68757,1,0,0:0:0:0:
153,192,68832,1,0,0:0:0:0:
256,192,68832,1,0,0:0:0:0:
358,192,68907,1,0,0:0:0:0:
460,192,68907,1,0,0:0:0:0:
51,192,68982,1,0,0:0:0:0:
153,192,68982,1,0,0:0:0:0:
256,192,69057,1,0,0:0:0:0:
460,192,69057,1,0,0:0:0:0:
358,192,69132,1,0,0:0:0:0:
51,192,69132,1,0,0:0:0:0:
153,192,69282,1,0,0:0:0:0:
256,192,69357,1,0,0:0:0:0:
358,192,69432,1,0,0:0:0:0:
153,192,69507,1,0,0:0:0:0:
256,192,69582,1,0,0:0:0:0:
460,192,69582,128,0,69657:0:0:0:0:
51,192,69732,128,0,69807:0:0:0:0:
153,192,69732,1,0,0:0:0:0:
256,192,69807,1,0,0:0:0:0:
358,192,69882,128,0,69957:0:0:0:0:
460,192,69882,128,0,69957:0:0:0:0:
358,192,70032,128,0,70107:0:0:0:0:
460,192,70032,128,0,70107:0:0:0:0:
51,192,70182,1,0,0:0:0:0:
153,192,70182,1,0,0:0:0:0:
256,192,70332,1,0,0:0:0:0:
358,192,70332,1,0,0:0:0:0:
153,192,70407,1,0,0:0:0:0:
51,192,70407,1,0,0:0:0:0:
460,192,70482,1,0,0:0:0:0:
358,192,70482,128,0,70782:0:0:0:0:
153,192,70632,128,0,70782:0:0:0:0:
256,192,70632,1,0,0:0:0:0:
51,192,70782,1,0,0:0:0:0:
460,192,70782,1,0,0:0:0:0:
51,192,71007,1,0,0:0:0:0:
153,192,71082,1,0,0:0:0:0:
358,192,71157,1,0,0:0:0:0:
460,192,71232,1,0,0:0:0:0:
51,192,71232,1,0,0:0:0:0:
256,192,71307,1,0,0:0:0:0:
153,192,71382,128,0,71682:0:0:0:0:
51,192,71382,128,0,71682:0:0:0:0:
358,192,71682,128,0,72582:0:0:0:0:
460,192,71682,128,0,73482:0:0:0:0:
51,192,72582,1,0,0:0:0:0:
153,192,72657,1,0,0:0:0:0:
256,192,72732,1,0,0:0:0:0:
358,192,72807,1,0,0:0:0:0:
153,192,72882,1,0,0:0:0:0:
256,192,72957,1,0,0:0:0:0:
51,192,73032,1,0,0:0:0:0:
153,192,73107,1,0,0:0:0:0:
256,192,73182,1,0,0:0:0:0:
358,192,73257,1,0,0:0:0:0:
153,192,73332,1,0,0:0:0:0:
256,192,73407,1,0,0:0:0:0:
51,192,73482,128,0,74982:0:0:0:0:
153,192,73557,1,0,0:0:0:0:
256,192,73632,1,0,0:0:0:0:
358,192,73707,1,0,0:0:0:0:
460,192,73782,1,0,0:0:0:0:
460,192,74382,1,0,0:0:0:0:
460,192,74682,1,0,0:0:0:0:
153,192,74982,1,0,0:0:0:0:
256,192,74982,1,0,0:0:0:0:
358,192,74982,1,0,0:0:0:0:
51,192,75582,1,0,0:0:0:0:
153,192,75582,1,0,0:0:0:0:
256,192,75582,1,0,0:0:0:0:
153,192,75882,1,0,0:0:0:0:
256,192,75882,1,0,0:0:0:0:
358,192,75882,1,0,0:0:0:0:
256,192,76107,1,0,0:0:0:0:
358,192,76107,1,0,0:0:0:0:
460,192,76107,1,0,0:0:0:0:
256,192,77682,1,0,0:0:0:0:
358,192,77682,1,0,0:0:0:0:
460,192,77682,1,0,0:0:0:0:
51,192,78582,1,0,0:0:0:0:
153,192,78582,1,0,0:0:0:0:
358,192,78732,1,0,0:0:0:0:
460,192,78732,1,0,0:0:0:0:
256,192,78882,1,0,0:0:0:0:
51,192,78882,128,0,79482:0:0:0:0:
256,192,79482,1,0,0:0:0:0:
460,192,79482,1,0,0:0:0:0:
358,192,79482,1,0,0:0:0:0:
51,192,79782,1,0,0:0:0:0:
153,192,79782,1,0,0:0:0:0:
256,192,79782,1,0,0:0:0:0:
153,192,79932,1,0,0:0:0:0:
256,192,79932,1,0,0:0:0:0:
358,192,79932,1,0,0:0:0:0:
256,192,80082,1,0,0:0:0:0:
358,192,80082,1,0,0:0:0:0:
460,192,80082,1,0,0:0:0:0:
153,192,80382,1,0,0:0:0:0:
358,192,80382,1,0,0:0:0:0:
51,192,80382,1,0,0:0:0:0:
256,192,80532,1,0,0:0:0:0:
460,192,80532,1,0,0:0:0:0:
51,192,80532,1,0,0:0:0:0:
153,192,80682,1,0,0:0:0:0:
358,192,80682,1,0,0:0:0:0:
460,192,80682,1,0,0:0:0:0:
153,192,80982,1,0,0:0:0:0:
358,192,80982,1,0,0:0:0:0:
256,192,80982,128,0,83082:0:0:0:0:
51,192,83082,1,0,0:0:0:0:
460,192,83082,1,0,0:0:0:0:
153,192,83382,1,0,0:0:0:0:
358,192,83382,1,0,0:0:0:0:
51,192,83457,1,0,0:0:0:0:
256,192,83532,1,0,0:0:0:0:
153,192,83607,1,0,0:0:0:0:
358,192,83682,1,0,0:0:0:0:
460,192,83757,1,0,0:0:0:0:
256,192,83832,1,0,0:0:0:0:
51,192,83907,1,0,0:0:0:0:
153,192,83982,1,0,0:0:0:0:
358,192,83982,1,0,0:0:0:0:
256,192,84282,1,0,0:0:0:0:
460,192,84282,1,0,0:0:0:0:
51,192,84582,1,0,0:0:0:0:
153,192,84732,1,0,0:0:0:0:
256,192,84807,1,0,0:0:0:0:
358,192,84882,1,0,0:0:0:0:
460,192,84882,1,0,0:0:0:0:
153,192,85032,1,0,0:0:0:0:
51,192,85182,1,0,0:0:0:0:
460,192,85182,1,0,0:0:0:0:
358,192,85332,1,0,0:0:0:0:
51,192,85482,1,0,0:0:0:0:
256,192,85482,1,0,0:0:0:0:
460,192,85782,1,0,0:0:0:0:
153,192,85782,1,0,0:0:0:0:
256,192,85857,1,0,0:0:0:0:
358,192,85932,1,0,0:0:0:0:
51,192,86007,1,0,0:0:0:0:
153,192,86082,1,0,0:0:0:0:
358,192,86157,1,0,0:0:0:0:
460,192,86232,1,0,0:0:0:0:
51,192,86232,1,0,0:0:0:0:
51,192,86382,1,0,0:0:0:0:
460,192,86382,1,0,0:0:0:0:
358,192,86532,1,0,0:0:0:0:
256,192,86682,1,0,0:0:0:0:
153,192,86682,1,0,0:0:0:0:
51,192,86832,1,0,0:0:0:0:
358,192,86982,1,0,0:0:0:0:
460,192,86982,1,0,0:0:0:0:
256,192,87132,1,0,0:0:0:0:
153,192,87207,1,0,0:0:0:0:
51,192,87282,1,0,0:0:0:0:
153,192,87357,1,0,0:0:0:0:
256,192,87432,1,0,0:0:0:0:
460,192,87432,1,0,0:0:0:0:
51,192,87582,1,0,0:0:0:0:
358,192,87732,1,0,0:0:0:0:
51,192,87882,1,0,0:0:0:0:
256,192,87882,1,0,0:0:0:0:
460,192,88032,1,0,0:0:0:0:
153,192,88182,1,0,0:0:0:0:
358,192,88182,1,0,0:0:0:0:
256,192,88332,1,0,0:0:0:0:
358,192,88407,1,0,0:0:0:0:
460,192,88482,1,0,0:0:0:0:
358,192,88557,1,0,0:0:0:0:
256,192,88632,1,0,0:0:0:0:
153,192,88707,1,0,0:0:0:0:
51,192,88782,1,0,0:0:0:0:
460,192,88782,1,0,0:0:0:0:
256,192,88932,1,0,0:0:0:0:
358,192,89082,1,0,0:0:0:0:
51,192,89082,1,0,0:0:0:0:
153,192,89232,1,0,0:0:0:0:
256,192,89382,1,0,0:0:0:0:
460,192,89382,1,0,0:0:0:0:
153,192,89457,1,0,0:0:0:0:
358,192,89532,1,0,0:0:0:0:
256,192,89607,1,0,0:0:0:0:
153,192,89682,1,0,0:0:0:0:
51,192,89682,1,0,0:0:0:0:
51,192,89832,1,0,0:0:0:0:
153,192,89982,1,0,0:0:0:0:
358,192,89982,1,0,0:0:0:0:
256,192,90282,1,0,0:0:0:0:
460,192,90282,1,0,0:0:0:0:
51,192,90582,1,0,0:0:0:0:
358,192,90582,1,0,0:0:0:0:
460,192,90657,1,0,0:0:0:0:
153,192,90732,1,0,0:0:0:0:
256,192,90807,1,0,0:0:0:0:
358,192,90882,1,0,0:0:0:0:
256,192,90957,1,0,0:0:0:0:
153,192,91032,1,0,0:0:0:0:
460,192,91107,1,0,0:0:0:0:
358,192,91182,1,0,0:0:0:0:
51,192,91182,1,0,0:0:0:0:
153,192,91332,1,0,0:0:0:0:
51,192,91482,1,0,0:0:0:0:
256,192,91482,1,0,0:0:0:0:
358,192,91632,1,0,0:0:0:0:
153,192,91782,1,0,0:0:0:0:
256,192,91932,1,0,0:0:0:0:
358,192,92082,1,0,0:0:0:0:
460,192,92082,1,0,0:0:0:0:
51,192,92232,1,0,0:0:0:0:
256,192,92382,1,0,0:0:0:0:
153,192,92532,1,0,0:0:0:0:
358,192,92532,1,0,0:0:0:0:
51,192,92682,1,0,0:0:0:0:
460,192,92682,1,0,0:0:0:0:
256,192,92832,1,0,0:0:0:0:
358,192,92982,1,0,0:0:0:0:
460,192,92982,1,0,0:0:0:0:
256,192,93132,1,0,0:0:0:0:
153,192,93282,1,0,0:0:0:0:
358,192,93432,1,0,0:0:0:0:
460,192,93432,1,0,0:0:0:0:
358,192,93582,1,0,0:0:0:0:
460,192,93582,1,0,0:0:0:0:
51,192,93732,1,0,0:0:0:0:
153,192,93882,128,0,95082:0:0:0:0:
358,192,93882,1,0,0:0:0:0:
256,192,94182,1,0,0:0:0:0:
51,192,94182,1,0,0:0:0:0:
460,192,94332,1,0,0:0:0:0:
358,192,94407,1,0,0:0:0:0:
256,192,94482,1,0,0:0:0:0:
358,192,94557,1,0,0:0:0:0:
460,192,94632,1,0,0:0:0:0:
51,192,94632,1,0,0:0:0:0:
51,192,94782,1,0,0:0:0:0:
460,192,94782,1,0,0:0:0:0:
358,192,94932,1,0,0:0:0:0:
51,192,94932,1,0,0:0:0:0:
256,192,95082,128,0,99582:0:0:0:0:
460,192,95082,1,0,0:0:0:0:
460,192,97782,128,0,99582:0:0:0:0:
358,192,99582,128,0,100382:0:0:0:0:
51,192,99582,128,0,99848:0:0:0:0:
153,192,99582,128,0,99848:0:0:0:0:
256,192,99848,128,0,100382:0:0:0:0:
460,192,99848,128,0,100382:0:0:0:0:
153,192,100382,128,0,100515:0:0:0:0:
51,192,100382,128,0,100515:0:0:0:0:
153,192,100782,128,0,101882:0:0:0:0:
51,192,100782,128,0,101882:0:0:0:0:
256,192,100782,1,0,0:0:0:0:
358,192,100782,1,0,0:0:0:0:
358,192,101882,1,0,0:0:0:0:
460,192,101882,1,0,0:0:0:0:
256,192,101982,1,0,0:0:0:0:
153,192,101982,128,0,102082:0:0:0:0:
51,192,101982,128,0,103082:0:0:0:0:
256,192,102382,128,0,102482:0:0:0:0:
358,192,102382,1,0,0:0:0:0:
153,192,102382,128,0,103082:0:0:0:0:
256,192,102782,128,0,103082:0:0:0:0:
358,192,102782,128,0,102882:0:0:0:0:
460,192,102782,1,0,0:0:0:0:
256,192,103182,1,0,0:0:0:0:
153,192,103182,1,0,0:0:0:0:
51,192,103182,1,0,0:0:0:0:
256,192,103982,128,0,104382:0:0:0:0:
153,192,104382,1,0,0:0:0:0:
460,192,104382,1,0,0:0:0:0:
51,192,104382,128,0,104782:0:0:0:0:
358,192,104782,1,0,0:0:0:0:
256,192,104782,1,0,0:0:0:0:
153,192,104782,128,0,105182:0:0:0:0:
51,192,105182,1,0,0:0:0:0:
460,192,105182,128,0,105582:0:0:0:0:
358,192,105182,1,0,0:0:0:0:
153,192,105282,1,0,0:0:0:0:
51,192,105382,1,0,0:0:0:0:
153,192,105482,1,0,0:0:0:0:
51,192,105582,1,0,0:0:0:0:
256,192,105582,128,0,105982:0:0:0:0:
358,192,105582,128,0,105982:0:0:0:0:
153,192,105982,1,0,0:0:0:0:
460,192,105982,128,0,106382:0:0:0:0:
51,192,105982,128,0,106382:0:0:0:0:
153,192,106382,128,0,106782:0:0:0:0:
256,192,106382,1,0,0:0:0:0:
358,192,106382,1,0,0:0:0:0:
358,192,106582,1,0,0:0:0:0:
460,192,106582,1,0,0:0:0:0:
460,192,106682,1,0,0:0:0:0:
358,192,106682,1,0,0:0:0:0:
256,192,106782,1,0,0:0:0:0:
51,192,106782,128,0,107382:0:0:0:0:
358,192,107182,1,0,0:0:0:0:
460,192,107182,1,0,0:0:0:0:
256,192,107382,128,0,107582:0:0:0:0:
51,192,107582,1,0,0:0:0:0:
153,192,107582,1,0,0:0:0:0:
460,192,107582,128,0,107982:0:0:0:0:
153,192,107715,1,0,0:0:0:0:
51,192,107715,1,0,0:0:0:0:
153,192,107848,1,0,0:0:0:0:
51,192,107848,1,0,0:0:0:0:
256,192,107982,1,0,0:0:0:0:
51,192,107982,1,0,0:0:0:0:
153,192,107982,1,0,0:0:0:0:
460,192,108382,1,0,0:0:0:0:
358,192,108382,1,0,0:0:0:0:
460,192,108782,1,0,0:0:0:0:
358,192,108782,1,0,0:0:0:0:
51,192,109182,128,0,109982:0:0:0:0:
460,192,109182,128,0,109448:0:0:0:0:
358,192,109182,128,0,109448:0:0:0:0:
153,192,109448,128,0,109982:0:0:0:0:
256,192,109448,128,0,109982:0:0:0:0:
460,192,109982,128,0,110248:0:0:0:0:
358,192,109982,128,0,110248:0:0:0:0:
256,192,110382,1,0,0:0:0:0:
153,192,110382,1,0,0:0:0:0:
358,192,110382,128,0,111482:0:0:0:0:
460,192,110382,128,0,111482:0:0:0:0:
460,192,111582,128,0,111882:0:0:0:0:
358,192,111582,128,0,111882:0:0:0:0:
51,192,111582,1,0,0:0:0:0:
153,192,111682,1,0,0:0:0:0:
256,192,111782,1,0,0:0:0:0:
153,192,111882,1,0,0:0:0:0:
256,192,111982,1,0,0:0:0:0:
460,192,111982,128,0,112282:0:0:0:0:
51,192,111982,128,0,112282:0:0:0:0:
358,192,112082,1,0,0:0:0:0:
153,192,112182,1,0,0:0:0:0:
256,192,112282,1,0,0:0:0:0:
358,192,112382,1,0,0:0:0:0:
51,192,112382,128,0,112682:0:0:0:0:
153,192,112382,128,0,112682:0:0:0:0:
460,192,112482,1,0,0:0:0:0:
256,192,112582,1,0,0:0:0:0:
358,192,112682,1,0,0:0:0:0:
460,192,112782,1,0,0:0:0:0:
51,192,112782,1,0,0:0:0:0:
256,192,112782,128,0,113182:0:0:0:0:
153,192,112782,1,0,0:0:0:0:
153,192,113182,1,0,0:0:0:0:
358,192,113182,1,0,0:0:0:0:
51,192,113182,1,0,0:0:0:0:
460,192,113182,1,0,0:0:0:0:
460,192,113982,1,0,0:0:0:0:
51,192,113982,1,0,0:0:0:0:
153,192,113982,128,0,114382:0:0:0:0:
358,192,114382,1,0,0:0:0:0:
460,192,114382,1,0,0:0:0:0:
256,192,114382,128,0,114782:0:0:0:0:
153,192,114782,1,0,0:0:0:0:
51,192,114782,128,0,115182:0:0:0:0:
358,192,114882,1,0,0:0:0:0:
256,192,114982,1,0,0:0:0:0:
358,192,115082,1,0,0:0:0:0:
256,192,115182,128,0,115582:0:0:0:0:
460,192,115182,1,0,0:0:0:0:
51,192,115382,1,0,0:0:0:0:
153,192,115382,1,0,0:0:0:0:
51,192,115482,1,0,0:0:0:0:
153,192,115482,1,0,0:0:0:0:
358,192,115582,128,0,115982:0:0:0:0:
460,192,115582,1,0,0:0:0:0:
51,192,115582,1,0,0:0:0:0:
460,192,115982,1,0,0:0:0:0:
153,192,115982,128,0,116382:0:0:0:0:
51,192,115982,1,0,0:0:0:0:
51,192,116382,128,0,116982:0:0:0:0:
256,192,116382,1,0,0:0:0:0:
460,192,116782,1,0,0:0:0:0:
358,192,116782,1,0,0:0:0:0:
256,192,116982,128,0,117182:0:0:0:0:
460,192,117182,128,0,117582:0:0:0:0:
153,192,117182,1,0,0:0:0:0:
51,192,117182,1,0,0:0:0:0:
153,192,117315,1,0,0:0:0:0:
51,192,117315,1,0,0:0:0:0:
51,192,117448,1,0,0:0:0:0:
153,192,117448,1,0,0:0:0:0:
153,192,117582,1,0,0:0:0:0:
51,192,117582,1,0,0:0:0:0:
256,192,117582,128,0,123182:0:0:0:0:
460,192,121982,128,0,123182:0:0:0:0:
153,192,122982,128,0,123182:0:0:0:0:
358,192,123382,128,0,124582:0:0:0:0:
153,192,124582,128,0,124782:0:0:0:0:
256,192,124782,128,0,124982:0:0:0:0:
358,192,124982,128,0,125582:0:0:0:0:
51,192,125782,128,0,126582:0:0:0:0:
256,192,126582,128,0,126982:0:0:0:0:
358,192,126982,128,0,127382:0:0:0:0:
153,192,127382,128,0,127482:0:0:0:0:
256,192,127482,128,0,127882:0:0:0:0:
358,192,127882,128,0,127982:0:0:0:0:
256,192,127982,128,0,128082:0:0:0:0:
153,192,128082,128,0,128382:0:0:0:0:
358,192,128382,128,0,128982:0:0:0:0:
153,192,128982,128,0,129282:0:0:0:0:
460,192,128982,1,0,0:0:0:0:
358,192,129057,1,0,0:0:0:0:
256,192,129132,1,0,0:0:0:0:
460,192,129207,1,0,0:0:0:0:
358,192,129282,1,0,0:0:0:0:
51,192,129282,1,0,0:0:0:0:
153,192,129357,1,0,0:0:0:0:
256,192,129357,1,0,0:0:0:0:
358,192,129432,1,0,0:0:0:0:
460,192,129432,1,0,0:0:0:0:
51,192,129507,1,0,0:0:0:0:
153,192,129507,1,0,0:0:0:0:
256,192,129582,1,0,0:0:0:0:
358,192,129582,1,0,0:0:0:0:
460,192,129657,1,0,0:0:0:0:
153,192,129732,1,0,0:0:0:0:
256,192,129807,1,0,0:0:0:0:
358,192,129882,1,0,0:0:0:0:
460,192,129882,1,0,0:0:0:0:
153,192,129957,1,0,0:0:0:0:
256,192,129957,1,0,0:0:0:0:
51,192,130032,1,0,0:0:0:0:
460,192,130032,1,0,0:0:0:0:
358,192,130107,1,0,0:0:0:0:
256,192,130107,1,0,0:0:0:0:
460,192,130182,1,0,0:0:0:0:
51,192,130182,128,0,136482:0:0:0:0:
153,192,130182,128,0,133782:0:0:0:0:
358,192,131682,128,0,131907:0:0:0:0:
358,192,131982,128,0,132282:0:0:0:0:
460,192,132282,128,0,132507:0:0:0:0:
460,192,132582,128,0,132957:0:0:0:0:
358,192,132957,128,0,133182:0:0:0:0:
256,192,133182,128,0,133407:0:0:0:0:
256,192,133482,128,0,133782:0:0:0:0:
358,192,133782,128,0,134232:0:0:0:0:
460,192,134232,128,0,134532:0:0:0:0:
153,192,134532,128,0,134682:0:0:0:0:
256,192,134682,128,0,134982:0:0:0:0:
358,192,134982,128,0,135132:0:0:0:0:
460,192,135132,128,0,135282:0:0:0:0:
153,192,135282,128,0,135507:0:0:0:0:
153,192,135582,128,0,137382:0:0:0:0:
460,192,136482,128,0,137382:0:0:0:0:
51,192,137382,1,0,0:0:0:0:
256,192,137482,1,0,0:0:0:0:
358,192,137582,1,0,0:0:0:0:
153,192,137682,1,0,0:0:0:0:
256,192,137782,1,0,0:0:0:0:
460,192,137882,1,0,0:0:0:0:
358,192,137982,1,0,0:0:0:0:
153,192,138082,1,0,0:0:0:0:
256,192,138182,1,0,0:0:0:0:
358,192,138282,1,0,0:0:0:0:
256,192,138382,1,0,0:0:0:0:
153,192,138482,1,0,0:0:0:0:
460,192,138582,1,0,0:0:0:0:
358,192,138682,1,0,0:0:0:0:
153,192,138782,1,0,0:0:0:0:
51,192,138882,1,0,0:0:0:0:
358,192,138982,1,0,0:0:0:0:
256,192,139082,1,0,0:0:0:0:
153,192,139182,1,0,0:0:0:0:
460,192,139282,1,0,0:0:0:0:
358,192,139382,1,0,0:0:0:0:
256,192,139482,1,0,0:0:0:0:
51,192,139582,1,0,0:0:0:0:
358,192,139682,1,0,0:0:0:0:
153,192,139782,1,0,0:0:0:0:
358,192,139882,1,0,0:0:0:0:
153,192,139982,1,0,0:0:0:0:
460,192,140082,1,0,0:0:0:0:
256,192,140182,1,0,0:0:0:0:
51,192,140282,1,0,0:0:0:0:
358,192,140382,1,0,0:0:0:0:
153,192,140482,1,0,0:0:0:0:
256,192,140582,1,0,0:0:0:0:
358,192,140682,1,0,0:0:0:0:
256,192,140782,1,0,0:0:0:0:
153,192,140882,1,0,0:0:0:0:
358,192,140982,1,0,0:0:0:0:
153,192,141082,1,0,0:0:0:0:
460,192,141182,1,0,0:0:0:0:
256,192,141282,1,0,0:0:0:0:
51,192,141382,1,0,0:0:0:0:
358,192,141482,1,0,0:0:0:0:
153,192,141582,1,0,0:0:0:0:
358,192,141682,1,0,0:0:0:0:
256,192,141782,1,0,0:0:0:0:
153,192,141882,1,0,0:0:0:0:
256,192,141982,1,0,0:0:0:0:
358,192,142082,1,0,0:0:0:0:
153,192,142182,1,0,0:0:0:0:
358,192,142282,1,0,0:0:0:0:
51,192,142382,1,0,0:0:0:0:
256,192,142482,1,0,0:0:0:0:
460,192,142582,1,0,0:0:0:0:
153,192,142682,1,0,0:0:0:0:
460,192,142782,128,0,146082:0:0:0:0:
358,192,142782,1,0,0:0:0:0:
51,192,142882,1,0,0:0:0:0:
153,192,142982,1,0,0:0:0:0:
256,192,143082,1,0,0:0:0:0:
358,192,143182,1,0,0:0:0:0:
153,192,143282,1,0,0:0:0:0:
256,192,143382,1,0,0:0:0:0:
51,192,143482,1,0,0:0:0:0:
153,192,143582,1,0,0:0:0:0:
256,192,143682,1,0,0:0:0:0:
358,192,143782,1,0,0:0:0:0:
153,192,143882,1,0,0:0:0:0:
256,192,143982,1,0,0:0:0:0:
51,192,144082,1,0,0:0:0:0:
153,192,144182,1,0,0:0:0:0:
256,192,144282,1,0,0:0:0:0:
358,192,144382,1,0,0:0:0:0:
153,192,144482,1,0,0:0:0:0:
256,192,144582,1,0,0:0:0:0:
51,192,144682,1,0,0:0:0:0:
153,192,144782,1,0,0:0:0:0:
256,192,144882,1,0,0:0:0:0:
358,192,144982,1,0,0:0:0:0:
153,192,145082,1,0,0:0:0:0:
256,192,145182,1,0,0:0:0:0:
51,192,145282,1,0,0:0:0:0:
153,192,145382,1,0,0:0:0:0:
358,192,145482,128,0,146082:0:0:0:0:
256,192,145482,128,0,146082:0:0:0:0:
51,192,145482,1,0,0:0:0:0:
153,192,145582,1,0,0:0:0:0:
51,192,145682,1,0,0:0:0:0:
153,192,145782,1,0,0:0:0:0:
51,192,145882,1,0,0:0:0:0:
153,192,145982,1,0,0:0:0:0:
51,192,146082,1,0,0:0:0:0:
51,192,146382,1,0,0:0:0:0:
153,192,146382,1,0,0:0:0:0:
256,192,146382,1,0,0:0:0:0:
358,192,146382,1,0,0:0:0:0:
460,192,146382,1,0,0:0:0:0:
153,192,146682,1,0,0:0:0:0:
460,192,146832,1,0,0:0:0:0:
358,192,146907,1,0,0:0:0:0:
256,192,146982,128,0,147282:0:0:0:0:
153,192,147282,1,0,0:0:0:0:
51,192,147282,1,0,0:0:0:0:
358,192,147282,1,0,0:0:0:0:
460,192,147282,1,0,0:0:0:0:
256,192,147582,1,0,0:0:0:0:
51,192,147582,128,0,147882:0:0:0:0:
153,192,147732,1,0,0:0:0:0:
256,192,147807,1,0,0:0:0:0:
358,192,147882,1,0,0:0:0:0:
460,192,147882,128,0,148107:0:0:0:0:
153,192,148032,1,0,0:0:0:0:
51,192,148107,1,0,0:0:0:0:
460,192,148182,128,0,148482:0:0:0:0:
358,192,148182,1,0,0:0:0:0:
256,192,148182,1,0,0:0:0:0:
51,192,148332,1,0,0:0:0:0:
153,192,148407,1,0,0:0:0:0:
256,192,148482,1,0,0:0:0:0:
358,192,148482,128,0,149082:0:0:0:0:
51,192,148632,1,0,0:0:0:0:
256,192,148707,1,0,0:0:0:0:
153,192,148782,1,0,0:0:0:0:
256,192,149082,128,0,149982:0:0:0:0:
51,192,149082,1,0,0:0:0:0:
153,192,149082,1,0,0:0:0:0:
460,192,149082,1,0,0:0:0:0:
358,192,149232,1,0,0:0:0:0:
460,192,149307,1,0,0:0:0:0:
153,192,149382,1,0,0:0:0:0:
358,192,149532,1,0,0:0:0:0:
51,192,149607,1,0,0:0:0:0:
460,192,149682,1,0,0:0:0:0:
153,192,149832,1,0,0:0:0:0:
358,192,149907,1,0,0:0:0:0:
153,192,149982,1,0,0:0:0:0:
460,192,149982,1,0,0:0:0:0:
51,192,149982,128,0,150432:0:0:0:0:
358,192,150132,1,0,0:0:0:0:
460,192,150207,1,0,0:0:0:0:
153,192,150282,1,0,0:0:0:0:
256,192,150432,128,0,150807:0:0:0:0:
358,192,150432,1,0,0:0:0:0:
460,192,150582,1,0,0:0:0:0:
153,192,150807,128,0,150882:0:0:0:0:
358,192,150882,128,0,151182:0:0:0:0:
460,192,150882,1,0,0:0:0:0:
51,192,150882,1,0,0:0:0:0:
256,192,150882,1,0,0:0:0:0:
256,192,151182,128,0,151257:0:0:0:0:
460,192,151182,1,0,0:0:0:0:
153,192,151257,128,0,151332:0:0:0:0:
51,192,151332,128,0,151707:0:0:0:0:
358,192,151482,1,0,0:0:0:0:
460,192,151482,1,0,0:0:0:0:
51,192,151782,128,0,152382:0:0:0:0:
256,192,151782,1,0,0:0:0:0:
358,192,151782,1,0,0:0:0:0:
460,192,151932,1,0,0:0:0:0:
153,192,152007,1,0,0:0:0:0:
256,192,152082,1,0,0:0:0:0:
153,192,152232,128,0,152382:0:0:0:0:
460,192,152382,128,0,153507:0:0:0:0:
358,192,152382,128,0,152457:0:0:0:0:
256,192,152457,128,0,152532:0:0:0:0:
153,192,152532,128,0,152607:0:0:0:0:
358,192,152607,128,0,152682:0:0:0:0:
51,192,152682,128,0,152757:0:0:0:0:
256,192,152682,1,0,0:0:0:0:
153,192,152682,1,0,0:0:0:0:
358,192,152832,1,0,0:0:0:0:
256,192,152907,1,0,0:0:0:0:
51,192,152982,128,0,153057:0:0:0:0:
153,192,152982,1,0,0:0:0:0:
358,192,152982,1,0,0:0:0:0:
51,192,153282,128,0,153357:0:0:0:0:
153,192,153282,1,0,0:0:0:0:
358,192,153282,1,0,0:0:0:0:
256,192,153357,1,0,0:0:0:0:
51,192,153432,1,0,0:0:0:0:
153,192,153432,1,0,0:0:0:0:
256,192,153507,1,0,0:0:0:0:
51,192,153582,1,0,0:0:0:0:
153,192,153582,128,0,153682:0:0:0:0:
358,192,153582,128,0,153682:0:0:0:0:
460,192,153582,128,0,153682:0:0:0:0:
51,192,153882,128,0,153982:0:0:0:0:
358,192,153882,128,0,153982:0:0:0:0:
256,192,154032,1,0,0:0:0:0:
358,192,154182,128,0,154282:0:0:0:0:
460,192,154182,128,0,154282:0:0:0:0:
51,192,154282,1,0,0:0:0:0:
153,192,154282,1,0,0:0:0:0:
256,192,154382,1,0,0:0:0:0:
358,192,154482,1,0,0:0:0:0:
460,192,154482,1,0,0:0:0:0:
51,192,154482,1,0,0:0:0:0:
153,192,154482,1,0,0:0:0:0:
256,192,154782,1,0,0:0:0:0:
153,192,154782,1,0,0:0:0:0:
358,192,154882,1,0,0:0:0:0:
460,192,154882,1,0,0:0:0:0:
51,192,154982,1,0,0:0:0:0:
153,192,154982,1,0,0:0:0:0:
256,192,155082,1,0,0:0:0:0:
358,192,155082,128,0,155307:0:0:0:0:
460,192,155082,128,0,155307:0:0:0:0:
358,192,155382,1,0,0:0:0:0:
460,192,155382,1,0,0:0:0:0:
51,192,155382,1,0,0:0:0:0:
153,192,155532,1,0,0:0:0:0:
358,192,155607,1,0,0:0:0:0:
51,192,155682,1,0,0:0:0:0:
460,192,155682,1,0,0:0:0:0:
153,192,155682,1,0,0:0:0:0:
256,192,155832,1,0,0:0:0:0:
153,192,155907,1,0,0:0:0:0:
358,192,155982,1,0,0:0:0:0:
460,192,155982,1,0,0:0:0:0:
51,192,155982,1,0,0:0:0:0:
460,192,156082,1,0,0:0:0:0:
358,192,156082,1,0,0:0:0:0:
51,192,156182,1,0,0:0:0:0:
153,192,156182,1,0,0:0:0:0:
256,192,156282,1,0,0:0:0:0:
153,192,156282,128,0,156507:0:0:0:0:
51,192,156282,128,0,156507:0:0:0:0:
460,192,156432,1,0,0:0:0:0:
460,192,156507,1,0,0:0:0:0:
51,192,156582,128,0,156807:0:0:0:0:
153,192,156582,128,0,156807:0:0:0:0:
358,192,156582,1,0,0:0:0:0:
51,192,156882,128,0,157032:0:0:0:0:
153,192,156882,1,0,0:0:0:0:
460,192,156882,1,0,0:0:0:0:
51,192,157182,1,0,0:0:0:0:
358,192,157182,1,0,0:0:0:0:
460,192,157182,1,0,0:0:0:0:
153,192,157182,128,0,157632:0:0:0:0:
256,192,157332,1,0,0:0:0:0:
358,192,157407,1,0,0:0:0:0:
460,192,157482,1,0,0:0:0:0:
256,192,157632,128,0,157932:0:0:0:0:
51,192,157632,1,0,0:0:0:0:
358,192,157707,1,0,0:0:0:0:
460,192,157782,1,0,0:0:0:0:
358,192,157932,128,0,158007:0:0:0:0:
153,192,158007,128,0,158082:0:0:0:0:
256,192,158082,128,0,158532:0:0:0:0:
51,192,158082,1,0,0:0:0:0:
153,192,158382,1,0,0:0:0:0:
358,192,158532,128,0,158607:0:0:0:0:
51,192,158607,128,0,158682:0:0:0:0:
153,192,158682,128,0,158982:0:0:0:0:
460,192,158982,1,0,0:0:0:0:
256,192,158982,1,0,0:0:0:0:
460,192,159132,1,0,0:0:0:0:
256,192,159132,1,0,0:0:0:0:
358,192,159207,1,0,0:0:0:0:
51,192,159282,1,0,0:0:0:0:
153,192,159282,1,0,0:0:0:0:
51,192,159432,1,0,0:0:0:0:
153,192,159432,1,0,0:0:0:0:
358,192,159582,1,0,0:0:0:0:
256,192,159582,1,0,0:0:0:0:
358,192,159732,1,0,0:0:0:0:
256,192,159732,1,0,0:0:0:0:
51,192,159882,1,0,0:0:0:0:
153,192,159957,1,0,0:0:0:0:
256,192,160032,128,0,160707:0:0:0:0:
460,192,160032,1,0,0:0:0:0:
358,192,160107,1,0,0:0:0:0:
51,192,160182,1,0,0:0:0:0:
153,192,160257,1,0,0:0:0:0:
460,192,160332,1,0,0:0:0:0:
358,192,160407,1,0,0:0:0:0:
51,192,160482,1,0,0:0:0:0:
153,192,160557,1,0,0:0:0:0:
460,192,160632,1,0,0:0:0:0:
358,192,160707,1,0,0:0:0:0:
153,192,160782,128,0,161607:0:0:0:0:
51,192,160782,128,0,162582:0:0:0:0:
256,192,160782,128,0,166182:0:0:0:0:
153,192,161682,128,0,162582:0:0:0:0:
460,192,162582,128,0,164382:0:0:0:0:
358,192,162582,128,0,163407:0:0:0:0:
358,192,163482,128,0,164382:0:0:0:0:
153,192,164382,128,0,166182:0:0:0:0:
51,192,164382,128,0,165207:0:0:0:0:
51,192,165282,128,0,166182:0:0:0:0:
358,192,166182,1,0,0:0:0:0:
460,192,166182,128,0,166282:0:0:0:0:
153,192,166282,1,0,0:0:0:0:
51,192,166282,128,0,166382:0:0:0:0:
358,192,166382,128,0,166482:0:0:0:0:
460,192,166382,1,0,0:0:0:0:
153,192,166482,128,0,166582:0:0:0:0:
51,192,166482,1,0,0:0:0:0:
256,192,166582,128,0,166682:0:0:0:0:
358,192,166682,128,0,166782:0:0:0:0:
460,192,166682,1,0,0:0:0:0:
153,192,166782,128,0,166882:0:0:0:0:
51,192,166782,1,0,0:0:0:0:
358,192,166882,1,0,0:0:0:0:
460,192,166882,128,0,166982:0:0:0:0:
153,192,166982,1,0,0:0:0:0:
51,192,166982,128,0,167082:0:0:0:0:
256,192,167082,128,0,167182:0:0:0:0:
460,192,167182,128,0,167282:0:0:0:0:
358,192,167182,1,0,0:0:0:0:
51,192,167282,128,0,167382:0:0:0:0:
153,192,167282,1,0,0:0:0:0:
358,192,167382,128,0,167482:0:0:0:0:
460,192,167382,1,0,0:0:0:0:
256,192,167482,128,0,167582:0:0:0:0:
153,192,167582,128,0,167682:0:0:0:0:
51,192,167582,1,0,0:0:0:0:
358,192,167682,128,0,167782:0:0:0:0:
460,192,167682,1,0,0:0:0:0:
51,192,167782,128,0,167882:0:0:0:0:
153,192,167782,1,0,0:0:0:0:
460,192,167882,128,0,167982:0:0:0:0:
358,192,167882,1,0,0:0:0:0:
51,192,167982,1,0,0:0:0:0:
256,192,167982,128,0,168132:0:0:0:0:
153,192,167982,128,0,168057:0:0:0:0:
153,192,168282,128,0,168357:0:0:0:0:
51,192,168282,128,0,168357:0:0:0:0:
358,192,168582,128,0,168657:0:0:0:0:
460,192,168582,128,0,168657:0:0:0:0:
153,192,168732,1,0,0:0:0:0:
460,192,168807,1,0,0:0:0:0:
256,192,168882,128,0,169032:0:0:0:0:
358,192,168882,1,0,0:0:0:0:
51,192,168882,128,0,168957:0:0:0:0:
153,192,169182,128,0,169257:0:0:0:0:
51,192,169182,128,0,169257:0:0:0:0:
256,192,169407,1,0,0:0:0:0:
358,192,169482,128,0,169557:0:0:0:0:
460,192,169482,128,0,169557:0:0:0:0:
51,192,169632,1,0,0:0:0:0:
153,192,169707,1,0,0:0:0:0:
358,192,169782,1,0,0:0:0:0:
256,192,169782,128,0,169932:0:0:0:0:
460,192,169782,128,0,169857:0:0:0:0:
153,192,170082,128,0,170157:0:0:0:0:
51,192,170082,128,0,170157:0:0:0:0:
358,192,170232,1,0,0:0:0:0:
460,192,170232,1,0,0:0:0:0:
51,192,170307,1,0,0:0:0:0:
153,192,170382,128,0,170457:0:0:0:0:
256,192,170382,128,0,170457:0:0:0:0:
460,192,170607,1,0,0:0:0:0:
358,192,170682,128,0,170832:0:0:0:0:
256,192,170682,128,0,170757:0:0:0:0:
51,192,170682,1,0,0:0:0:0:
51,192,170982,128,0,171057:0:0:0:0:
153,192,170982,128,0,171057:0:0:0:0:
256,192,171207,1,0,0:0:0:0:
358,192,171282,128,0,171357:0:0:0:0:
460,192,171282,128,0,171357:0:0:0:0:
256,192,171507,1,0,0:0:0:0:
153,192,171582,128,0,171732:0:0:0:0:
51,192,171582,128,0,171732:0:0:0:0:
358,192,171582,1,0,0:0:0:0:
460,192,171807,1,0,0:0:0:0:
460,192,171882,128,0,172182:0:0:0:0:
256,192,171882,1,0,0:0:0:0:
153,192,172182,128,0,172332:0:0:0:0:
51,192,172182,128,0,172332:0:0:0:0:
256,192,172182,1,0,0:0:0:0:
358,192,172332,1,0,0:0:0:0:
460,192,172407,1,0,0:0:0:0:
256,192,172482,128,0,172782:0:0:0:0:
51,192,172482,1,0,0:0:0:0:
153,192,172482,1,0,0:0:0:0:
358,192,172782,128,0,172932:0:0:0:0:
460,192,172782,128,0,172932:0:0:0:0:
51,192,173007,1,0,0:0:0:0:
358,192,173082,128,0,173232:0:0:0:0:
460,192,173082,128,0,173232:0:0:0:0:
51,192,173382,128,0,174282:0:0:0:0:
153,192,173382,128,0,173532:0:0:0:0:
256,192,173382,1,0,0:0:0:0:
358,192,173682,128,0,173757:0:0:0:0:
460,192,173682,128,0,173757:0:0:0:0:
153,192,173982,128,0,174057:0:0:0:0:
256,192,173982,128,0,174057:0:0:0:0:
358,192,174282,1,0,0:0:0:0:
460,192,174282,1,0,0:0:0:0:
256,192,174282,1,0,0:0:0:0:
358,192,174382,1,0,0:0:0:0:
460,192,174382,1,0,0:0:0:0:
51,192,174482,1,0,0:0:0:0:
153,192,174482,1,0,0:0:0:0:
51,192,174582,1,0,0:0:0:0:
153,192,174582,1,0,0:0:0:0:
358,192,174682,1,0,0:0:0:0:
460,192,174682,1,0,0:0:0:0:
358,192,174782,1,0,0:0:0:0:
460,192,174782,1,0,0:0:0:0:
153,192,174882,1,0,0:0:0:0:
256,192,174882,1,0,0:0:0:0:
153,192,174982,1,0,0:0:0:0:
256,192,174982,1,0,0:0:0:0:
358,192,175082,1,0,0:0:0:0:
460,192,175082,1,0,0:0:0:0:
51,192,175182,1,0,0:0:0:0:
358,192,175182,1,0,0:0:0:0:
460,192,175182,1,0,0:0:0:0:
51,192,175482,1,0,0:0:0:0:
256,192,175482,1,0,0:0:0:0:
153,192,175632,1,0,0:0:0:0:
256,192,175707,1,0,0:0:0:0:
358,192,175782,1,0,0:0:0:0:
460,192,175782,1,0,0:0:0:0:
51,192,176082,1,0,0:0:0:0:
153,192,176082,1,0,0:0:0:0:
256,192,176082,1,0,0:0:0:0:
460,192,176082,1,0,0:0:0:0:
153,192,176382,1,0,0:0:0:0:
358,192,176382,1,0,0:0:0:0:
51,192,176532,1,0,0:0:0:0:
460,192,176607,1,0,0:0:0:0:
153,192,176682,1,0,0:0:0:0:
358,192,176682,1,0,0:0:0:0:
256,192,176907,1,0,0:0:0:0:
358,192,176982,1,0,0:0:0:0:
460,192,176982,1,0,0:0:0:0:
51,192,176982,1,0,0:0:0:0:
153,192,177132,1,0,0:0:0:0:
256,192,177207,1,0,0:0:0:0:
51,192,177282,1,0,0:0:0:0:
358,192,177282,1,0,0:0:0:0:
153,192,177432,1,0,0:0:0:0:
460,192,177507,1,0,0:0:0:0:
358,192,177582,1,0,0:0:0:0:
51,192,177582,1,0,0:0:0:0:
153,192,177882,1,0,0:0:0:0:
256,192,177882,1,0,0:0:0:0:
460,192,177882,1,0,0:0:0:0:
358,192,177882,1,0,0:0:0:0:
51,192,178107,1,0,0:0:0:0:
153,192,178182,1,0,0:0:0:0:
460,192,178182,1,0,0:0:0:0:
256,192,178332,1,0,0:0:0:0:
153,192,178482,1,0,0:0:0:0:
460,192,178482,1,0,0:0:0:0:
358,192,178632,1,0,0:0:0:0:
51,192,178782,1,0,0:0:0:0:
153,192,178782,1,0,0:0:0:0:
256,192,178782,1,0,0:0:0:0:
358,192,178932,1,0,0:0:0:0:
256,192,179007,1,0,0:0:0:0:
153,192,179082,1,0,0:0:0:0:
51,192,179082,1,0,0:0:0:0:
460,192,179232,1,0,0:0:0:0:
51,192,179382,1,0,0:0:0:0:
153,192,179382,1,0,0:0:0:0:
358,192,179532,1,0,0:0:0:0:
256,192,179682,1,0,0:0:0:0:
153,192,179682,1,0,0:0:0:0:
51,192,179682,1,0,0:0:0:0:
460,192,179682,1,0,0:0:0:0:
358,192,179982,1,0,0:0:0:0:
460,192,179982,1,0,0:0:0:0:
51,192,180132,1,0,0:0:0:0:
256,192,180282,1,0,0:0:0:0:
358,192,180282,1,0,0:0:0:0:
460,192,180282,1,0,0:0:0:0:
256,192,180582,1,0,0:0:0:0:
358,192,180582,1,0,0:0:0:0:
460,192,180582,1,0,0:0:0:0:
153,192,180732,1,0,0:0:0:0:
256,192,180807,1,0,0:0:0:0:
358,192,180882,1,0,0:0:0:0:
51,192,180882,1,0,0:0:0:0:
460,192,181032,128,0,181182:0:0:0:0:
358,192,181032,128,0,181182:0:0:0:0:
51,192,181182,1,0,0:0:0:0:
153,192,181182,1,0,0:0:0:0:
51,192,181257,1,0,0:0:0:0:
153,192,181257,1,0,0:0:0:0:
358,192,181332,1,0,0:0:0:0:
460,192,181332,1,0,0:0:0:0:
460,192,181407,1,0,0:0:0:0:
358,192,181407,1,0,0:0:0:0:
51,192,181482,128,0,182307:0:0:0:0:
153,192,181482,128,0,182307:0:0:0:0:
256,192,181482,1,0,0:0:0:0:
358,192,181557,1,0,0:0:0:0:
460,192,181632,1,0,0:0:0:0:
256,192,181707,1,0,0:0:0:0:
460,192,181782,1,0,0:0:0:0:
358,192,181857,1,0,0:0:0:0:
256,192,181932,1,0,0:0:0:0:
358,192,182007,1,0,0:0:0:0:
460,192,182082,1,0,0:0:0:0:
256,192,182157,1,0,0:0:0:0:
460,192,182232,1,0,0:0:0:0:
358,192,182307,1,0,0:0:0:0:
256,192,182382,1,0,0:0:0:0:
51,192,182382,128,0,183282:0:0:0:0:
153,192,182382,128,0,182682:0:0:0:0:
460,192,182682,128,0,183282:0:0:0:0:
153,192,183282,1,0,0:0:0:0:
256,192,183282,128,0,183582:0:0:0:0:
358,192,183282,128,0,183882:0:0:0:0:
153,192,183582,128,0,183882:0:0:0:0:
51,192,183582,1,0,0:0:0:0:
256,192,184032,1,0,0:0:0:0:
460,192,184032,1,0,0:0:0:0:
153,192,184107,1,0,0:0:0:0:
256,192,184182,1,0,0:0:0:0:
460,192,184182,1,0,0:0:0:0:
51,192,184182,1,0,0:0:0:0:
358,192,184182,1,0,0:0:0:0:
51,192,185082,1,0,0:0:0:0:
153,192,185082,1,0,0:0:0:0:
256,192,185082,1,0,0:0:0:0:
358,192,185082,1,0,0:0:0:0:
153,192,185382,1,0,0:0:0:0:
256,192,185382,1,0,0:0:0:0:
460,192,185382,1,0,0:0:0:0:
51,192,185382,1,0,0:0:0:0:
256,192,185682,128,0,185982:0:0:0:0:
153,192,185982,1,0,0:0:0:0:
51,192,185982,1,0,0:0:0:0:
358,192,185982,1,0,0:0:0:0:
460,192,185982,1,0,0:0:0:0:
153,192,186582,1,0,0:0:0:0:
256,192,186582,1,0,0:0:0:0:
358,192,186582,1,0,0:0:0:0:
51,192,186882,1,0,0:0:0:0:
153,192,186882,1,0,0:0:0:0:
358,192,186882,1,0,0:0:0:0:
460,192,186882,1,0,0:0:0:0:
256,192,187182,128,0,187482:0:0:0:0:
51,192,187482,1,0,0:0:0:0:
153,192,187482,1,0,0:0:0:0:
358,192,187482,128,0,187782:0:0:0:0:
51,192,187782,1,0,0:0:0:0:
153,192,187782,1,0,0:0:0:0:
256,192,187782,1,0,0:0:0:0:
460,192,187782,1,0,0:0:0:0:
358,192,187932,1,0,0:0:0:0:
153,192,188007,1,0,0:0:0:0:
256,192,188082,1,0,0:0:0:0:
358,192,188157,1,0,0:0:0:0:
153,192,188232,1,0,0:0:0:0:
256,192,188307,1,0,0:0:0:0:
358,192,188382,1,0,0:0:0:0:
153,192,188457,1,0,0:0:0:0:
256,192,188532,1,0,0:0:0:0:
358,192,188532,1,0,0:0:0:0:
51,192,188607,1,0,0:0:0:0:
153,192,188607,1,0,0:0:0:0:
256,192,188682,1,0,0:0:0:0:
358,192,188682,1,0,0:0:0:0:
460,192,188682,1,0,0:0:0:0:
51,192,188682,1,0,0:0:0:0:
153,192,188982,1,0,0:0:0:0:
256,192,189057,1,0,0:0:0:0:
358,192,189132,1,0,0:0:0:0:
153,192,189207,1,0,0:0:0:0:
256,192,189282,1,0,0:0:0:0:
358,192,189282,1,0,0:0:0:0:
51,192,189357,1,0,0:0:0:0:
153,192,189357,1,0,0:0:0:0:
358,192,189432,1,0,0:0:0:0:
460,192,189432,1,0,0:0:0:0:
256,192,189507,1,0,0:0:0:0:
153,192,189582,1,0,0:0:0:0:
358,192,189657,1,0,0:0:0:0:
153,192,189732,1,0,0:0:0:0:
358,192,189807,1,0,0:0:0:0:
153,192,189882,1,0,0:0:0:0:
358,192,189957,1,0,0:0:0:0:
153,192,190032,1,0,0:0:0:0:
358,192,190107,1,0,0:0:0:0:
153,192,190182,1,0,0:0:0:0:
358,192,190257,1,0,0:0:0:0:
153,192,190332,1,0,0:0:0:0:
358,192,190407,1,0,0:0:0:0:
153,192,190482,1,0,0:0:0:0:
358,192,190557,1,0,0:0:0:0:
153,192,190632,1,0,0:0:0:0:
358,192,190707,1,0,0:0:0:0:
153,192,190782,1,0,0:0:0:0:
358,192,190857,1,0,0:0:0:0:
153,192,190932,1,0,0:0:0:0:
358,192,191007,1,0,0:0:0:0:
153,192,191082,1,0,0:0:0:0:
358,192,191157,1,0,0:0:0:0:
153,192,191232,1,0,0:0:0:0:
358,192,191307,1,0,0:0:0:0:
153,192,191382,1,0,0:0:0:0:
358,192,191457,1,0,0:0:0:0:
153,192,191532,1,0,0:0:0:0:
358,192,191607,1,0,0:0:0:0:
153,192,191682,1,0,0:0:0:0:
358,192,191757,1,0,0:0:0:0:
153,192,191832,1,0,0:0:0:0:
358,192,191907,1,0,0:0:0:0:
256,192,191982,1,0,0:0:0:0:
153,192,192057,1,0,0:0:0:0:
358,192,192132,1,0,0:0:0:0:
153,192,192207,1,0,0:0:0:0:
358,192,192282,1,0,0:0:0:0:
153,192,192357,1,0,0:0:0:0:
358,192,192432,1,0,0:0:0:0:
153,192,192507,1,0,0:0:0:0:
358,192,192582,1,0,0:0:0:0:
153,192,192657,1,0,0:0:0:0:
358,192,192732,1,0,0:0:0:0:
153,192,192807,1,0,0:0:0:0:
358,192,192882,1,0,0:0:0:0:
153,192,192957,1,0,0:0:0:0:
358,192,193032,1,0,0:0:0:0:
153,192,193107,1,0,0:0:0:0:
256,192,193182,1,0,0:0:0:0:
358,192,193257,1,0,0:0:0:0:
460,192,193332,1,0,0:0:0:0:
51,192,193407,1,0,0:0:0:0:
153,192,193482,1,0,0:0:0:0:
256,192,193557,1,0,0:0:0:0:
358,192,193632,1,0,0:0:0:0:
460,192,193707,1,0,0:0:0:0:
51,192,193782,1,0,0:0:0:0:
153,192,193857,1,0,0:0:0:0:
256,192,193932,1,0,0:0:0:0:
358,192,194007,1,0,0:0:0:0:
460,192,194082,1,0,0:0:0:0:
51,192,194157,1,0,0:0:0:0:
153,192,194232,1,0,0:0:0:0:
256,192,194307,1,0,0:0:0:0:
358,192,194382,1,0,0:0:0:0:
460,192,194457,1,0,0:0:0:0:
153,192,194532,1,0,0:0:0:0:
256,192,194607,1,0,0:0:0:0:
358,192,194682,1,0,0:0:0:0:
51,192,194757,1,0,0:0:0:0:
153,192,194832,1,0,0:0:0:0:
256,192,194907,1,0,0:0:0:0:
358,192,194982,1,0,0:0:0:0:
460,192,195057,1,0,0:0:0:0:
153,192,195132,1,0,0:0:0:0:
256,192,195207,1,0,0:0:0:0:
358,192,195282,1,0,0:0:0:0:
51,192,195357,1,0,0:0:0:0:
153,192,195432,1,0,0:0:0:0:
256,192,195507,1,0,0:0:0:0:
358,192,195582,1,0,0:0:0:0:
460,192,195657,1,0,0:0:0:0:
51,192,195732,1,0,0:0:0:0:
153,192,195807,1,0,0:0:0:0:
256,192,195882,128,0,198132:0:0:0:0:
51,192,198582,1,0,0:0:0:0:
153,192,198582,1,0,0:0:0:0:
460,192,198582,1,0,0:0:0:0:
256,192,198657,1,0,0:0:0:0:
358,192,198732,1,0,0:0:0:0:
153,192,198807,1,0,0:0:0:0:
256,192,198882,1,0,0:0:0:0:
460,192,198882,1,0,0:0:0:0:
51,192,198957,1,0,0:0:0:0:
358,192,199032,1,0,0:0:0:0:
153,192,199107,1,0,0:0:0:0:
256,192,199182,1,0,0:0:0:0:
460,192,199182,1,0,0:0:0:0:
153,192,199257,1,0,0:0:0:0:
358,192,199332,1,0,0:0:0:0:
256,192,199407,1,0,0:0:0:0:
51,192,199482,1,0,0:0:0:0:
153,192,199482,1,0,0:0:0:0:
358,192,199482,1,0,0:0:0:0:
460,192,199482,1,0,0:0:0:0:
256,192,199557,1,0,0:0:0:0:
153,192,199632,1,0,0:0:0:0:
51,192,199632,1,0,0:0:0:0:
358,192,199707,1,0,0:0:0:0:
460,192,199707,1,0,0:0:0:0:
256,192,199782,1,0,0:0:0:0:
51,192,199782,1,0,0:0:0:0:
153,192,199857,1,0,0:0:0:0:
358,192,199932,1,0,0:0:0:0:
256,192,200007,1,0,0:0:0:0:
51,192,200082,1,0,0:0:0:0:
153,192,200082,1,0,0:0:0:0:
460,192,200082,1,0,0:0:0:0:
358,192,200157,1,0,0:0:0:0:
256,192,200157,1,0,0:0:0:0:
153,192,200232,1,0,0:0:0:0:
51,192,200232,1,0,0:0:0:0:
358,192,200307,1,0,0:0:0:0:
256,192,200382,1,0,0:0:0:0:
51,192,200382,1,0,0:0:0:0:
153,192,200382,1,0,0:0:0:0:
358,192,200457,1,0,0:0:0:0:
460,192,200532,1,0,0:0:0:0:
153,192,200532,1,0,0:0:0:0:
358,192,200607,1,0,0:0:0:0:
460,192,200682,1,0,0:0:0:0:
51,192,200682,1,0,0:0:0:0:
153,192,200757,1,0,0:0:0:0:
256,192,200832,1,0,0:0:0:0:
358,192,200832,1,0,0:0:0:0:
153,192,200907,1,0,0:0:0:0:
256,192,200982,1,0,0:0:0:0:
460,192,200982,1,0,0:0:0:0:
358,192,201057,1,0,0:0:0:0:
51,192,201132,1,0,0:0:0:0:
153,192,201132,1,0,0:0:0:0:
256,192,201207,1,0,0:0:0:0:
358,192,201282,1,0,0:0:0:0:
460,192,201282,1,0,0:0:0:0:
51,192,201282,1,0,0:0:0:0:
153,192,201282,1,0,0:0:0:0:
256,192,201357,1,0,0:0:0:0:
153,192,201432,1,0,0:0:0:0:
460,192,201432,1,0,0:0:0:0:
358,192,201507,1,0,0:0:0:0:
256,192,201582,1,0,0:0:0:0:
51,192,201582,1,0,0:0:0:0:
153,192,201657,1,0,0:0:0:0:
358,192,201732,1,0,0:0:0:0:
256,192,201807,1,0,0:0:0:0:
51,192,201882,1,0,0:0:0:0:
460,192,201882,1,0,0:0:0:0:
153,192,201957,1,0,0:0:0:0:
256,192,202032,1,0,0:0:0:0:
460,192,202032,1,0,0:0:0:0:
51,192,202182,1,0,0:0:0:0:
153,192,202182,1,0,0:0:0:0:
358,192,202182,1,0,0:0:0:0:
256,192,202257,1,0,0:0:0:0:
153,192,202332,1,0,0:0:0:0:
358,192,202407,1,0,0:0:0:0:
256,192,202482,1,0,0:0:0:0:
51,192,202482,1,0,0:0:0:0:
358,192,202557,1,0,0:0:0:0:
460,192,202557,1,0,0:0:0:0:
51,192,202632,1,0,0:0:0:0:
153,192,202632,1,0,0:0:0:0:
358,192,202707,1,0,0:0:0:0:
460,192,202707,1,0,0:0:0:0:
51,192,202782,1,0,0:0:0:0:
256,192,202782,1,0,0:0:0:0:
153,192,202857,1,0,0:0:0:0:
460,192,202857,1,0,0:0:0:0:
358,192,202932,1,0,0:0:0:0:
256,192,202932,1,0,0:0:0:0:
51,192,203007,1,0,0:0:0:0:
153,192,203082,1,0,0:0:0:0:
256,192,203082,1,0,0:0:0:0:
358,192,203082,1,0,0:0:0:0:
460,192,203082,1,0,0:0:0:0:
51,192,203232,1,0,0:0:0:0:
153,192,203232,1,0,0:0:0:0:
358,192,203307,1,0,0:0:0:0:
460,192,203307,1,0,0:0:0:0:
51,192,203382,1,0,0:0:0:0:
256,192,203382,1,0,0:0:0:0:
153,192,203457,1,0,0:0:0:0:
358,192,203457,1,0,0:0:0:0:
460,192,203532,1,0,0:0:0:0:
256,192,203532,1,0,0:0:0:0:
51,192,203607,1,0,0:0:0:0:
153,192,203607,1,0,0:0:0:0:
358,192,203682,1,0,0:0:0:0:
460,192,203682,1,0,0:0:0:0:
256,192,203757,1,0,0:0:0:0:
153,192,203757,1,0,0:0:0:0:
358,192,203832,1,0,0:0:0:0:
460,192,203832,1,0,0:0:0:0:
51,192,203907,1,0,0:0:0:0:
153,192,203982,1,0,0:0:0:0:
256,192,203982,1,0,0:0:0:0:
358,192,203982,1,0,0:0:0:0:
460,192,204057,1,0,0:0:0:0:
51,192,204132,1,0,0:0:0:0:
153,192,204132,1,0,0:0:0:0:
358,192,204207,1,0,0:0:0:0:
153,192,204282,1,0,0:0:0:0:
256,192,204282,1,0,0:0:0:0:
51,192,204357,1,0,0:0:0:0:
358,192,204432,1,0,0:0:0:0:
51,192,204507,1,0,0:0:0:0:
153,192,204582,1,0,0:0:0:0:
256,192,204582,1,0,0:0:0:0:
358,192,204657,1,0,0:0:0:0:
460,192,204732,1,0,0:0:0:0:
153,192,204807,1,0,0:0:0:0:
256,192,204882,1,0,0:0:0:0:
51,192,204882,1,0,0:0:0:0:
460,192,204882,1,0,0:0:0:0:
358,192,204882,128,0,204957:0:0:0:0:
358,192,205107,128,0,205182:0:0:0:0:
460,192,205182,1,0,0:0:0:0:
153,192,205182,128,0,205257:0:0:0:0:
358,192,205257,128,0,205332:0:0:0:0:
153,192,205332,128,0,205407:0:0:0:0:
51,192,205482,1,0,0:0:0:0:
358,192,205482,128,0,205557:0:0:0:0:
153,192,205557,128,0,205632:0:0:0:0:
358,192,205632,128,0,205707:0:0:0:0:
51,192,205782,1,0,0:0:0:0:
256,192,205782,1,0,0:0:0:0:
460,192,205782,1,0,0:0:0:0:
153,192,205857,1,0,0:0:0:0:
358,192,205932,1,0,0:0:0:0:
256,192,206007,1,0,0:0:0:0:
51,192,206082,1,0,0:0:0:0:
358,192,206082,1,0,0:0:0:0:
460,192,206157,1,0,0:0:0:0:
153,192,206232,1,0,0:0:0:0:
358,192,206307,1,0,0:0:0:0:
51,192,206382,1,0,0:0:0:0:
256,192,206382,1,0,0:0:0:0:
358,192,206457,1,0,0:0:0:0:
153,192,206532,1,0,0:0:0:0:
256,192,206607,1,0,0:0:0:0:
153,192,206682,1,0,0:0:0:0:
358,192,206682,1,0,0:0:0:0:
460,192,206682,1,0,0:0:0:0:
51,192,206682,1,0,0:0:0:0:
256,192,206757,1,0,0:0:0:0:
460,192,206832,1,0,0:0:0:0:
358,192,206832,1,0,0:0:0:0:
51,192,206907,1,0,0:0:0:0:
153,192,206907,1,0,0:0:0:0:
460,192,206982,1,0,0:0:0:0:
256,192,206982,1,0,0:0:0:0:
358,192,207057,1,0,0:0:0:0:
153,192,207132,1,0,0:0:0:0:
256,192,207207,1,0,0:0:0:0:
51,192,207282,1,0,0:0:0:0:
358,192,207282,1,0,0:0:0:0:
460,192,207282,1,0,0:0:0:0:
153,192,207357,1,0,0:0:0:0:
256,192,207357,1,0,0:0:0:0:
358,192,207432,1,0,0:0:0:0:
460,192,207432,1,0,0:0:0:0:
153,192,207507,1,0,0:0:0:0:
256,192,207582,1,0,0:0:0:0:
358,192,207582,1,0,0:0:0:0:
460,192,207582,1,0,0:0:0:0:
153,192,207657,1,0,0:0:0:0:
358,192,207732,1,0,0:0:0:0:
51,192,207732,1,0,0:0:0:0:
153,192,207807,1,0,0:0:0:0:
460,192,207882,1,0,0:0:0:0:
51,192,207882,1,0,0:0:0:0:
358,192,207957,1,0,0:0:0:0:
153,192,208032,1,0,0:0:0:0:
256,192,208032,1,0,0:0:0:0:
358,192,208107,1,0,0:0:0:0:
51,192,208182,1,0,0:0:0:0:
256,192,208182,1,0,0:0:0:0:
153,192,208257,1,0,0:0:0:0:
358,192,208332,1,0,0:0:0:0:
460,192,208332,1,0,0:0:0:0:
256,192,208407,1,0,0:0:0:0:
358,192,208482,1,0,0:0:0:0:
460,192,208482,1,0,0:0:0:0:
51,192,208482,1,0,0:0:0:0:
153,192,208482,1,0,0:0:0:0:
256,192,208557,1,0,0:0:0:0:
51,192,208632,1,0,0:0:0:0:
358,192,208632,1,0,0:0:0:0:
153,192,208707,1,0,0:0:0:0:
460,192,208782,1,0,0:0:0:0:
256,192,208782,1,0,0:0:0:0:
358,192,208857,1,0,0:0:0:0:
153,192,208932,1,0,0:0:0:0:
256,192,209007,1,0,0:0:0:0:
51,192,209082,1,0,0:0:0:0:
460,192,209082,1,0,0:0:0:0:
358,192,209157,1,0,0:0:0:0:
256,192,209157,1,0,0:0:0:0:
153,192,209232,1,0,0:0:0:0:
51,192,209232,1,0,0:0:0:0:
256,192,209307,1,0,0:0:0:0:
358,192,209382,1,0,0:0:0:0:
460,192,209382,1,0,0:0:0:0:
153,192,209382,1,0,0:0:0:0:
51,192,209457,1,0,0:0:0:0:
256,192,209532,1,0,0:0:0:0:
153,192,209607,1,0,0:0:0:0:
358,192,209682,1,0,0:0:0:0:
460,192,209682,1,0,0:0:0:0:
256,192,209757,1,0,0:0:0:0:
51,192,209757,1,0,0:0:0:0:
460,192,209832,1,0,0:0:0:0:
358,192,209832,1,0,0:0:0:0:
153,192,209907,1,0,0:0:0:0:
51,192,209907,1,0,0:0:0:0:
460,192,209982,1,0,0:0:0:0:
256,192,209982,1,0,0:0:0:0:
358,192,210057,1,0,0:0:0:0:
51,192,210057,1,0,0:0:0:0:
153,192,210132,1,0,0:0:0:0:
256,192,210132,1,0,0:0:0:0:
460,192,210207,1,0,0:0:0:0:
256,192,210282,1,0,0:0:0:0:
153,192,210282,1,0,0:0:0:0:
51,192,210282,1,0,0:0:0:0:
358,192,210282,1,0,0:0:0:0:
460,192,210432,1,0,0:0:0:0:
358,192,210432,1,0,0:0:0:0:
51,192,210507,1,0,0:0:0:0:
153,192,210507,1,0,0:0:0:0:
256,192,210582,1,0,0:0:0:0:
460,192,210582,1,0,0:0:0:0:
153,192,210657,1,0,0:0:0:0:
358,192,210657,1,0,0:0:0:0:
256,192,210732,1,0,0:0:0:0:
51,192,210732,1,0,0:0:0:0:
460,192,210807,1,0,0:0:0:0:
358,192,210807,1,0,0:0:0:0:
153,192,210882,1,0,0:0:0:0:
51,192,210882,1,0,0:0:0:0:
358,192,210957,1,0,0:0:0:0:
256,192,210957,1,0,0:0:0:0:
153,192,211032,1,0,0:0:0:0:
51,192,211032,1,0,0:0:0:0:
358,192,211107,1,0,0:0:0:0:
460,192,211182,1,0,0:0:0:0:
51,192,211182,1,0,0:0:0:0:
256,192,211182,1,0,0:0:0:0:
153,192,211232,1,0,0:0:0:0:
358,192,211282,1,0,0:0:0:0:
51,192,211332,1,0,0:0:0:0:
256,192,211332,1,0,0:0:0:0:
153,192,211382,1,0,0:0:0:0:
460,192,211432,1,0,0:0:0:0:
358,192,211482,1,0,0:0:0:0:
51,192,211482,1,0,0:0:0:0:
153,192,211532,1,0,0:0:0:0:
256,192,211582,1,0,0:0:0:0:
358,192,211632,1,0,0:0:0:0:
153,192,211676,1,0,0:0:0:0:
460,192,211732,1,0,0:0:0:0:
51,192,211782,1,0,0:0:0:0:
358,192,211782,1,0,0:0:0:0:
153,192,211832,1,0,0:0:0:0:
358,192,211882,1,0,0:0:0:0:
256,192,211932,1,0,0:0:0:0:
51,192,211982,1,0,0:0:0:0:
153,192,212032,1,0,0:0:0:0:
256,192,212082,1,0,0:0:0:0:
358,192,212082,128,0,212982:0:0:0:0:
460,192,212082,128,0,212982:0:0:0:0:
51,192,212157,1,0,0:0:0:0:
153,192,212232,1,0,0:0:0:0:
256,192,212307,1,0,0:0:0:0:
51,192,212382,1,0,0:0:0:0:
153,192,212457,1,0,0:0:0:0:
256,192,212532,1,0,0:0:0:0:
51,192,212607,1,0,0:0:0:0:
153,192,212682,1,0,0:0:0:0:
256,192,212757,1,0,0:0:0:0:
51,192,212832,1,0,0:0:0:0:
153,192,212907,1,0,0:0:0:0:
51,192,212982,1,0,0:0:0:0:
256,192,212982,1,0,0:0:0:0:
358,192,213057,1,0,0:0:0:0:
460,192,213057,1,0,0:0:0:0:
153,192,213132,1,0,0:0:0:0:
51,192,213132,1,0,0:0:0:0:
358,192,213207,1,0,0:0:0:0:
460,192,213207,1,0,0:0:0:0:
256,192,213282,1,0,0:0:0:0:
51,192,213282,1,0,0:0:0:0:
460,192,213357,1,0,0:0:0:0:
358,192,213357,1,0,0:0:0:0:
153,192,213432,1,0,0:0:0:0:
51,192,213432,1,0,0:0:0:0:
358,192,213507,1,0,0:0:0:0:
460,192,213507,1,0,0:0:0:0:
256,192,213582,1,0,0:0:0:0:
51,192,213582,1,0,0:0:0:0:
358,192,213657,1,0,0:0:0:0:
460,192,213657,1,0,0:0:0:0:
153,192,213732,1,0,0:0:0:0:
51,192,213732,1,0,0:0:0:0:
256,192,213807,1,0,0:0:0:0:
460,192,213807,1,0,0:0:0:0:
358,192,213882,1,0,0:0:0:0:
51,192,213882,1,0,0:0:0:0:
153,192,213957,1,0,0:0:0:0:
460,192,214032,1,0,0:0:0:0:
256,192,214032,1,0,0:0:0:0:
51,192,214107,1,0,0:0:0:0:
153,192,214107,1,0,0:0:0:0:
256,192,214182,1,0,0:0:0:0:
460,192,214182,1,0,0:0:0:0:
358,192,214257,1,0,0:0:0:0:
51,192,214257,1,0,0:0:0:0:
153,192,214332,1,0,0:0:0:0:
460,192,214332,1,0,0:0:0:0:
256,192,214407,1,0,0:0:0:0:
460,192,214482,1,0,0:0:0:0:
358,192,214482,1,0,0:0:0:0:
51,192,214557,1,0,0:0:0:0:
153,192,214557,1,0,0:0:0:0:
460,192,214632,1,0,0:0:0:0:
358,192,214632,1,0,0:0:0:0:
153,192,214707,1,0,0:0:0:0:
51,192,214707,1,0,0:0:0:0:
460,192,214782,1,0,0:0:0:0:
358,192,214782,1,0,0:0:0:0:
256,192,214782,1,0,0:0:0:0:
153,192,214857,1,0,0:0:0:0:
51,192,214857,1,0,0:0:0:0:
460,192,214932,1,0,0:0:0:0:
358,192,214932,1,0,0:0:0:0:
153,192,215007,1,0,0:0:0:0:
256,192,215007,1,0,0:0:0:0:
51,192,215082,1,0,0:0:0:0:
460,192,215082,1,0,0:0:0:0:
358,192,215157,1,0,0:0:0:0:
153,192,215157,1,0,0:0:0:0:
256,192,215232,1,0,0:0:0:0:
51,192,215232,1,0,0:0:0:0:
358,192,215307,1,0,0:0:0:0:
460,192,215307,1,0,0:0:0:0:
256,192,215382,1,0,0:0:0:0:
51,192,215382,1,0,0:0:0:0:
153,192,215457,1,0,0:0:0:0:
358,192,215457,1,0,0:0:0:0:
460,192,215532,1,0,0:0:0:0:
256,192,215532,1,0,0:0:0:0:
51,192,215607,1,0,0:0:0:0:
153,192,215607,1,0,0:0:0:0:
358,192,215682,1,0,0:0:0:0:
460,192,215682,1,0,0:0:0:0:
256,192,215757,1,0,0:0:0:0:
153,192,215757,1,0,0:0:0:0:
358,192,215832,1,0,0:0:0:0:
51,192,215832,1,0,0:0:0:0:
153,192,215907,1,0,0:0:0:0:
460,192,215907,1,0,0:0:0:0:
256,192,215982,1,0,0:0:0:0:
358,192,215982,1,0,0:0:0:0:
51,192,216057,1,0,0:0:0:0:
153,192,216057,1,0,0:0:0:0:
460,192,216132,1,0,0:0:0:0:
358,192,216132,1,0,0:0:0:0:
256,192,216207,1,0,0:0:0:0:
153,192,216207,1,0,0:0:0:0:
460,192,216282,1,0,0:0:0:0:
51,192,216282,1,0,0:0:0:0:
358,192,216357,1,0,0:0:0:0:
256,192,216357,1,0,0:0:0:0:
51,192,216432,1,0,0:0:0:0:
153,192,216432,1,0,0:0:0:0:
256,192,216507,1,0,0:0:0:0:
51,192,216582,1,0,0:0:0:0:
460,192,216582,1,0,0:0:0:0:
358,192,216582,1,0,0:0:0:0:
256,192,216657,1,0,0:0:0:0:
153,192,216657,1,0,0:0:0:0:
358,192,216732,1,0,0:0:0:0:
460,192,216732,1,0,0:0:0:0:
153,192,216807,1,0,0:0:0:0:
51,192,216807,1,0,0:0:0:0:
460,192,216882,1,0,0:0:0:0:
256,192,216882,1,0,0:0:0:0:
51,192,216957,1,0,0:0:0:0:
153,192,216957,1,0,0:0:0:0:
358,192,217032,1,0,0:0:0:0:
460,192,217032,1,0,0:0:0:0:
51,192,217107,1,0,0:0:0:0:
153,192,217107,1,0,0:0:0:0:
256,192,217182,1,0,0:0:0:0:
460,192,217182,1,0,0:0:0:0:
51,192,217257,1,0,0:0:0:0:
358,192,217257,1,0,0:0:0:0:
256,192,217332,1,0,0:0:0:0:
153,192,217332,1,0,0:0:0:0:
460,192,217407,1,0,0:0:0:0:
358,192,217407,1,0,0:0:0:0:
51,192,217482,1,0,0:0:0:0:
153,192,217482,1,0,0:0:0:0:
256,192,217557,1,0,0:0:0:0:
358,192,217557,1,0,0:0:0:0:
460,192,217632,1,0,0:0:0:0:
51,192,217632,1,0,0:0:0:0:
153,192,217707,1,0,0:0:0:0:
358,192,217707,1,0,0:0:0:0:
460,192,217782,1,0,0:0:0:0:
256,192,217782,1,0,0:0:0:0:
358,192,217857,1,0,0:0:0:0:
153,192,217857,1,0,0:0:0:0:
51,192,217932,1,0,0:0:0:0:
256,192,217932,1,0,0:0:0:0:
358,192,218007,1,0,0:0:0:0:
460,192,218007,1,0,0:0:0:0:
51,192,218082,1,0,0:0:0:0:
153,192,218082,1,0,0:0:0:0:
256,192,218157,1,0,0:0:0:0:
358,192,218157,1,0,0:0:0:0:
460,192,218232,1,0,0:0:0:0:
51,192,218232,1,0,0:0:0:0:
256,192,218307,1,0,0:0:0:0:
153,192,218307,1,0,0:0:0:0:
358,192,218382,1,0,0:0:0:0:
51,192,218382,1,0,0:0:0:0:
460,192,218382,1,0,0:0:0:0:
153,192,218457,1,0,0:0:0:0:
256,192,218457,1,0,0:0:0:0:
460,192,218532,1,0,0:0:0:0:
358,192,218532,1,0,0:0:0:0:
153,192,218607,1,0,0:0:0:0:
51,192,218607,1,0,0:0:0:0:
256,192,218682,1,0,0:0:0:0:
358,192,218682,1,0,0:0:0:0:
460,192,218757,1,0,0:0:0:0:
51,192,218757,1,0,0:0:0:0:
153,192,218832,1,0,0:0:0:0:
358,192,218832,1,0,0:0:0:0:
460,192,218907,1,0,0:0:0:0:
256,192,218907,1,0,0:0:0:0:
51,192,218982,1,0,0:0:0:0:
153,192,218982,1,0,0:0:0:0:
358,192,219057,1,0,0:0:0:0:
460,192,219057,1,0,0:0:0:0:
51,192,219132,1,0,0:0:0:0:
256,192,219132,1,0,0:0:0:0:
358,192,219207,1,0,0:0:0:0:
460,192,219207,1,0,0:0:0:0:
51,192,219282,1,0,0:0:0:0:
153,192,219282,1,0,0:0:0:0:
256,192,219357,1,0,0:0:0:0:
460,192,219357,1,0,0:0:0:0:
358,192,219432,1,0,0:0:0:0:
51,192,219432,1,0,0:0:0:0:
153,192,219507,1,0,0:0:0:0:
256,192,219507,1,0,0:0:0:0:
358,192,219582,1,0,0:0:0:0:
460,192,219582,1,0,0:0:0:0:
153,192,219657,1,0,0:0:0:0:
51,192,219657,1,0,0:0:0:0:
358,192,219732,1,0,0:0:0:0:
256,192,219732,1,0,0:0:0:0:
460,192,219807,1,0,0:0:0:0:
51,192,219807,1,0,0:0:0:0:
153,192,219882,1,0,0:0:0:0:
358,192,219882,1,0,0:0:0:0:
256,192,219957,1,0,0:0:0:0:
460,192,219957,1,0,0:0:0:0:
153,192,220032,128,0,220182:0:0:0:0:
51,192,220032,128,0,220182:0:0:0:0:
256,192,220182,1,0,0:0:0:0:
