osu file format v14

[General]
AudioFilename: 01. Barbecue.mp3
AudioLeadIn: 0
PreviewTime: 95982
Countdown: 0
SampleSet: Normal
StackLeniency: 0.7
Mode: 3
LetterboxInBreaks: 0
SpecialStyle: 0
WidescreenStoryboard: 1

[Editor]
DistanceSpacing: 0.9
BeatDivisor: 4
GridSize: 32
TimelineZoom: 1.9

[Metadata]
Title:Barbecue
TitleUnicode:Barbecue
Artist:Igorrr & Ruby My Dear
ArtistUnicode:Igorrr & Ruby My Dear
Creator:JamesHappy
Version:Brutal (4K)
Source:
Tags:
BeatmapID:1111099
BeatmapSetID:515053

[Difficulty]
HPDrainRate:8.6
CircleSize:4
OverallDifficulty:8.3
ApproachRate:9
SliderMultiplier:1.6
SliderTickRate:1

[Events]
//Background and Video events
0,0,"1q2w3e.jpg",0,0
//Break Periods
//Storyboard Layer 0 (Background)
//Storyboard Layer 1 (Fail)
//Storyboard Layer 2 (Pass)
//Storyboard Layer 3 (Foreground)
//Storyboard Sound Samples

[TimingPoints]
582,400,3,1,0,90,1,0
582,-75,3,1,0,90,0,0
31382,-50,4,1,0,15,0,0
31432,-50.2630958925626,4,1,0,15,0,0
31482,-51.06926268752,4,1,0,15,0,0
31532,-52.471919324424,4,1,0,15,0,0
31582,-54.5702592087312,4,1,0,15,0,0
31632,-57.5280898876404,4,1,0,15,0,0
31682,-61.6095494801694,4,1,0,15,0,0
31732,-67.2480823789009,4,1,0,15,0,0
31782,-75.187969924812,4,1,0,15,0,0
32982,-76.4058679706602,4,1,0,15,0,0
33082,-80.30838419531,4,1,0,15,0,0
33182,-87.7808988764045,4,1,0,15,0,0
33282,-100.928542591845,4,1,0,15,0,0
33382,-125,4,1,0,15,0,0
33482,-121.773015099854,4,1,0,15,0,0
33582,-113.019891500904,4,1,0,15,0,0
33682,-100.928542591845,4,1,0,15,0,0
33782,-87.7808988764045,4,1,0,15,0,0
33882,-75.187969924812,4,1,0,15,0,0
39782,-75.187969924812,4,1,0,15,0,0
39915,-77.319587628866,4,1,0,15,0,0
40048,-84.5070422535211,4,1,0,15,0,0
40182,-75.187969924812,4,1,0,15,0,0
42582,-76.4058679706602,4,1,0,15,0,0
42682,-80.30838419531,4,1,0,15,0,0
42782,-87.7808988764045,4,1,0,15,0,0
42882,-100.928542591845,4,1,0,15,0,0
42982,-125,4,1,0,15,0,0
43082,-121.773015099854,4,1,0,15,0,0
43182,-113.019891500904,4,1,0,15,0,0
43282,-100.928542591845,4,1,0,15,0,0
43382,-87.7808988764045,4,1,0,15,0,0
43482,-75.187969924812,4,1,0,15,0,0
44982,-88.4955752212389,4,1,0,15,0,0
46182,-75.187969924812,4,1,0,15,0,0
49382,-75.187969924812,4,1,0,15,0,0
49515,-77.319587628866,4,1,0,15,0,0
49648,-84.5070422535211,4,1,0,15,0,0
49782,-81.3008130081301,4,1,0,15,0,0
50982,300,3,1,0,60,1,0
51582,-90.9090909090909,3,1,0,60,0,0
51657,-86.9565217391304,3,1,0,60,0,0
51732,-83.3333333333333,3,1,0,60,0,0
51807,-80,3,1,0,60,0,0
51882,-100,3,1,0,60,0,0
55482,-100,4,1,0,15,0,0
55632,-100.787401574803,4,1,0,15,0,0
55782,-103.225806451613,4,1,0,15,0,0
55932,-107.563025210084,4,1,0,15,0,0
56082,-114.285714285714,4,1,0,15,0,0
56232,-124.271844660194,4,1,0,15,0,0
56382,-139.130434782609,4,1,0,15,0,0
56532,-162.025316455696,4,1,0,15,0,0
56682,-200,4,1,0,15,0,0
56982,-100,4,1,0,15,0,0
58782,-83.3333333333333,3,1,0,60,0,0
59382,-100,3,1,0,60,0,0
60882,-125,4,1,0,15,0,0
61032,-122.549019607843,4,1,0,15,0,0
61182,-115.740740740741,4,1,0,15,0,0
61332,-105.932203389831,4,1,0,15,0,0
61482,-94.6969696969697,4,1,0,15,0,0
61632,-83.3333333333333,4,1,0,15,0,0
61782,-125,4,1,0,15,0,0
61932,-123.737373737374,4,1,0,15,0,0
62082,-120.098039215686,4,1,0,15,0,0
62232,-114.485981308411,4,1,0,15,0,0
62382,-107.456140350877,4,1,0,15,0,0
62532,-99.5934959349594,4,1,0,15,0,0
62682,-91.4179104477612,4,1,0,15,0,0
62832,-83.3333333333333,4,1,0,15,0,0
62982,-100,3,1,0,60,0,0
71682,-128.205128205128,4,1,0,15,0,0
71832,-126.315789473684,4,1,0,15,0,0
71982,-120.967741935484,4,1,0,15,0,0
72132,-112.994350282486,4,1,0,15,0,0
72282,-103.448275862069,4,1,0,15,0,0
72432,-93.3125972006221,4,1,0,15,0,0
72582,-83.3333333333333,4,1,0,15,0,0
72732,-83.7209302325581,4,1,0,15,0,0
72882,-84.9056603773585,4,1,0,15,0,0
73032,-86.9565217391304,4,1,0,15,0,0
73182,-90,4,1,0,15,0,0
73332,-94.2408376963351,4,1,0,15,0,0
73482,-100,4,1,0,15,0,0
80982,-250,4,1,0,15,0,0
81132,-246.715328467153,4,1,0,15,0,0
81282,-237.359550561798,4,1,0,15,0,0
81432,-223.249669749009,4,1,0,15,0,0
81582,-206.09756097561,4,1,0,15,0,0
81732,-187.569367369589,4,1,0,15,0,0
81882,-169,4,1,0,15,0,0
82032,-151.29811996419,4,1,0,15,0,0
82182,-134.984025559105,4,1,0,15,0,0
82332,-120.284697508897,4,1,0,15,0,0
82482,-107.233502538071,4,1,0,15,0,0
82632,-95.7507082152974,4,1,0,15,0,0
82782,-85.6997971602434,4,1,0,15,0,0
82932,-76.9230769230769,4,1,0,15,0,0
83082,-100,4,1,0,15,0,0
95082,-100,4,1,0,15,0,0
95157,-100.023153507756,4,1,0,15,0,0
95232,-100.092678405931,4,1,0,15,0,0
95307,-100.208768267223,4,1,0,15,0,0
95382,-100.371747211896,4,1,0,15,0,0
95457,-100.58207217695,4,1,0,15,0,0
95532,-100.840336134454,4,1,0,15,0,0
95607,-101.147272301569,4,1,0,15,0,0
95682,-101.503759398496,4,1,0,15,0,0
95757,-101.910828025478,4,1,0,15,0,0
95832,-102.369668246445,4,1,0,15,0,0
95907,-102.881638485354,4,1,0,15,0,0
95982,-103.448275862069,4,1,0,15,0,0
96057,-104.071308118526,4,1,0,15,0,0
96132,-104.752667313288,4,1,0,15,0,0
96207,-105.494505494506,4,1,0,15,0,0
96282,-106.299212598425,4,1,0,15,0,0
96357,-107.169436864302,4,1,0,15,0,0
96432,-108.108108108108,4,1,0,15,0,0
96507,-109.118464258651,4,1,0,15,0,0
96582,-110.204081632653,4,1,0,15,0,0
96657,-111.368909512761,4,1,0,15,0,0
96732,-112.617309697602,4,1,0,15,0,0
96807,-113.9541018201,4,1,0,15,0,0
96882,-115.384615384615,4,1,0,15,0,0
96957,-116.914749661705,4,1,0,15,0,0
97032,-118.551042810099,4,1,0,15,0,0
97107,-120.300751879699,4,1,0,15,0,0
97182,-122.171945701357,4,1,0,15,0,0
97257,-124.173613107215,4,1,0,15,0,0
97332,-126.315789473684,4,1,0,15,0,0
97407,-128.609705269425,4,1,0,15,0,0
97482,-131.067961165049,4,1,0,15,0,0
97557,-133.704735376045,4,1,0,15,0,0
97632,-136.53603034134,4,1,0,15,0,0
97707,-139.579967689822,4,1,0,15,0,0
97782,-142.857142857143,4,1,0,15,0,0
97857,-142.634276799643,4,1,0,15,0,0
97932,-141.969831410825,4,1,0,15,0,0
98007,-140.876073079463,4,1,0,15,0,0
98082,-139.372822299652,4,1,0,15,0,0
98157,-137.486573576799,4,1,0,15,0,0
98232,-135.249366018597,4,1,0,15,0,0
98307,-132.697491188057,4,1,0,15,0,0
98382,-129.87012987013,4,1,0,15,0,0
98457,-126.8080047553,4,1,0,15,0,0
98532,-123.552123552124,4,1,0,15,0,0
98607,-120.142669419936,4,1,0,15,0,0
98682,-116.618075801749,4,1,0,15,0,0
98757,-113.014303372771,4,1,0,15,0,0
98832,-109.364319890636,4,1,0,15,0,0
98907,-105.697770437655,4,1,0,15,0,0
98982,-102.040816326531,4,1,0,15,0,0
99057,-98.4161156389359,4,1,0,15,0,0
99132,-94.8429164196799,4,1,0,15,0,0
99207,-91.3372341943771,4,1,0,15,0,0
99282,-87.9120879120879,4,1,0,15,0,0
99357,-84.5777719043214,4,1,0,15,0,0
99432,-81.3421453990849,4,1,0,15,0,0
99507,-78.2109250885983,4,1,0,15,0,0
99582,400,3,1,0,90,1,0
99582,-75.187969924812,4,1,0,15,0,0
100882,-76.4058679706602,4,1,0,15,0,0
100982,-80.30838419531,4,1,0,15,0,0
101082,-87.7808988764045,4,1,0,15,0,0
101182,-100.928542591845,4,1,0,15,0,0
101282,-125,4,1,0,15,0,0
101382,-121.773015099854,4,1,0,15,0,0
101482,-113.019891500904,4,1,0,15,0,0
101582,-100.928542591845,4,1,0,15,0,0
101682,-87.7808988764045,4,1,0,15,0,0
101782,-75.187969924812,4,1,0,15,0,0
107582,-75.187969924812,4,1,0,15,0,0
107715,-77.319587628866,4,1,0,15,0,0
107848,-84.5070422535211,4,1,0,15,0,0
107982,-75.187969924812,4,1,0,15,0,0
110382,-76.4058679706602,4,1,0,15,0,0
110482,-80.30838419531,4,1,0,15,0,0
110582,-87.7808988764045,4,1,0,15,0,0
110682,-100.928542591845,4,1,0,15,0,0
110782,-125,4,1,0,15,0,0
110882,-121.773015099854,4,1,0,15,0,0
110982,-113.019891500904,4,1,0,15,0,0
111082,-100.928542591845,4,1,0,15,0,0
111182,-87.7808988764045,4,1,0,15,0,0
111285,-75.187969924812,4,1,0,15,0,0
111582,-72.463768115942,4,1,0,15,0,0
111982,-71.2589073634204,4,1,0,15,0,0
112382,-70.0934579439252,4,1,0,15,0,0
112782,-75.187969924812,4,1,0,15,0,0
117182,-75.187969924812,4,1,0,15,0,0
117315,-77.319587628866,4,1,0,15,0,0
117448,-84.5070422535211,4,1,0,15,0,0
117582,-75.187969924812,4,1,0,15,0,0
117982,-75.3424657534246,4,1,0,15,0,0
118382,-75.8097863542385,4,1,0,15,0,0
118782,-76.6016713091922,4,1,0,15,0,0
119182,-77.7385159010601,4,1,0,15,0,0
119582,-79.2507204610951,4,1,0,15,0,0
119982,-81.1808118081181,4,1,0,15,0,0
120382,-83.5866261398176,4,1,0,15,0,0
120782,-86.5460267505901,4,1,0,15,0,0
121182,-90.1639344262295,4,1,0,15,0,0
121582,-94.5829750644884,4,1,0,15,0,0
121982,-100,4,1,0,15,0,0
128382,300,3,1,0,90,1,0
128382,-117.647058823529,3,1,0,90,0,0
128982,-117.647058823529,4,1,0,15,0,0
129057,-117.566016073479,4,1,0,15,0,0
129132,-117.323556370302,4,1,0,15,0,0
129207,-116.921671614524,4,1,0,15,0,0
129282,-116.363636363636,4,1,0,15,0,0
129357,-115.653941721256,4,1,0,15,0,0
129432,-114.798206278027,4,1,0,15,0,0
129507,-113.8030673483,4,1,0,15,0,0
129582,-112.676056338028,4,1,0,15,0,0
129657,-111.425462459195,4,1,0,15,0,0
129732,-110.06018916595,4,1,0,15,0,0
129807,-108.589607635207,4,1,0,15,0,0
129882,-107.023411371237,4,1,0,15,0,0
129957,-105.371475612266,4,1,0,15,0,0
130032,-103.643724696356,4,1,0,15,0,0
130107,-101.85000994629,4,1,0,15,0,0
130182,-100,4,1,0,15,0,0
146082,-66.6666666666667,4,1,0,15,0,0
146157,-133.333333333333,4,1,0,15,0,0
146382,-100,4,1,0,15,0,0
155982,-52.6315789473684,4,1,0,15,0,0
156032,-1000,4,1,0,15,0,0
156082,-52.6315789473684,4,1,0,15,0,0
156132,-1000,4,1,0,15,0,0
156182,-52.6315789473684,4,1,0,15,0,0
156232,-1000,4,1,0,15,0,0
156282,-100,4,1,0,15,0,0
157182,-107.52688172043,3,1,0,90,0,0
160782,-117.647058823529,3,1,0,90,0,0
162582,-111.111111111111,3,1,0,90,0,0
164382,-105.263157894737,3,1,0,90,0,0
166182,-95.2380952380952,3,1,0,90,0,0
167982,-100,3,1,0,90,0,0
174282,-52.6315789473684,4,1,0,15,0,0
174332,-1000,4,1,0,15,0,0
174382,-52.6315789473684,4,1,0,15,0,0
174432,-1000,4,1,0,15,0,0
174482,-52.6315789473684,4,1,0,15,0,0
174532,-1000,4,1,0,15,0,0
174582,-52.6315789473684,4,1,0,15,0,0
174632,-1000,4,1,0,15,0,0
174682,-52.6315789473684,4,1,0,15,0,0
174732,-1000,4,1,0,15,0,0
174782,-52.6315789473684,4,1,0,15,0,0
174832,-1000,4,1,0,15,0,0
174882,-52.6315789473684,4,1,0,15,0,0
174932,-1000,4,1,0,15,0,0
174982,-52.6315789473684,4,1,0,15,0,0
175032,-1000,4,1,0,15,0,0
175082,-52.6315789473684,4,1,0,15,0,0
175132,-1000,4,1,0,15,0,0
175182,-100,4,1,0,15,0,0
181182,-52.6315789473684,4,1,0,15,0,0
181219,-1000,4,1,0,15,0,0
181257,-52.6315789473684,4,1,0,15,0,0
181294,-1000,4,1,0,15,0,0
181332,-52.6315789473684,4,1,0,15,0,0
181369,-1000,4,1,0,15,0,0
181407,-52.6315789473684,4,1,0,15,0,0
181444,-1000,4,1,0,15,0,0
181482,-100,4,1,0,15,0,0
181557,-99.7115780799341,4,1,0,15,0,0
181632,-98.8562091503268,4,1,0,15,0,0
181707,-97.4627466774064,4,1,0,15,0,0
181782,-95.5766192733017,4,1,0,15,0,0
181857,-93.2562620423892,4,1,0,15,0,0
181932,-90.5688622754491,4,1,0,15,0,0
182007,-87.5859572927977,4,1,0,15,0,0
182082,-84.3793584379358,4,1,0,15,0,0
182157,-81.0177435554068,4,1,0,15,0,0
182232,-77.5641025641026,4,1,0,15,0,0
182307,-74.0740740740741,4,1,0,15,0,0
182382,-100,4,1,0,15,0,0
195882,-500,4,1,0,15,0,0
196032,-487.012987012987,4,1,0,15,0,0
196182,-451.807228915663,4,1,0,15,0,0
196332,-403.225806451613,4,1,0,15,0,0
196482,-350.467289719626,4,1,0,15,0,0
196632,-300,4,1,0,15,0,0
196782,-255.102040816327,4,1,0,15,0,0
196932,-216.763005780347,4,1,0,15,0,0
197082,-184.729064039409,4,1,0,15,0,0
197232,-158.227848101266,4,1,0,15,0,0
197382,-136.363636363636,4,1,0,15,0,0
197532,-118.296529968454,4,1,0,15,0,0
197682,-103.305785123967,4,1,0,15,0,0
197832,-90.7990314769976,4,1,0,15,0,0
197982,-80.2997858672377,4,1,0,15,0,0
198132,-71.4285714285714,4,1,0,15,0,0
198357,-133.333333333333,4,1,0,15,0,0
198582,-100,4,1,0,15,0,0
212982,-100,4,1,0,15,0,1
214782,-98.3606557377049,4,1,0,15,0,1
216582,-93.75,4,1,0,15,0,1
218382,-86.9565217391304,4,1,0,15,0,1
220182,-86.9565217391304,4,1,0,15,0,0

[Colours]
Combo1 : 253,202,0
Combo2 : 217,9,9
Combo3 : 241,84,7

[HitObjects]
64,192,582,128,0,682:0:0:0:0:
192,192,982,128,0,1082:0:0:0:0:
448,192,1382,128,0,1482:0:0:0:0:
320,192,1382,1,0,0:0:0:0:
64,192,1782,128,0,1882:0:0:0:0:
320,192,2182,128,0,2282:0:0:0:0:
192,192,2582,1,0,0:0:0:0:
448,192,2582,128,0,2682:0:0:0:0:
192,192,2982,1,0,0:0:0:0:
448,192,2982,128,0,3082:0:0:0:0:
64,192,3382,128,0,3482:0:0:0:0:
320,192,3382,1,0,0:0:0:0:
448,192,3782,128,0,3882:0:0:0:0:
320,192,4182,128,0,4282:0:0:0:0:
192,192,4182,1,0,0:0:0:0:
64,192,4582,128,0,4682:0:0:0:0:
448,192,4982,128,0,5082:0:0:0:0:
192,192,5382,128,0,5482:0:0:0:0:
320,192,5382,1,0,0:0:0:0:
64,192,5782,128,0,5882:0:0:0:0:
320,192,5982,1,0,0:0:0:0:
448,192,6182,128,0,6282:0:0:0:0:
192,192,6382,1,0,0:0:0:0:
192,192,6582,1,0,0:0:0:0:
64,192,6582,128,0,6682:0:0:0:0:
320,192,6982,128,0,7082:0:0:0:0:
192,192,7182,1,0,0:0:0:0:
448,192,7382,128,0,7482:0:0:0:0:
320,192,7582,1,0,0:0:0:0:
64,192,7782,1,0,0:0:0:0:
192,192,7782,128,0,7882:0:0:0:0:
320,192,8182,128,0,8282:0:0:0:0:
64,192,8382,1,0,0:0:0:0:
448,192,8582,128,0,8682:0:0:0:0:
192,192,8982,128,0,9082:0:0:0:0:
320,192,9382,128,0,9482:0:0:0:0:
448,192,9782,128,0,9882:0:0:0:0:
64,192,10182,128,0,10282:0:0:0:0:
192,192,10582,128,0,10682:0:0:0:0:
448,192,10982,128,0,11082:0:0:0:0:
320,192,10982,1,0,0:0:0:0:
64,192,11382,128,0,11482:0:0:0:0:
320,192,11782,128,0,11882:0:0:0:0:
192,192,12182,1,0,0:0:0:0:
448,192,12182,128,0,12282:0:0:0:0:
192,192,12582,1,0,0:0:0:0:
448,192,12582,128,0,12682:0:0:0:0:
64,192,12982,128,0,13082:0:0:0:0:
320,192,12982,1,0,0:0:0:0:
448,192,13382,128,0,13482:0:0:0:0:
320,192,13782,128,0,13882:0:0:0:0:
192,192,13782,1,0,0:0:0:0:
64,192,14182,128,0,14282:0:0:0:0:
448,192,14582,128,0,14682:0:0:0:0:
192,192,14982,128,0,15082:0:0:0:0:
320,192,14982,1,0,0:0:0:0:
64,192,15382,128,0,15482:0:0:0:0:
320,192,15582,1,0,0:0:0:0:
448,192,15782,128,0,15882:0:0:0:0:
192,192,15982,1,0,0:0:0:0:
192,192,16182,1,0,0:0:0:0:
64,192,16182,128,0,16282:0:0:0:0:
320,192,16582,128,0,16682:0:0:0:0:
192,192,16782,1,0,0:0:0:0:
448,192,16982,128,0,17082:0:0:0:0:
320,192,17182,1,0,0:0:0:0:
64,192,17382,1,0,0:0:0:0:
192,192,17382,128,0,17482:0:0:0:0:
320,192,17782,128,0,17882:0:0:0:0:
64,192,17982,1,0,0:0:0:0:
448,192,18182,128,0,18282:0:0:0:0:
192,192,18582,128,0,18682:0:0:0:0:
320,192,18982,128,0,19082:0:0:0:0:
448,192,19382,128,0,19482:0:0:0:0:
64,192,19782,128,0,19882:0:0:0:0:
192,192,19782,128,0,19882:0:0:0:0:
192,192,20182,128,0,20282:0:0:0:0:
320,192,20182,128,0,20282:0:0:0:0:
448,192,20582,128,0,20682:0:0:0:0:
64,192,20982,128,0,21082:0:0:0:0:
192,192,20982,128,0,21082:0:0:0:0:
320,192,21382,128,0,21482:0:0:0:0:
448,192,21382,128,0,21482:0:0:0:0:
448,192,21782,128,0,21882:0:0:0:0:
64,192,22182,128,0,22282:0:0:0:0:
320,192,22182,128,0,22282:0:0:0:0:
448,192,22582,128,0,22682:0:0:0:0:
192,192,22582,128,0,22682:0:0:0:0:
448,192,22982,128,0,23082:0:0:0:0:
320,192,23382,128,0,23482:0:0:0:0:
192,192,23382,128,0,23482:0:0:0:0:
64,192,23782,128,0,23882:0:0:0:0:
448,192,23782,128,0,23882:0:0:0:0:
192,192,24182,128,0,24282:0:0:0:0:
192,192,24582,128,0,24682:0:0:0:0:
320,192,24582,128,0,24682:0:0:0:0:
64,192,24982,128,0,25082:0:0:0:0:
320,192,24982,128,0,25082:0:0:0:0:
448,192,25382,128,0,25482:0:0:0:0:
64,192,25782,128,0,25882:0:0:0:0:
192,192,25782,128,0,25882:0:0:0:0:
320,192,26182,128,0,26282:0:0:0:0:
448,192,26182,128,0,26282:0:0:0:0:
192,192,26382,1,0,0:0:0:0:
448,192,26582,128,0,26682:0:0:0:0:
192,192,26982,128,0,27082:0:0:0:0:
64,192,26982,128,0,27082:0:0:0:0:
320,192,27382,128,0,27482:0:0:0:0:
448,192,27382,128,0,27482:0:0:0:0:
448,192,27782,128,0,27882:0:0:0:0:
192,192,28182,128,0,28282:0:0:0:0:
64,192,28182,128,0,28282:0:0:0:0:
320,192,28582,128,0,28682:0:0:0:0:
192,192,28582,128,0,28682:0:0:0:0:
448,192,28982,128,0,29082:0:0:0:0:
192,192,28982,1,0,0:0:0:0:
64,192,29382,128,0,31382:0:0:0:0:
192,192,29382,128,0,29482:0:0:0:0:
320,192,29382,128,0,29482:0:0:0:0:
320,192,29782,128,0,29882:0:0:0:0:
448,192,29782,128,0,29882:0:0:0:0:
192,192,30182,128,0,30282:0:0:0:0:
448,192,30582,128,0,30682:0:0:0:0:
320,192,30582,128,0,31382:0:0:0:0:
448,192,30982,128,0,31082:0:0:0:0:
192,192,31382,1,0,0:0:0:0:
448,192,31782,128,0,32582:0:0:0:0:
64,192,31782,1,0,0:0:0:0:
320,192,31782,1,0,0:0:0:0:
64,192,32048,128,0,32315:0:0:0:0:
320,192,32048,128,0,32582:0:0:0:0:
64,192,32582,128,0,32715:0:0:0:0:
192,192,32582,1,0,0:0:0:0:
320,192,32982,1,0,0:0:0:0:
448,192,32982,128,0,34082:0:0:0:0:
192,192,32982,1,0,0:0:0:0:
64,192,33782,1,0,0:0:0:0:
64,192,34082,1,0,0:0:0:0:
192,192,34182,128,0,34282:0:0:0:0:
448,192,34182,1,0,0:0:0:0:
320,192,34182,1,0,0:0:0:0:
320,192,34582,128,0,34682:0:0:0:0:
64,192,34582,1,0,0:0:0:0:
192,192,34582,1,0,0:0:0:0:
448,192,34982,128,0,35082:0:0:0:0:
64,192,34982,1,0,0:0:0:0:
320,192,34982,1,0,0:0:0:0:
64,192,35382,1,0,0:0:0:0:
192,192,35382,1,0,0:0:0:0:
320,192,35382,1,0,0:0:0:0:
448,192,35382,1,0,0:0:0:0:
64,192,36182,1,0,0:0:0:0:
192,192,36582,1,0,0:0:0:0:
320,192,36582,1,0,0:0:0:0:
448,192,36582,1,0,0:0:0:0:
64,192,36982,1,0,0:0:0:0:
192,192,36982,1,0,0:0:0:0:
320,192,36982,1,0,0:0:0:0:
64,192,37382,1,0,0:0:0:0:
448,192,37382,1,0,0:0:0:0:
320,192,37382,1,0,0:0:0:0:
192,192,37482,1,0,0:0:0:0:
320,192,37582,1,0,0:0:0:0:
192,192,37682,1,0,0:0:0:0:
64,192,37782,1,0,0:0:0:0:
448,192,37782,1,0,0:0:0:0:
320,192,37832,1,0,0:0:0:0:
192,192,37882,1,0,0:0:0:0:
64,192,37932,1,0,0:0:0:0:
320,192,37982,1,0,0:0:0:0:
192,192,38032,1,0,0:0:0:0:
448,192,38082,1,0,0:0:0:0:
320,192,38132,1,0,0:0:0:0:
192,192,38182,1,0,0:0:0:0:
64,192,38182,1,0,0:0:0:0:
320,192,38232,1,0,0:0:0:0:
448,192,38282,1,0,0:0:0:0:
192,192,38332,1,0,0:0:0:0:
320,192,38382,1,0,0:0:0:0:
64,192,38432,1,0,0:0:0:0:
192,192,38482,1,0,0:0:0:0:
320,192,38532,1,0,0:0:0:0:
448,192,38582,1,0,0:0:0:0:
64,192,38582,128,0,38982:0:0:0:0:
320,192,38782,1,0,0:0:0:0:
448,192,38782,1,0,0:0:0:0:
320,192,38882,1,0,0:0:0:0:
448,192,38882,1,0,0:0:0:0:
320,192,38982,1,0,0:0:0:0:
448,192,38982,1,0,0:0:0:0:
192,192,39082,1,0,0:0:0:0:
320,192,39182,1,0,0:0:0:0:
192,192,39282,1,0,0:0:0:0:
320,192,39382,1,0,0:0:0:0:
448,192,39382,1,0,0:0:0:0:
192,192,39482,1,0,0:0:0:0:
64,192,39582,128,0,39782:0:0:0:0:
448,192,39782,128,0,40182:0:0:0:0:
320,192,39782,1,0,0:0:0:0:
192,192,39782,1,0,0:0:0:0:
320,192,39915,1,0,0:0:0:0:
192,192,39915,1,0,0:0:0:0:
320,192,40048,1,0,0:0:0:0:
192,192,40048,1,0,0:0:0:0:
64,192,40182,1,0,0:0:0:0:
192,192,40182,1,0,0:0:0:0:
320,192,40182,1,0,0:0:0:0:
64,192,40582,1,0,0:0:0:0:
448,192,40982,1,0,0:0:0:0:
64,192,41382,1,0,0:0:0:0:
320,192,41382,128,0,41782:0:0:0:0:
192,192,41382,1,0,0:0:0:0:
448,192,41782,128,0,42182:0:0:0:0:
64,192,41782,128,0,41982:0:0:0:0:
192,192,42182,1,0,0:0:0:0:
320,192,42232,1,0,0:0:0:0:
448,192,42282,1,0,0:0:0:0:
192,192,42332,1,0,0:0:0:0:
320,192,42382,1,0,0:0:0:0:
64,192,42432,1,0,0:0:0:0:
192,192,42482,1,0,0:0:0:0:
320,192,42532,1,0,0:0:0:0:
448,192,42582,128,0,43682:0:0:0:0:
64,192,42582,1,0,0:0:0:0:
192,192,42582,1,0,0:0:0:0:
192,192,43382,1,0,0:0:0:0:
64,192,43682,1,0,0:0:0:0:
320,192,43782,128,0,43882:0:0:0:0:
192,192,43782,1,0,0:0:0:0:
448,192,43782,1,0,0:0:0:0:
192,192,44182,128,0,44282:0:0:0:0:
64,192,44182,1,0,0:0:0:0:
320,192,44182,1,0,0:0:0:0:
64,192,44582,128,0,44682:0:0:0:0:
192,192,44582,1,0,0:0:0:0:
448,192,44582,1,0,0:0:0:0:
320,192,44982,128,0,46182:0:0:0:0:
192,192,44982,1,0,0:0:0:0:
448,192,44982,1,0,0:0:0:0:
64,192,46182,1,0,0:0:0:0:
192,192,46182,1,0,0:0:0:0:
448,192,46182,1,0,0:0:0:0:
64,192,46582,1,0,0:0:0:0:
320,192,46582,1,0,0:0:0:0:
448,192,46582,1,0,0:0:0:0:
64,192,46982,1,0,0:0:0:0:
448,192,46982,1,0,0:0:0:0:
192,192,46982,1,0,0:0:0:0:
320,192,47082,1,0,0:0:0:0:
192,192,47182,1,0,0:0:0:0:
320,192,47282,1,0,0:0:0:0:
64,192,47382,1,0,0:0:0:0:
448,192,47382,1,0,0:0:0:0:
192,192,47382,1,0,0:0:0:0:
320,192,47432,1,0,0:0:0:0:
192,192,47482,1,0,0:0:0:0:
64,192,47532,1,0,0:0:0:0:
320,192,47582,1,0,0:0:0:0:
448,192,47582,1,0,0:0:0:0:
192,192,47632,1,0,0:0:0:0:
64,192,47682,1,0,0:0:0:0:
448,192,47682,1,0,0:0:0:0:
320,192,47732,1,0,0:0:0:0:
192,192,47782,1,0,0:0:0:0:
64,192,47782,1,0,0:0:0:0:
320,192,47832,1,0,0:0:0:0:
448,192,47882,1,0,0:0:0:0:
192,192,47932,1,0,0:0:0:0:
320,192,47982,1,0,0:0:0:0:
64,192,48032,1,0,0:0:0:0:
192,192,48082,1,0,0:0:0:0:
320,192,48132,1,0,0:0:0:0:
448,192,48182,1,0,0:0:0:0:
64,192,48182,1,0,0:0:0:0:
192,192,48232,1,0,0:0:0:0:
320,192,48282,1,0,0:0:0:0:
448,192,48332,1,0,0:0:0:0:
192,192,48382,1,0,0:0:0:0:
320,192,48432,1,0,0:0:0:0:
64,192,48482,1,0,0:0:0:0:
192,192,48532,1,0,0:0:0:0:
320,192,48582,1,0,0:0:0:0:
448,192,48582,128,0,48982:0:0:0:0:
192,192,48982,128,0,49182:0:0:0:0:
64,192,48982,128,0,49382:0:0:0:0:
448,192,49382,128,0,49782:0:0:0:0:
320,192,49382,1,0,0:0:0:0:
192,192,49382,1,0,0:0:0:0:
320,192,49515,1,0,0:0:0:0:
192,192,49515,1,0,0:0:0:0:
320,192,49648,1,0,0:0:0:0:
192,192,49648,1,0,0:0:0:0:
192,192,49782,1,0,0:0:0:0:
320,192,49782,1,0,0:0:0:0:
64,192,49782,128,0,50982:0:0:0:0:
320,192,50982,1,0,0:0:0:0:
448,192,50982,1,0,0:0:0:0:
192,192,51582,128,0,51882:0:0:0:0:
64,192,51882,1,0,0:0:0:0:
448,192,51882,1,0,0:0:0:0:
320,192,52182,1,0,0:0:0:0:
448,192,52182,1,0,0:0:0:0:
192,192,52257,1,0,0:0:0:0:
320,192,52332,1,0,0:0:0:0:
64,192,52407,1,0,0:0:0:0:
448,192,52482,1,0,0:0:0:0:
192,192,52557,1,0,0:0:0:0:
320,192,52632,1,0,0:0:0:0:
192,192,52707,1,0,0:0:0:0:
64,192,52782,1,0,0:0:0:0:
448,192,52782,1,0,0:0:0:0:
64,192,53982,1,0,0:0:0:0:
320,192,53982,1,0,0:0:0:0:
448,192,54057,1,0,0:0:0:0:
192,192,54132,1,0,0:0:0:0:
320,192,54207,1,0,0:0:0:0:
64,192,54282,1,0,0:0:0:0:
448,192,54357,1,0,0:0:0:0:
192,192,54432,1,0,0:0:0:0:
64,192,54432,1,0,0:0:0:0:
320,192,54507,1,0,0:0:0:0:
64,192,54582,1,0,0:0:0:0:
192,192,54582,1,0,0:0:0:0:
320,192,54657,1,0,0:0:0:0:
192,192,54732,1,0,0:0:0:0:
64,192,54807,1,0,0:0:0:0:
320,192,54882,1,0,0:0:0:0:
192,192,54957,1,0,0:0:0:0:
448,192,55032,1,0,0:0:0:0:
320,192,55107,1,0,0:0:0:0:
192,192,55182,1,0,0:0:0:0:
64,192,55182,1,0,0:0:0:0:
320,192,55257,1,0,0:0:0:0:
64,192,55332,1,0,0:0:0:0:
192,192,55407,1,0,0:0:0:0:
320,192,55482,1,0,0:0:0:0:
192,192,55632,1,0,0:0:0:0:
64,192,55782,1,0,0:0:0:0:
320,192,55932,1,0,0:0:0:0:
192,192,56082,1,0,0:0:0:0:
448,192,56232,1,0,0:0:0:0:
320,192,56382,1,0,0:0:0:0:
192,192,56532,1,0,0:0:0:0:
64,192,56682,1,0,0:0:0:0:
320,192,56982,1,0,0:0:0:0:
192,192,57057,1,0,0:0:0:0:
320,192,57132,1,0,0:0:0:0:
192,192,57207,1,0,0:0:0:0:
64,192,57282,1,0,0:0:0:0:
448,192,57357,1,0,0:0:0:0:
320,192,57432,1,0,0:0:0:0:
64,192,57507,1,0,0:0:0:0:
192,192,57582,1,0,0:0:0:0:
448,192,57657,1,0,0:0:0:0:
320,192,57732,1,0,0:0:0:0:
192,192,57807,1,0,0:0:0:0:
64,192,57882,1,0,0:0:0:0:
320,192,57957,1,0,0:0:0:0:
192,192,58032,1,0,0:0:0:0:
448,192,58100,1,0,0:0:0:0:
64,192,58182,1,0,0:0:0:0:
320,192,58182,1,0,0:0:0:0:
192,192,58257,1,0,0:0:0:0:
64,192,58332,1,0,0:0:0:0:
448,192,58482,1,0,0:0:0:0:
192,192,58557,1,0,0:0:0:0:
320,192,58632,1,0,0:0:0:0:
64,192,58707,1,0,0:0:0:0:
192,192,58782,128,0,59382:0:0:0:0:
448,192,58782,128,0,59382:0:0:0:0:
64,192,59382,1,0,0:0:0:0:
320,192,59457,1,0,0:0:0:0:
192,192,59532,1,0,0:0:0:0:
320,192,59607,1,0,0:0:0:0:
448,192,59682,1,0,0:0:0:0:
64,192,59682,1,0,0:0:0:0:
192,192,59757,1,0,0:0:0:0:
448,192,59832,1,0,0:0:0:0:
320,192,59907,1,0,0:0:0:0:
192,192,59982,1,0,0:0:0:0:
64,192,59982,1,0,0:0:0:0:
448,192,60057,1,0,0:0:0:0:
320,192,60132,1,0,0:0:0:0:
64,192,60132,1,0,0:0:0:0:
192,192,60207,1,0,0:0:0:0:
320,192,60282,1,0,0:0:0:0:
448,192,60282,1,0,0:0:0:0:
64,192,60357,1,0,0:0:0:0:
320,192,60432,1,0,0:0:0:0:
192,192,60507,1,0,0:0:0:0:
448,192,60582,1,0,0:0:0:0:
192,192,60657,1,0,0:0:0:0:
320,192,60732,1,0,0:0:0:0:
64,192,60807,1,0,0:0:0:0:
192,192,60882,1,0,0:0:0:0:
448,192,60882,128,0,61782:0:0:0:0:
192,192,61782,128,0,62982:0:0:0:0:
64,192,61782,1,0,0:0:0:0:
64,192,62982,1,0,0:0:0:0:
320,192,62982,1,0,0:0:0:0:
448,192,62982,128,0,63882:0:0:0:0:
64,192,63882,1,0,0:0:0:0:
320,192,63882,1,0,0:0:0:0:
64,192,64182,1,0,0:0:0:0:
320,192,64182,1,0,0:0:0:0:
192,192,64332,1,0,0:0:0:0:
448,192,64332,1,0,0:0:0:0:
320,192,64782,1,0,0:0:0:0:
64,192,64782,1,0,0:0:0:0:
192,192,64857,1,0,0:0:0:0:
320,192,64932,1,0,0:0:0:0:
192,192,65007,1,0,0:0:0:0:
64,192,65082,128,0,65157:0:0:0:0:
320,192,65082,128,0,65157:0:0:0:0:
448,192,65157,1,0,0:0:0:0:
192,192,65232,1,0,0:0:0:0:
320,192,65307,1,0,0:0:0:0:
64,192,65382,1,0,0:0:0:0:
192,192,65382,1,0,0:0:0:0:
448,192,65457,1,0,0:0:0:0:
320,192,65532,1,0,0:0:0:0:
64,192,65532,1,0,0:0:0:0:
192,192,65607,1,0,0:0:0:0:
320,192,65682,1,0,0:0:0:0:
448,192,65682,1,0,0:0:0:0:
64,192,65757,1,0,0:0:0:0:
192,192,65832,1,0,0:0:0:0:
448,192,65832,1,0,0:0:0:0:
320,192,65907,1,0,0:0:0:0:
64,192,65982,1,0,0:0:0:0:
192,192,65982,1,0,0:0:0:0:
320,192,66019,1,0,0:0:0:0:
448,192,66057,1,0,0:0:0:0:
64,192,66094,1,0,0:0:0:0:
192,192,66132,1,0,0:0:0:0:
320,192,66169,1,0,0:0:0:0:
448,192,66207,1,0,0:0:0:0:
64,192,66244,1,0,0:0:0:0:
320,192,66282,1,0,0:0:0:0:
192,192,66282,1,0,0:0:0:0:
448,192,66432,1,0,0:0:0:0:
64,192,66432,1,0,0:0:0:0:
192,192,66507,1,0,0:0:0:0:
320,192,66582,1,0,0:0:0:0:
448,192,66582,1,0,0:0:0:0:
64,192,66657,1,0,0:0:0:0:
192,192,66732,1,0,0:0:0:0:
448,192,66732,1,0,0:0:0:0:
64,192,66882,128,0,67082:0:0:0:0:
320,192,66882,1,0,0:0:0:0:
192,192,66882,128,0,67082:0:0:0:0:
320,192,67082,128,0,67282:0:0:0:0:
448,192,67082,128,0,67282:0:0:0:0:
64,192,67282,128,0,67482:0:0:0:0:
192,192,67282,128,0,67482:0:0:0:0:
320,192,67482,128,0,67682:0:0:0:0:
448,192,67482,1,0,0:0:0:0:
64,192,67682,128,0,67782:0:0:0:0:
192,192,67682,128,0,67782:0:0:0:0:
320,192,67782,1,0,0:0:0:0:
448,192,67782,1,0,0:0:0:0:
192,192,67857,1,0,0:0:0:0:
320,192,67932,1,0,0:0:0:0:
192,192,68007,1,0,0:0:0:0:
64,192,68082,1,0,0:0:0:0:
448,192,68082,1,0,0:0:0:0:
64,192,68682,1,0,0:0:0:0:
192,192,68682,1,0,0:0:0:0:
448,192,68757,1,0,0:0:0:0:
320,192,68832,1,0,0:0:0:0:
64,192,68832,1,0,0:0:0:0:
192,192,68907,1,0,0:0:0:0:
320,192,68982,1,0,0:0:0:0:
448,192,68982,1,0,0:0:0:0:
64,192,69057,1,0,0:0:0:0:
192,192,69132,1,0,0:0:0:0:
448,192,69132,1,0,0:0:0:0:
320,192,69282,1,0,0:0:0:0:
192,192,69357,1,0,0:0:0:0:
320,192,69432,1,0,0:0:0:0:
192,192,69507,1,0,0:0:0:0:
64,192,69582,128,0,69657:0:0:0:0:
448,192,69582,1,0,0:0:0:0:
320,192,69732,1,0,0:0:0:0:
192,192,69807,1,0,0:0:0:0:
320,192,69882,1,0,0:0:0:0:
448,192,69882,128,0,69957:0:0:0:0:
448,192,70032,128,0,70107:0:0:0:0:
320,192,70032,1,0,0:0:0:0:
64,192,70182,1,0,0:0:0:0:
192,192,70182,1,0,0:0:0:0:
320,192,70332,1,0,0:0:0:0:
448,192,70332,1,0,0:0:0:0:
192,192,70407,1,0,0:0:0:0:
64,192,70407,1,0,0:0:0:0:
448,192,70482,1,0,0:0:0:0:
320,192,70482,128,0,70782:0:0:0:0:
192,192,70632,128,0,70782:0:0:0:0:
64,192,70782,1,0,0:0:0:0:
448,192,70782,1,0,0:0:0:0:
192,192,71007,1,0,0:0:0:0:
320,192,71082,1,0,0:0:0:0:
64,192,71157,1,0,0:0:0:0:
192,192,71232,1,0,0:0:0:0:
448,192,71232,1,0,0:0:0:0:
320,192,71307,1,0,0:0:0:0:
192,192,71382,1,0,0:0:0:0:
64,192,71382,128,0,71682:0:0:0:0:
448,192,71682,128,0,73482:0:0:0:0:
320,192,71682,128,0,72582:0:0:0:0:
64,192,72582,1,0,0:0:0:0:
192,192,72657,1,0,0:0:0:0:
320,192,72732,1,0,0:0:0:0:
64,192,72807,1,0,0:0:0:0:
192,192,72882,1,0,0:0:0:0:
320,192,72957,1,0,0:0:0:0:
64,192,73032,1,0,0:0:0:0:
192,192,73107,1,0,0:0:0:0:
320,192,73182,1,0,0:0:0:0:
64,192,73257,1,0,0:0:0:0:
192,192,73332,1,0,0:0:0:0:
320,192,73407,1,0,0:0:0:0:
64,192,73482,128,0,74982:0:0:0:0:
192,192,73557,1,0,0:0:0:0:
320,192,73632,1,0,0:0:0:0:
448,192,73707,1,0,0:0:0:0:
192,192,73782,1,0,0:0:0:0:
448,192,74382,1,0,0:0:0:0:
448,192,74682,1,0,0:0:0:0:
192,192,74982,1,0,0:0:0:0:
320,192,74982,1,0,0:0:0:0:
448,192,74982,1,0,0:0:0:0:
64,192,75582,1,0,0:0:0:0:
192,192,75582,1,0,0:0:0:0:
320,192,75582,1,0,0:0:0:0:
192,192,75882,1,0,0:0:0:0:
320,192,75882,1,0,0:0:0:0:
448,192,75882,1,0,0:0:0:0:
64,192,76107,1,0,0:0:0:0:
320,192,76107,1,0,0:0:0:0:
448,192,76107,1,0,0:0:0:0:
192,192,77682,1,0,0:0:0:0:
320,192,77682,1,0,0:0:0:0:
448,192,77682,1,0,0:0:0:0:
64,192,78582,1,0,0:0:0:0:
192,192,78582,1,0,0:0:0:0:
320,192,78732,1,0,0:0:0:0:
448,192,78732,1,0,0:0:0:0:
64,192,78882,128,0,79482:0:0:0:0:
192,192,78882,1,0,0:0:0:0:
192,192,79482,1,0,0:0:0:0:
320,192,79482,1,0,0:0:0:0:
448,192,79482,1,0,0:0:0:0:
64,192,79782,1,0,0:0:0:0:
192,192,79782,1,0,0:0:0:0:
448,192,79782,1,0,0:0:0:0:
448,192,79932,1,0,0:0:0:0:
320,192,79932,1,0,0:0:0:0:
64,192,79932,1,0,0:0:0:0:
192,192,80082,1,0,0:0:0:0:
448,192,80082,1,0,0:0:0:0:
64,192,80082,1,0,0:0:0:0:
320,192,80382,1,0,0:0:0:0:
192,192,80382,1,0,0:0:0:0:
64,192,80382,1,0,0:0:0:0:
192,192,80532,1,0,0:0:0:0:
320,192,80532,1,0,0:0:0:0:
448,192,80532,1,0,0:0:0:0:
320,192,80682,1,0,0:0:0:0:
448,192,80682,1,0,0:0:0:0:
64,192,80682,1,0,0:0:0:0:
192,192,80982,128,0,83082:0:0:0:0:
64,192,80982,1,0,0:0:0:0:
448,192,80982,1,0,0:0:0:0:
320,192,83082,1,0,0:0:0:0:
64,192,83082,1,0,0:0:0:0:
192,192,83382,1,0,0:0:0:0:
448,192,83382,1,0,0:0:0:0:
64,192,83457,1,0,0:0:0:0:
320,192,83532,1,0,0:0:0:0:
192,192,83607,1,0,0:0:0:0:
320,192,83682,1,0,0:0:0:0:
448,192,83757,1,0,0:0:0:0:
192,192,83832,1,0,0:0:0:0:
320,192,83907,1,0,0:0:0:0:
64,192,83982,1,0,0:0:0:0:
192,192,83982,1,0,0:0:0:0:
320,192,84282,1,0,0:0:0:0:
448,192,84282,1,0,0:0:0:0:
64,192,84582,1,0,0:0:0:0:
192,192,84732,1,0,0:0:0:0:
320,192,84807,1,0,0:0:0:0:
448,192,84882,1,0,0:0:0:0:
64,192,84882,1,0,0:0:0:0:
192,192,85032,1,0,0:0:0:0:
320,192,85182,1,0,0:0:0:0:
448,192,85182,1,0,0:0:0:0:
192,192,85332,1,0,0:0:0:0:
64,192,85482,1,0,0:0:0:0:
448,192,85482,1,0,0:0:0:0:
320,192,85782,1,0,0:0:0:0:
64,192,85782,1,0,0:0:0:0:
448,192,85857,1,0,0:0:0:0:
192,192,85932,1,0,0:0:0:0:
320,192,86007,1,0,0:0:0:0:
64,192,86082,1,0,0:0:0:0:
192,192,86157,1,0,0:0:0:0:
320,192,86232,1,0,0:0:0:0:
448,192,86232,1,0,0:0:0:0:
320,192,86382,1,0,0:0:0:0:
448,192,86382,1,0,0:0:0:0:
64,192,86532,1,0,0:0:0:0:
192,192,86682,1,0,0:0:0:0:
320,192,86682,1,0,0:0:0:0:
448,192,86832,1,0,0:0:0:0:
64,192,86982,1,0,0:0:0:0:
192,192,86982,1,0,0:0:0:0:
320,192,87132,1,0,0:0:0:0:
192,192,87207,1,0,0:0:0:0:
448,192,87282,1,0,0:0:0:0:
320,192,87357,1,0,0:0:0:0:
192,192,87432,1,0,0:0:0:0:
64,192,87432,1,0,0:0:0:0:
448,192,87582,1,0,0:0:0:0:
192,192,87732,1,0,0:0:0:0:
320,192,87882,1,0,0:0:0:0:
448,192,87882,1,0,0:0:0:0:
64,192,88032,1,0,0:0:0:0:
192,192,88182,1,0,0:0:0:0:
448,192,88182,1,0,0:0:0:0:
320,192,88332,1,0,0:0:0:0:
192,192,88407,1,0,0:0:0:0:
64,192,88482,1,0,0:0:0:0:
320,192,88557,1,0,0:0:0:0:
192,192,88632,1,0,0:0:0:0:
448,192,88707,1,0,0:0:0:0:
320,192,88782,1,0,0:0:0:0:
64,192,88782,1,0,0:0:0:0:
192,192,88932,1,0,0:0:0:0:
320,192,89082,1,0,0:0:0:0:
448,192,89082,1,0,0:0:0:0:
64,192,89232,1,0,0:0:0:0:
192,192,89382,1,0,0:0:0:0:
448,192,89382,1,0,0:0:0:0:
320,192,89532,1,0,0:0:0:0:
192,192,89607,1,0,0:0:0:0:
64,192,89682,1,0,0:0:0:0:
448,192,89682,1,0,0:0:0:0:
320,192,89832,1,0,0:0:0:0:
192,192,89982,1,0,0:0:0:0:
64,192,89982,1,0,0:0:0:0:
320,192,90282,1,0,0:0:0:0:
448,192,90282,1,0,0:0:0:0:
192,192,90582,1,0,0:0:0:0:
64,192,90582,1,0,0:0:0:0:
448,192,90657,1,0,0:0:0:0:
192,192,90732,1,0,0:0:0:0:
320,192,90807,1,0,0:0:0:0:
64,192,90882,1,0,0:0:0:0:
192,192,90957,1,0,0:0:0:0:
448,192,91032,1,0,0:0:0:0:
320,192,91107,1,0,0:0:0:0:
192,192,91182,1,0,0:0:0:0:
64,192,91182,1,0,0:0:0:0:
448,192,91332,1,0,0:0:0:0:
320,192,91482,1,0,0:0:0:0:
64,192,91482,1,0,0:0:0:0:
192,192,91632,1,0,0:0:0:0:
448,192,91782,1,0,0:0:0:0:
320,192,91782,1,0,0:0:0:0:
192,192,91932,1,0,0:0:0:0:
64,192,92082,1,0,0:0:0:0:
320,192,92232,1,0,0:0:0:0:
448,192,92232,1,0,0:0:0:0:
192,192,92382,1,0,0:0:0:0:
320,192,92532,1,0,0:0:0:0:
64,192,92532,1,0,0:0:0:0:
64,192,92682,1,0,0:0:0:0:
448,192,92682,1,0,0:0:0:0:
192,192,92832,1,0,0:0:0:0:
320,192,92982,1,0,0:0:0:0:
448,192,92982,1,0,0:0:0:0:
192,192,93132,1,0,0:0:0:0:
320,192,93282,1,0,0:0:0:0:
64,192,93432,1,0,0:0:0:0:
192,192,93432,1,0,0:0:0:0:
64,192,93582,1,0,0:0:0:0:
192,192,93582,1,0,0:0:0:0:
448,192,93732,1,0,0:0:0:0:
64,192,93882,128,0,95082:0:0:0:0:
320,192,93882,1,0,0:0:0:0:
192,192,94182,1,0,0:0:0:0:
320,192,94332,1,0,0:0:0:0:
448,192,94407,1,0,0:0:0:0:
192,192,94482,1,0,0:0:0:0:
448,192,94557,1,0,0:0:0:0:
320,192,94632,1,0,0:0:0:0:
192,192,94632,1,0,0:0:0:0:
320,192,94782,1,0,0:0:0:0:
320,192,94932,1,0,0:0:0:0:
448,192,95082,128,0,99582:0:0:0:0:
192,192,95082,1,0,0:0:0:0:
320,192,97782,128,0,99582:0:0:0:0:
64,192,99582,128,0,100382:0:0:0:0:
192,192,99582,1,0,0:0:0:0:
448,192,99848,128,0,100115:0:0:0:0:
192,192,99848,128,0,100382:0:0:0:0:
448,192,100382,128,0,100515:0:0:0:0:
320,192,100382,1,0,0:0:0:0:
320,192,100782,1,0,0:0:0:0:
192,192,100782,1,0,0:0:0:0:
64,192,100782,128,0,101882:0:0:0:0:
448,192,101582,1,0,0:0:0:0:
448,192,101882,1,0,0:0:0:0:
192,192,101982,1,0,0:0:0:0:
320,192,101982,128,0,102082:0:0:0:0:
64,192,101982,1,0,0:0:0:0:
192,192,102382,128,0,102482:0:0:0:0:
448,192,102382,1,0,0:0:0:0:
320,192,102382,1,0,0:0:0:0:
448,192,102782,1,0,0:0:0:0:
192,192,102782,1,0,0:0:0:0:
64,192,102782,128,0,102882:0:0:0:0:
448,192,103182,1,0,0:0:0:0:
320,192,103182,1,0,0:0:0:0:
64,192,103182,1,0,0:0:0:0:
192,192,103182,1,0,0:0:0:0:
448,192,103982,1,0,0:0:0:0:
192,192,104382,1,0,0:0:0:0:
320,192,104382,1,0,0:0:0:0:
64,192,104382,1,0,0:0:0:0:
320,192,104782,1,0,0:0:0:0:
192,192,104782,1,0,0:0:0:0:
448,192,104782,1,0,0:0:0:0:
64,192,105182,1,0,0:0:0:0:
192,192,105182,1,0,0:0:0:0:
448,192,105182,1,0,0:0:0:0:
320,192,105282,1,0,0:0:0:0:
192,192,105382,1,0,0:0:0:0:
320,192,105482,1,0,0:0:0:0:
448,192,105582,1,0,0:0:0:0:
64,192,105582,1,0,0:0:0:0:
192,192,105632,1,0,0:0:0:0:
320,192,105682,1,0,0:0:0:0:
448,192,105732,1,0,0:0:0:0:
192,192,105782,1,0,0:0:0:0:
320,192,105832,1,0,0:0:0:0:
64,192,105882,1,0,0:0:0:0:
192,192,105932,1,0,0:0:0:0:
448,192,105982,1,0,0:0:0:0:
320,192,105982,1,0,0:0:0:0:
192,192,106032,1,0,0:0:0:0:
64,192,106082,1,0,0:0:0:0:
320,192,106132,1,0,0:0:0:0:
192,192,106182,1,0,0:0:0:0:
448,192,106232,1,0,0:0:0:0:
320,192,106282,1,0,0:0:0:0:
192,192,106332,1,0,0:0:0:0:
64,192,106382,1,0,0:0:0:0:
448,192,106382,128,0,106782:0:0:0:0:
192,192,106582,1,0,0:0:0:0:
64,192,106582,1,0,0:0:0:0:
192,192,106682,1,0,0:0:0:0:
64,192,106682,1,0,0:0:0:0:
192,192,106782,1,0,0:0:0:0:
64,192,106782,1,0,0:0:0:0:
320,192,106882,1,0,0:0:0:0:
192,192,106982,1,0,0:0:0:0:
320,192,107082,1,0,0:0:0:0:
192,192,107182,1,0,0:0:0:0:
64,192,107182,1,0,0:0:0:0:
320,192,107282,1,0,0:0:0:0:
448,192,107382,128,0,107582:0:0:0:0:
320,192,107582,1,0,0:0:0:0:
192,192,107582,1,0,0:0:0:0:
64,192,107582,128,0,107982:0:0:0:0:
320,192,107715,1,0,0:0:0:0:
192,192,107715,1,0,0:0:0:0:
320,192,107848,1,0,0:0:0:0:
192,192,107848,1,0,0:0:0:0:
320,192,107982,1,0,0:0:0:0:
448,192,107982,1,0,0:0:0:0:
192,192,107982,1,0,0:0:0:0:
448,192,108382,1,0,0:0:0:0:
64,192,108382,1,0,0:0:0:0:
64,192,108782,1,0,0:0:0:0:
448,192,108782,1,0,0:0:0:0:
320,192,109182,1,0,0:0:0:0:
192,192,109182,128,0,109582:0:0:0:0:
448,192,109182,1,0,0:0:0:0:
448,192,109582,128,0,109782:0:0:0:0:
64,192,109582,128,0,109982:0:0:0:0:
320,192,109982,1,0,0:0:0:0:
192,192,110032,1,0,0:0:0:0:
64,192,110082,1,0,0:0:0:0:
320,192,110132,1,0,0:0:0:0:
192,192,110182,1,0,0:0:0:0:
448,192,110232,1,0,0:0:0:0:
320,192,110282,1,0,0:0:0:0:
192,192,110332,1,0,0:0:0:0:
64,192,110382,128,0,111482:0:0:0:0:
448,192,110382,1,0,0:0:0:0:
320,192,110382,1,0,0:0:0:0:
64,192,111582,1,0,0:0:0:0:
192,192,111582,1,0,0:0:0:0:
448,192,111582,1,0,0:0:0:0:
320,192,111682,1,0,0:0:0:0:
64,192,111782,1,0,0:0:0:0:
192,192,111882,1,0,0:0:0:0:
64,192,111982,1,0,0:0:0:0:
448,192,111982,1,0,0:0:0:0:
320,192,111982,1,0,0:0:0:0:
192,192,112082,1,0,0:0:0:0:
448,192,112182,1,0,0:0:0:0:
320,192,112282,1,0,0:0:0:0:
448,192,112382,1,0,0:0:0:0:
64,192,112382,1,0,0:0:0:0:
192,192,112382,1,0,0:0:0:0:
320,192,112482,1,0,0:0:0:0:
192,192,112582,1,0,0:0:0:0:
320,192,112682,1,0,0:0:0:0:
64,192,112782,1,0,0:0:0:0:
448,192,112782,1,0,0:0:0:0:
192,192,112782,128,0,113182:0:0:0:0:
64,192,113182,1,0,0:0:0:0:
320,192,113182,1,0,0:0:0:0:
448,192,113182,1,0,0:0:0:0:
320,192,113982,1,0,0:0:0:0:
448,192,113982,1,0,0:0:0:0:
64,192,113982,1,0,0:0:0:0:
192,192,114382,1,0,0:0:0:0:
448,192,114382,1,0,0:0:0:0:
64,192,114382,1,0,0:0:0:0:
448,192,114782,1,0,0:0:0:0:
320,192,114782,1,0,0:0:0:0:
64,192,114782,1,0,0:0:0:0:
192,192,114882,1,0,0:0:0:0:
320,192,114982,1,0,0:0:0:0:
192,192,115082,1,0,0:0:0:0:
320,192,115182,1,0,0:0:0:0:
448,192,115182,1,0,0:0:0:0:
64,192,115182,1,0,0:0:0:0:
192,192,115232,1,0,0:0:0:0:
320,192,115282,1,0,0:0:0:0:
448,192,115332,1,0,0:0:0:0:
64,192,115382,1,0,0:0:0:0:
192,192,115382,1,0,0:0:0:0:
320,192,115432,1,0,0:0:0:0:
64,192,115482,1,0,0:0:0:0:
448,192,115482,1,0,0:0:0:0:
192,192,115532,1,0,0:0:0:0:
320,192,115582,1,0,0:0:0:0:
448,192,115582,1,0,0:0:0:0:
192,192,115632,1,0,0:0:0:0:
64,192,115682,1,0,0:0:0:0:
320,192,115732,1,0,0:0:0:0:
192,192,115782,1,0,0:0:0:0:
448,192,115832,1,0,0:0:0:0:
320,192,115882,1,0,0:0:0:0:
192,192,115932,1,0,0:0:0:0:
448,192,115982,1,0,0:0:0:0:
64,192,115982,1,0,0:0:0:0:
320,192,116032,1,0,0:0:0:0:
192,192,116082,1,0,0:0:0:0:
64,192,116132,1,0,0:0:0:0:
320,192,116182,1,0,0:0:0:0:
192,192,116232,1,0,0:0:0:0:
448,192,116282,1,0,0:0:0:0:
320,192,116332,1,0,0:0:0:0:
192,192,116382,1,0,0:0:0:0:
64,192,116382,128,0,116782:0:0:0:0:
320,192,116782,128,0,116982:0:0:0:0:
448,192,116782,128,0,117182:0:0:0:0:
320,192,117182,1,0,0:0:0:0:
64,192,117182,128,0,117582:0:0:0:0:
192,192,117182,1,0,0:0:0:0:
192,192,117315,1,0,0:0:0:0:
320,192,117315,1,0,0:0:0:0:
192,192,117448,1,0,0:0:0:0:
320,192,117448,1,0,0:0:0:0:
192,192,117582,1,0,0:0:0:0:
448,192,117582,128,0,123182:0:0:0:0:
320,192,117582,1,0,0:0:0:0:
64,192,121982,128,0,123182:0:0:0:0:
192,192,122982,128,0,123182:0:0:0:0:
320,192,123382,128,0,124582:0:0:0:0:
64,192,124582,128,0,124782:0:0:0:0:
192,192,124782,128,0,124982:0:0:0:0:
320,192,124982,128,0,125582:0:0:0:0:
64,192,125782,128,0,126582:0:0:0:0:
320,192,126582,128,0,126982:0:0:0:0:
448,192,126982,128,0,127382:0:0:0:0:
192,192,127382,128,0,127482:0:0:0:0:
320,192,127482,128,0,127882:0:0:0:0:
448,192,127882,128,0,127982:0:0:0:0:
320,192,127982,128,0,128082:0:0:0:0:
192,192,128082,128,0,128382:0:0:0:0:
448,192,128382,128,0,128982:0:0:0:0:
64,192,128982,128,0,129282:0:0:0:0:
320,192,128982,1,0,0:0:0:0:
192,192,129057,1,0,0:0:0:0:
448,192,129132,1,0,0:0:0:0:
320,192,129207,1,0,0:0:0:0:
192,192,129282,1,0,0:0:0:0:
448,192,129357,1,0,0:0:0:0:
320,192,129357,1,0,0:0:0:0:
64,192,129432,1,0,0:0:0:0:
192,192,129432,1,0,0:0:0:0:
320,192,129507,1,0,0:0:0:0:
448,192,129507,1,0,0:0:0:0:
64,192,129582,1,0,0:0:0:0:
192,192,129582,1,0,0:0:0:0:
320,192,129657,1,0,0:0:0:0:
448,192,129732,1,0,0:0:0:0:
192,192,129807,1,0,0:0:0:0:
320,192,129882,1,0,0:0:0:0:
64,192,129957,1,0,0:0:0:0:
192,192,130032,1,0,0:0:0:0:
320,192,130107,1,0,0:0:0:0:
448,192,130182,1,0,0:0:0:0:
64,192,130182,128,0,136482:0:0:0:0:
192,192,130182,128,0,133782:0:0:0:0:
320,192,131682,1,0,0:0:0:0:
320,192,131982,1,0,0:0:0:0:
448,192,132282,1,0,0:0:0:0:
448,192,132582,1,0,0:0:0:0:
448,192,132957,1,0,0:0:0:0:
320,192,133182,1,0,0:0:0:0:
320,192,133482,1,0,0:0:0:0:
448,192,133782,1,0,0:0:0:0:
320,192,133857,1,0,0:0:0:0:
192,192,133932,1,0,0:0:0:0:
448,192,134007,1,0,0:0:0:0:
320,192,134082,1,0,0:0:0:0:
192,192,134157,1,0,0:0:0:0:
448,192,134232,1,0,0:0:0:0:
192,192,134307,1,0,0:0:0:0:
320,192,134382,1,0,0:0:0:0:
448,192,134457,1,0,0:0:0:0:
192,192,134532,1,0,0:0:0:0:
320,192,134607,1,0,0:0:0:0:
448,192,134682,1,0,0:0:0:0:
192,192,134757,1,0,0:0:0:0:
448,192,134832,1,0,0:0:0:0:
320,192,134907,1,0,0:0:0:0:
192,192,134982,1,0,0:0:0:0:
448,192,135057,1,0,0:0:0:0:
192,192,135132,1,0,0:0:0:0:
320,192,135207,1,0,0:0:0:0:
448,192,135282,1,0,0:0:0:0:
192,192,135357,1,0,0:0:0:0:
448,192,135432,1,0,0:0:0:0:
320,192,135507,1,0,0:0:0:0:
192,192,135582,1,0,0:0:0:0:
448,192,135657,1,0,0:0:0:0:
192,192,135732,1,0,0:0:0:0:
320,192,135807,1,0,0:0:0:0:
448,192,135882,1,0,0:0:0:0:
192,192,135957,1,0,0:0:0:0:
320,192,136032,1,0,0:0:0:0:
448,192,136107,1,0,0:0:0:0:
192,192,136182,1,0,0:0:0:0:
320,192,136257,1,0,0:0:0:0:
448,192,136332,1,0,0:0:0:0:
192,192,136407,1,0,0:0:0:0:
320,192,136482,128,0,137382:0:0:0:0:
64,192,137382,1,0,0:0:0:0:
448,192,137382,1,0,0:0:0:0:
192,192,137482,1,0,0:0:0:0:
448,192,137582,1,0,0:0:0:0:
192,192,137682,1,0,0:0:0:0:
320,192,137782,1,0,0:0:0:0:
64,192,137882,1,0,0:0:0:0:
320,192,137982,1,0,0:0:0:0:
192,192,138082,1,0,0:0:0:0:
448,192,138182,1,0,0:0:0:0:
64,192,138282,1,0,0:0:0:0:
320,192,138382,1,0,0:0:0:0:
192,192,138482,1,0,0:0:0:0:
320,192,138582,1,0,0:0:0:0:
64,192,138682,1,0,0:0:0:0:
448,192,138782,1,0,0:0:0:0:
192,192,138882,1,0,0:0:0:0:
320,192,138982,1,0,0:0:0:0:
192,192,139082,1,0,0:0:0:0:
448,192,139182,1,0,0:0:0:0:
320,192,139182,1,0,0:0:0:0:
64,192,139282,1,0,0:0:0:0:
320,192,139382,1,0,0:0:0:0:
192,192,139482,1,0,0:0:0:0:
448,192,139582,1,0,0:0:0:0:
192,192,139682,1,0,0:0:0:0:
320,192,139782,1,0,0:0:0:0:
64,192,139882,1,0,0:0:0:0:
320,192,139982,1,0,0:0:0:0:
192,192,140082,1,0,0:0:0:0:
448,192,140182,1,0,0:0:0:0:
192,192,140282,1,0,0:0:0:0:
320,192,140382,1,0,0:0:0:0:
64,192,140482,1,0,0:0:0:0:
320,192,140582,1,0,0:0:0:0:
192,192,140682,1,0,0:0:0:0:
448,192,140782,1,0,0:0:0:0:
64,192,140882,1,0,0:0:0:0:
448,192,140982,1,0,0:0:0:0:
192,192,140982,1,0,0:0:0:0:
320,192,141082,1,0,0:0:0:0:
64,192,141182,1,0,0:0:0:0:
320,192,141282,1,0,0:0:0:0:
192,192,141382,1,0,0:0:0:0:
448,192,141482,1,0,0:0:0:0:
192,192,141582,1,0,0:0:0:0:
320,192,141682,1,0,0:0:0:0:
64,192,141782,1,0,0:0:0:0:
448,192,141882,1,0,0:0:0:0:
192,192,141982,1,0,0:0:0:0:
320,192,142082,1,0,0:0:0:0:
192,192,142182,1,0,0:0:0:0:
448,192,142282,1,0,0:0:0:0:
64,192,142382,1,0,0:0:0:0:
320,192,142482,1,0,0:0:0:0:
192,192,142582,1,0,0:0:0:0:
320,192,142682,1,0,0:0:0:0:
64,192,142782,1,0,0:0:0:0:
192,192,142782,1,0,0:0:0:0:
448,192,142882,1,0,0:0:0:0:
192,192,142982,1,0,0:0:0:0:
320,192,143082,1,0,0:0:0:0:
64,192,143182,1,0,0:0:0:0:
320,192,143282,1,0,0:0:0:0:
192,192,143382,1,0,0:0:0:0:
448,192,143482,1,0,0:0:0:0:
192,192,143582,1,0,0:0:0:0:
320,192,143682,1,0,0:0:0:0:
64,192,143782,1,0,0:0:0:0:
320,192,143882,1,0,0:0:0:0:
192,192,143982,1,0,0:0:0:0:
448,192,144082,1,0,0:0:0:0:
192,192,144182,1,0,0:0:0:0:
320,192,144282,1,0,0:0:0:0:
64,192,144382,1,0,0:0:0:0:
320,192,144482,1,0,0:0:0:0:
192,192,144582,1,0,0:0:0:0:
448,192,144682,1,0,0:0:0:0:
320,192,144782,1,0,0:0:0:0:
192,192,144882,1,0,0:0:0:0:
64,192,144982,1,0,0:0:0:0:
320,192,145082,1,0,0:0:0:0:
192,192,145182,1,0,0:0:0:0:
448,192,145282,1,0,0:0:0:0:
320,192,145382,1,0,0:0:0:0:
192,192,145482,1,0,0:0:0:0:
64,192,145582,1,0,0:0:0:0:
320,192,145682,1,0,0:0:0:0:
192,192,145782,1,0,0:0:0:0:
448,192,145882,1,0,0:0:0:0:
320,192,145982,1,0,0:0:0:0:
192,192,146082,1,0,0:0:0:0:
64,192,146382,1,0,0:0:0:0:
192,192,146382,1,0,0:0:0:0:
320,192,146382,1,0,0:0:0:0:
448,192,146382,1,0,0:0:0:0:
192,192,146682,1,0,0:0:0:0:
448,192,146832,1,0,0:0:0:0:
320,192,146907,1,0,0:0:0:0:
64,192,146982,128,0,147282:0:0:0:0:
192,192,147282,1,0,0:0:0:0:
320,192,147282,1,0,0:0:0:0:
448,192,147282,1,0,0:0:0:0:
192,192,147582,1,0,0:0:0:0:
64,192,147582,128,0,147882:0:0:0:0:
320,192,147732,1,0,0:0:0:0:
192,192,147807,1,0,0:0:0:0:
448,192,147882,128,0,148107:0:0:0:0:
320,192,147882,1,0,0:0:0:0:
192,192,148032,1,0,0:0:0:0:
64,192,148107,1,0,0:0:0:0:
448,192,148182,128,0,148482:0:0:0:0:
192,192,148182,1,0,0:0:0:0:
320,192,148182,1,0,0:0:0:0:
64,192,148332,1,0,0:0:0:0:
192,192,148407,1,0,0:0:0:0:
320,192,148482,128,0,149082:0:0:0:0:
64,192,148632,1,0,0:0:0:0:
192,192,148707,1,0,0:0:0:0:
448,192,148782,1,0,0:0:0:0:
64,192,149082,1,0,0:0:0:0:
448,192,149082,1,0,0:0:0:0:
192,192,149082,128,0,149982:0:0:0:0:
320,192,149232,1,0,0:0:0:0:
448,192,149307,1,0,0:0:0:0:
64,192,149382,1,0,0:0:0:0:
320,192,149532,1,0,0:0:0:0:
64,192,149607,1,0,0:0:0:0:
448,192,149682,1,0,0:0:0:0:
320,192,149832,1,0,0:0:0:0:
448,192,149907,1,0,0:0:0:0:
64,192,149982,128,0,150432:0:0:0:0:
320,192,149982,1,0,0:0:0:0:
448,192,150132,1,0,0:0:0:0:
192,192,150207,1,0,0:0:0:0:
320,192,150282,1,0,0:0:0:0:
448,192,150432,128,0,150807:0:0:0:0:
320,192,150582,1,0,0:0:0:0:
192,192,150807,128,0,150882:0:0:0:0:
320,192,150882,128,0,151182:0:0:0:0:
64,192,150882,1,0,0:0:0:0:
448,192,150882,1,0,0:0:0:0:
448,192,151182,128,0,151257:0:0:0:0:
192,192,151257,128,0,151332:0:0:0:0:
64,192,151332,128,0,151707:0:0:0:0:
320,192,151482,1,0,0:0:0:0:
448,192,151482,1,0,0:0:0:0:
64,192,151782,128,0,152382:0:0:0:0:
320,192,151782,1,0,0:0:0:0:
448,192,151782,1,0,0:0:0:0:
192,192,151932,1,0,0:0:0:0:
320,192,152007,1,0,0:0:0:0:
448,192,152082,1,0,0:0:0:0:
192,192,152232,128,0,152382:0:0:0:0:
448,192,152382,128,0,152457:0:0:0:0:
320,192,152457,128,0,152532:0:0:0:0:
192,192,152532,128,0,152607:0:0:0:0:
448,192,152607,128,0,152682:0:0:0:0:
64,192,152682,128,0,152757:0:0:0:0:
320,192,152682,1,0,0:0:0:0:
192,192,152832,1,0,0:0:0:0:
320,192,152907,1,0,0:0:0:0:
192,192,152982,1,0,0:0:0:0:
64,192,152982,1,0,0:0:0:0:
448,192,152982,128,0,153057:0:0:0:0:
64,192,153282,128,0,153357:0:0:0:0:
320,192,153282,1,0,0:0:0:0:
448,192,153282,1,0,0:0:0:0:
192,192,153357,1,0,0:0:0:0:
320,192,153432,1,0,0:0:0:0:
448,192,153432,1,0,0:0:0:0:
192,192,153507,1,0,0:0:0:0:
64,192,153582,1,0,0:0:0:0:
320,192,153582,1,0,0:0:0:0:
448,192,153582,128,0,153682:0:0:0:0:
192,192,153882,128,0,153982:0:0:0:0:
64,192,153882,128,0,153982:0:0:0:0:
448,192,154032,1,0,0:0:0:0:
320,192,154182,128,0,154282:0:0:0:0:
192,192,154182,128,0,154282:0:0:0:0:
64,192,154282,1,0,0:0:0:0:
448,192,154382,1,0,0:0:0:0:
320,192,154482,1,0,0:0:0:0:
64,192,154482,1,0,0:0:0:0:
192,192,154482,1,0,0:0:0:0:
320,192,154782,1,0,0:0:0:0:
448,192,154782,1,0,0:0:0:0:
64,192,154882,1,0,0:0:0:0:
192,192,154882,1,0,0:0:0:0:
320,192,154982,1,0,0:0:0:0:
448,192,154982,1,0,0:0:0:0:
64,192,155082,128,0,155307:0:0:0:0:
192,192,155082,128,0,155307:0:0:0:0:
64,192,155382,1,0,0:0:0:0:
192,192,155382,1,0,0:0:0:0:
448,192,155382,1,0,0:0:0:0:
320,192,155532,1,0,0:0:0:0:
192,192,155607,1,0,0:0:0:0:
320,192,155682,1,0,0:0:0:0:
448,192,155682,1,0,0:0:0:0:
64,192,155682,1,0,0:0:0:0:
192,192,155832,1,0,0:0:0:0:
320,192,155907,1,0,0:0:0:0:
192,192,155982,1,0,0:0:0:0:
64,192,155982,1,0,0:0:0:0:
448,192,155982,1,0,0:0:0:0:
64,192,156082,1,0,0:0:0:0:
192,192,156082,1,0,0:0:0:0:
320,192,156182,1,0,0:0:0:0:
448,192,156182,1,0,0:0:0:0:
448,192,156282,128,0,156507:0:0:0:0:
320,192,156282,128,0,156507:0:0:0:0:
192,192,156282,1,0,0:0:0:0:
64,192,156432,1,0,0:0:0:0:
64,192,156507,1,0,0:0:0:0:
192,192,156582,1,0,0:0:0:0:
320,192,156582,128,0,156807:0:0:0:0:
448,192,156582,128,0,156807:0:0:0:0:
448,192,156882,128,0,157032:0:0:0:0:
64,192,156882,1,0,0:0:0:0:
320,192,156882,128,0,157032:0:0:0:0:
192,192,157182,128,0,157632:0:0:0:0:
64,192,157182,1,0,0:0:0:0:
320,192,157182,1,0,0:0:0:0:
448,192,157182,1,0,0:0:0:0:
320,192,157332,1,0,0:0:0:0:
448,192,157407,1,0,0:0:0:0:
64,192,157482,1,0,0:0:0:0:
320,192,157632,128,0,157932:0:0:0:0:
448,192,157932,128,0,158007:0:0:0:0:
64,192,158007,128,0,158082:0:0:0:0:
192,192,158082,128,0,158532:0:0:0:0:
320,192,158532,128,0,158607:0:0:0:0:
64,192,158607,128,0,158682:0:0:0:0:
448,192,158682,128,0,158982:0:0:0:0:
64,192,158982,1,0,0:0:0:0:
192,192,158982,1,0,0:0:0:0:
64,192,159132,1,0,0:0:0:0:
192,192,159132,1,0,0:0:0:0:
320,192,159207,1,0,0:0:0:0:
448,192,159282,1,0,0:0:0:0:
64,192,159282,1,0,0:0:0:0:
64,192,159432,1,0,0:0:0:0:
448,192,159432,1,0,0:0:0:0:
192,192,159582,1,0,0:0:0:0:
320,192,159582,1,0,0:0:0:0:
192,192,159732,1,0,0:0:0:0:
320,192,159732,1,0,0:0:0:0:
64,192,159882,1,0,0:0:0:0:
192,192,159957,1,0,0:0:0:0:
448,192,160032,1,0,0:0:0:0:
320,192,160107,1,0,0:0:0:0:
64,192,160182,1,0,0:0:0:0:
192,192,160257,1,0,0:0:0:0:
448,192,160332,1,0,0:0:0:0:
320,192,160407,1,0,0:0:0:0:
64,192,160482,1,0,0:0:0:0:
192,192,160557,1,0,0:0:0:0:
448,192,160632,1,0,0:0:0:0:
320,192,160707,1,0,0:0:0:0:
64,192,160782,128,0,162582:0:0:0:0:
192,192,160782,128,0,161607:0:0:0:0:
192,192,161682,128,0,162582:0:0:0:0:
448,192,162582,128,0,164382:0:0:0:0:
320,192,162582,128,0,163407:0:0:0:0:
320,192,163482,128,0,164382:0:0:0:0:
192,192,164382,128,0,166182:0:0:0:0:
64,192,164382,128,0,165207:0:0:0:0:
64,192,165282,128,0,166182:0:0:0:0:
320,192,166182,128,0,166282:0:0:0:0:
448,192,166182,1,0,0:0:0:0:
64,192,166282,128,0,166382:0:0:0:0:
448,192,166382,128,0,166482:0:0:0:0:
192,192,166482,128,0,166582:0:0:0:0:
320,192,166582,128,0,166682:0:0:0:0:
64,192,166682,128,0,166782:0:0:0:0:
448,192,166782,128,0,166882:0:0:0:0:
192,192,166882,128,0,166982:0:0:0:0:
320,192,166982,128,0,167082:0:0:0:0:
64,192,167082,128,0,167182:0:0:0:0:
448,192,167182,128,0,167282:0:0:0:0:
192,192,167282,128,0,167382:0:0:0:0:
320,192,167382,128,0,167482:0:0:0:0:
192,192,167482,128,0,167582:0:0:0:0:
448,192,167582,128,0,167682:0:0:0:0:
64,192,167682,128,0,167782:0:0:0:0:
320,192,167782,128,0,167882:0:0:0:0:
192,192,167882,128,0,167982:0:0:0:0:
448,192,167982,128,0,168132:0:0:0:0:
64,192,167982,1,0,0:0:0:0:
192,192,168282,1,0,0:0:0:0:
64,192,168282,128,0,168357:0:0:0:0:
192,192,168582,1,0,0:0:0:0:
64,192,168582,128,0,168657:0:0:0:0:
448,192,168732,1,0,0:0:0:0:
320,192,168807,1,0,0:0:0:0:
192,192,168882,1,0,0:0:0:0:
64,192,168882,128,0,169032:0:0:0:0:
320,192,169182,1,0,0:0:0:0:
448,192,169182,128,0,169257:0:0:0:0:
192,192,169407,1,0,0:0:0:0:
448,192,169482,128,0,169557:0:0:0:0:
320,192,169482,1,0,0:0:0:0:
64,192,169632,1,0,0:0:0:0:
192,192,169707,1,0,0:0:0:0:
320,192,169782,1,0,0:0:0:0:
448,192,169782,128,0,169932:0:0:0:0:
192,192,170082,128,0,170157:0:0:0:0:
64,192,170082,1,0,0:0:0:0:
448,192,170232,1,0,0:0:0:0:
320,192,170307,1,0,0:0:0:0:
192,192,170382,128,0,170457:0:0:0:0:
64,192,170382,1,0,0:0:0:0:
320,192,170607,1,0,0:0:0:0:
64,192,170682,1,0,0:0:0:0:
192,192,170682,128,0,170832:0:0:0:0:
320,192,170982,128,0,171057:0:0:0:0:
448,192,170982,1,0,0:0:0:0:
192,192,171207,1,0,0:0:0:0:
320,192,171282,128,0,171357:0:0:0:0:
448,192,171282,1,0,0:0:0:0:
192,192,171507,1,0,0:0:0:0:
320,192,171582,128,0,171732:0:0:0:0:
448,192,171582,1,0,0:0:0:0:
64,192,171807,1,0,0:0:0:0:
64,192,171882,128,0,172182:0:0:0:0:
192,192,172182,128,0,172332:0:0:0:0:
320,192,172182,1,0,0:0:0:0:
448,192,172332,1,0,0:0:0:0:
64,192,172407,1,0,0:0:0:0:
192,192,172482,1,0,0:0:0:0:
320,192,172482,128,0,172782:0:0:0:0:
448,192,172782,128,0,172857:0:0:0:0:
64,192,172782,1,0,0:0:0:0:
192,192,173007,1,0,0:0:0:0:
448,192,173082,128,0,173157:0:0:0:0:
320,192,173082,1,0,0:0:0:0:
64,192,173382,128,0,174282:0:0:0:0:
192,192,173382,128,0,173532:0:0:0:0:
448,192,173382,1,0,0:0:0:0:
320,192,173682,128,0,173757:0:0:0:0:
448,192,173682,1,0,0:0:0:0:
320,192,173982,128,0,174057:0:0:0:0:
192,192,173982,1,0,0:0:0:0:
320,192,174282,1,0,0:0:0:0:
448,192,174282,1,0,0:0:0:0:
320,192,174382,1,0,0:0:0:0:
448,192,174382,1,0,0:0:0:0:
64,192,174482,1,0,0:0:0:0:
192,192,174482,1,0,0:0:0:0:
192,192,174582,1,0,0:0:0:0:
64,192,174582,1,0,0:0:0:0:
320,192,174682,1,0,0:0:0:0:
448,192,174682,1,0,0:0:0:0:
448,192,174782,1,0,0:0:0:0:
320,192,174782,1,0,0:0:0:0:
64,192,174882,1,0,0:0:0:0:
192,192,174882,1,0,0:0:0:0:
64,192,174982,1,0,0:0:0:0:
192,192,174982,1,0,0:0:0:0:
320,192,175082,1,0,0:0:0:0:
448,192,175082,1,0,0:0:0:0:
448,192,175182,1,0,0:0:0:0:
320,192,175182,1,0,0:0:0:0:
64,192,175182,1,0,0:0:0:0:
192,192,175482,1,0,0:0:0:0:
320,192,175632,1,0,0:0:0:0:
64,192,175707,1,0,0:0:0:0:
192,192,175782,1,0,0:0:0:0:
448,192,175782,1,0,0:0:0:0:
64,192,176082,1,0,0:0:0:0:
192,192,176082,1,0,0:0:0:0:
320,192,176082,1,0,0:0:0:0:
192,192,176382,1,0,0:0:0:0:
448,192,176382,1,0,0:0:0:0:
64,192,176532,1,0,0:0:0:0:
320,192,176607,1,0,0:0:0:0:
192,192,176682,1,0,0:0:0:0:
64,192,176682,1,0,0:0:0:0:
448,192,176907,1,0,0:0:0:0:
320,192,176982,1,0,0:0:0:0:
64,192,176982,1,0,0:0:0:0:
192,192,176982,1,0,0:0:0:0:
448,192,177132,1,0,0:0:0:0:
64,192,177207,1,0,0:0:0:0:
192,192,177282,1,0,0:0:0:0:
320,192,177282,1,0,0:0:0:0:
448,192,177432,1,0,0:0:0:0:
64,192,177507,1,0,0:0:0:0:
192,192,177582,1,0,0:0:0:0:
448,192,177582,1,0,0:0:0:0:
64,192,177882,1,0,0:0:0:0:
192,192,177882,1,0,0:0:0:0:
320,192,177882,1,0,0:0:0:0:
448,192,178107,1,0,0:0:0:0:
320,192,178182,1,0,0:0:0:0:
64,192,178182,1,0,0:0:0:0:
192,192,178332,1,0,0:0:0:0:
320,192,178482,1,0,0:0:0:0:
448,192,178482,1,0,0:0:0:0:
64,192,178632,1,0,0:0:0:0:
192,192,178782,1,0,0:0:0:0:
320,192,178782,1,0,0:0:0:0:
448,192,178782,1,0,0:0:0:0:
64,192,178932,1,0,0:0:0:0:
192,192,179007,1,0,0:0:0:0:
320,192,179082,1,0,0:0:0:0:
448,192,179082,1,0,0:0:0:0:
192,192,179232,1,0,0:0:0:0:
64,192,179382,1,0,0:0:0:0:
448,192,179382,1,0,0:0:0:0:
320,192,179532,1,0,0:0:0:0:
64,192,179682,1,0,0:0:0:0:
192,192,179682,1,0,0:0:0:0:
448,192,179682,1,0,0:0:0:0:
320,192,179982,1,0,0:0:0:0:
448,192,179982,1,0,0:0:0:0:
64,192,180132,1,0,0:0:0:0:
192,192,180282,1,0,0:0:0:0:
320,192,180282,1,0,0:0:0:0:
448,192,180282,1,0,0:0:0:0:
64,192,180582,1,0,0:0:0:0:
192,192,180582,1,0,0:0:0:0:
320,192,180582,1,0,0:0:0:0:
448,192,180732,1,0,0:0:0:0:
320,192,180807,1,0,0:0:0:0:
192,192,180882,1,0,0:0:0:0:
64,192,180882,1,0,0:0:0:0:
320,192,181032,128,0,181182:0:0:0:0:
448,192,181032,128,0,181182:0:0:0:0:
64,192,181182,1,0,0:0:0:0:
192,192,181182,1,0,0:0:0:0:
64,192,181257,1,0,0:0:0:0:
192,192,181257,1,0,0:0:0:0:
320,192,181332,1,0,0:0:0:0:
448,192,181332,1,0,0:0:0:0:
448,192,181407,1,0,0:0:0:0:
320,192,181407,1,0,0:0:0:0:
64,192,181482,128,0,182307:0:0:0:0:
192,192,181482,1,0,0:0:0:0:
320,192,181557,1,0,0:0:0:0:
448,192,181632,1,0,0:0:0:0:
192,192,181707,1,0,0:0:0:0:
448,192,181782,1,0,0:0:0:0:
320,192,181857,1,0,0:0:0:0:
192,192,181932,1,0,0:0:0:0:
448,192,182007,1,0,0:0:0:0:
192,192,182082,1,0,0:0:0:0:
320,192,182157,1,0,0:0:0:0:
448,192,182232,1,0,0:0:0:0:
192,192,182307,1,0,0:0:0:0:
64,192,182382,128,0,183282:0:0:0:0:
448,192,182382,128,0,182682:0:0:0:0:
320,192,182682,128,0,183282:0:0:0:0:
448,192,183282,128,0,183882:0:0:0:0:
192,192,183282,128,0,183582:0:0:0:0:
64,192,183582,128,0,183882:0:0:0:0:
320,192,183582,1,0,0:0:0:0:
64,192,184032,1,0,0:0:0:0:
192,192,184032,1,0,0:0:0:0:
320,192,184107,1,0,0:0:0:0:
64,192,184182,1,0,0:0:0:0:
192,192,184182,1,0,0:0:0:0:
448,192,184182,1,0,0:0:0:0:
64,192,185082,1,0,0:0:0:0:
192,192,185082,1,0,0:0:0:0:
320,192,185082,1,0,0:0:0:0:
448,192,185082,1,0,0:0:0:0:
192,192,185382,1,0,0:0:0:0:
320,192,185382,1,0,0:0:0:0:
448,192,185382,1,0,0:0:0:0:
64,192,185682,128,0,185982:0:0:0:0:
192,192,185982,1,0,0:0:0:0:
320,192,185982,1,0,0:0:0:0:
448,192,185982,1,0,0:0:0:0:
64,192,186582,1,0,0:0:0:0:
320,192,186582,1,0,0:0:0:0:
448,192,186582,1,0,0:0:0:0:
64,192,186882,1,0,0:0:0:0:
192,192,186882,1,0,0:0:0:0:
448,192,186882,1,0,0:0:0:0:
320,192,187182,128,0,187482:0:0:0:0:
448,192,187482,128,0,187782:0:0:0:0:
64,192,187482,1,0,0:0:0:0:
192,192,187482,1,0,0:0:0:0:
64,192,187782,1,0,0:0:0:0:
192,192,187782,1,0,0:0:0:0:
320,192,187782,1,0,0:0:0:0:
448,192,187932,1,0,0:0:0:0:
192,192,188007,1,0,0:0:0:0:
320,192,188082,1,0,0:0:0:0:
64,192,188157,1,0,0:0:0:0:
192,192,188232,1,0,0:0:0:0:
320,192,188307,1,0,0:0:0:0:
448,192,188382,1,0,0:0:0:0:
192,192,188457,1,0,0:0:0:0:
320,192,188532,1,0,0:0:0:0:
448,192,188532,1,0,0:0:0:0:
64,192,188607,1,0,0:0:0:0:
192,192,188682,1,0,0:0:0:0:
320,192,188682,1,0,0:0:0:0:
448,192,188682,1,0,0:0:0:0:
192,192,188982,1,0,0:0:0:0:
320,192,189057,1,0,0:0:0:0:
64,192,189132,1,0,0:0:0:0:
192,192,189207,1,0,0:0:0:0:
320,192,189282,1,0,0:0:0:0:
448,192,189282,1,0,0:0:0:0:
64,192,189357,1,0,0:0:0:0:
192,192,189357,1,0,0:0:0:0:
320,192,189432,1,0,0:0:0:0:
448,192,189432,1,0,0:0:0:0:
192,192,189507,1,0,0:0:0:0:
64,192,189582,1,0,0:0:0:0:
448,192,189657,1,0,0:0:0:0:
64,192,189732,1,0,0:0:0:0:
448,192,189807,1,0,0:0:0:0:
64,192,189882,1,0,0:0:0:0:
448,192,189957,1,0,0:0:0:0:
64,192,190032,1,0,0:0:0:0:
448,192,190107,1,0,0:0:0:0:
64,192,190182,1,0,0:0:0:0:
448,192,190257,1,0,0:0:0:0:
64,192,190332,1,0,0:0:0:0:
448,192,190407,1,0,0:0:0:0:
64,192,190482,1,0,0:0:0:0:
448,192,190557,1,0,0:0:0:0:
64,192,190632,1,0,0:0:0:0:
448,192,190707,1,0,0:0:0:0:
64,192,190782,1,0,0:0:0:0:
448,192,190857,1,0,0:0:0:0:
64,192,190932,1,0,0:0:0:0:
448,192,191007,1,0,0:0:0:0:
64,192,191082,1,0,0:0:0:0:
448,192,191157,1,0,0:0:0:0:
64,192,191232,1,0,0:0:0:0:
448,192,191307,1,0,0:0:0:0:
64,192,191382,1,0,0:0:0:0:
448,192,191457,1,0,0:0:0:0:
64,192,191532,1,0,0:0:0:0:
448,192,191607,1,0,0:0:0:0:
64,192,191682,1,0,0:0:0:0:
448,192,191757,1,0,0:0:0:0:
64,192,191832,1,0,0:0:0:0:
448,192,191907,1,0,0:0:0:0:
192,192,191982,1,0,0:0:0:0:
320,192,192057,1,0,0:0:0:0:
192,192,192132,1,0,0:0:0:0:
320,192,192207,1,0,0:0:0:0:
192,192,192282,1,0,0:0:0:0:
320,192,192357,1,0,0:0:0:0:
192,192,192432,1,0,0:0:0:0:
320,192,192507,1,0,0:0:0:0:
192,192,192582,1,0,0:0:0:0:
320,192,192657,1,0,0:0:0:0:
192,192,192732,1,0,0:0:0:0:
320,192,192807,1,0,0:0:0:0:
192,192,192882,1,0,0:0:0:0:
320,192,192957,1,0,0:0:0:0:
192,192,193032,1,0,0:0:0:0:
320,192,193107,1,0,0:0:0:0:
448,192,193182,1,0,0:0:0:0:
64,192,193257,1,0,0:0:0:0:
192,192,193332,1,0,0:0:0:0:
320,192,193407,1,0,0:0:0:0:
448,192,193482,1,0,0:0:0:0:
64,192,193557,1,0,0:0:0:0:
192,192,193632,1,0,0:0:0:0:
320,192,193707,1,0,0:0:0:0:
448,192,193782,1,0,0:0:0:0:
64,192,193857,1,0,0:0:0:0:
192,192,193932,1,0,0:0:0:0:
320,192,194007,1,0,0:0:0:0:
448,192,194082,1,0,0:0:0:0:
64,192,194157,1,0,0:0:0:0:
192,192,194232,1,0,0:0:0:0:
320,192,194307,1,0,0:0:0:0:
448,192,194382,1,0,0:0:0:0:
64,192,194457,1,0,0:0:0:0:
192,192,194532,1,0,0:0:0:0:
320,192,194607,1,0,0:0:0:0:
448,192,194682,1,0,0:0:0:0:
64,192,194757,1,0,0:0:0:0:
192,192,194832,1,0,0:0:0:0:
320,192,194907,1,0,0:0:0:0:
448,192,194982,1,0,0:0:0:0:
64,192,195057,1,0,0:0:0:0:
192,192,195132,1,0,0:0:0:0:
320,192,195207,1,0,0:0:0:0:
448,192,195282,1,0,0:0:0:0:
64,192,195357,1,0,0:0:0:0:
192,192,195432,1,0,0:0:0:0:
320,192,195507,1,0,0:0:0:0:
448,192,195582,1,0,0:0:0:0:
64,192,195657,1,0,0:0:0:0:
192,192,195732,1,0,0:0:0:0:
320,192,195807,1,0,0:0:0:0:
448,192,195882,128,0,198132:0:0:0:0:
64,192,198582,1,0,0:0:0:0:
192,192,198582,1,0,0:0:0:0:
448,192,198582,1,0,0:0:0:0:
320,192,198657,1,0,0:0:0:0:
64,192,198732,1,0,0:0:0:0:
192,192,198807,1,0,0:0:0:0:
448,192,198882,1,0,0:0:0:0:
320,192,198882,1,0,0:0:0:0:
192,192,198957,1,0,0:0:0:0:
320,192,199032,1,0,0:0:0:0:
64,192,199107,1,0,0:0:0:0:
192,192,199182,1,0,0:0:0:0:
448,192,199182,1,0,0:0:0:0:
320,192,199257,1,0,0:0:0:0:
64,192,199332,1,0,0:0:0:0:
448,192,199407,1,0,0:0:0:0:
320,192,199482,1,0,0:0:0:0:
64,192,199482,1,0,0:0:0:0:
192,192,199482,1,0,0:0:0:0:
448,192,199557,1,0,0:0:0:0:
320,192,199632,1,0,0:0:0:0:
192,192,199707,1,0,0:0:0:0:
320,192,199782,1,0,0:0:0:0:
448,192,199782,1,0,0:0:0:0:
64,192,199857,1,0,0:0:0:0:
192,192,199932,1,0,0:0:0:0:
320,192,200007,1,0,0:0:0:0:
64,192,200082,1,0,0:0:0:0:
448,192,200082,1,0,0:0:0:0:
192,192,200157,1,0,0:0:0:0:
320,192,200232,1,0,0:0:0:0:
64,192,200307,1,0,0:0:0:0:
192,192,200382,1,0,0:0:0:0:
448,192,200382,1,0,0:0:0:0:
320,192,200382,1,0,0:0:0:0:
64,192,200457,1,0,0:0:0:0:
320,192,200532,1,0,0:0:0:0:
192,192,200607,1,0,0:0:0:0:
448,192,200682,1,0,0:0:0:0:
320,192,200682,1,0,0:0:0:0:
192,192,200757,1,0,0:0:0:0:
448,192,200832,1,0,0:0:0:0:
320,192,200907,1,0,0:0:0:0:
192,192,200982,1,0,0:0:0:0:
64,192,200982,1,0,0:0:0:0:
320,192,201057,1,0,0:0:0:0:
192,192,201132,1,0,0:0:0:0:
320,192,201207,1,0,0:0:0:0:
192,192,201282,1,0,0:0:0:0:
448,192,201282,1,0,0:0:0:0:
64,192,201282,1,0,0:0:0:0:
320,192,201357,1,0,0:0:0:0:
448,192,201432,1,0,0:0:0:0:
64,192,201507,1,0,0:0:0:0:
320,192,201582,1,0,0:0:0:0:
192,192,201582,1,0,0:0:0:0:
448,192,201657,1,0,0:0:0:0:
192,192,201732,1,0,0:0:0:0:
320,192,201807,1,0,0:0:0:0:
64,192,201882,1,0,0:0:0:0:
192,192,201957,1,0,0:0:0:0:
320,192,202032,1,0,0:0:0:0:
448,192,202032,1,0,0:0:0:0:
64,192,202182,1,0,0:0:0:0:
192,192,202182,1,0,0:0:0:0:
448,192,202182,1,0,0:0:0:0:
320,192,202257,1,0,0:0:0:0:
192,192,202332,1,0,0:0:0:0:
448,192,202407,1,0,0:0:0:0:
320,192,202482,1,0,0:0:0:0:
64,192,202482,1,0,0:0:0:0:
192,192,202557,1,0,0:0:0:0:
320,192,202632,1,0,0:0:0:0:
64,192,202707,1,0,0:0:0:0:
192,192,202782,1,0,0:0:0:0:
448,192,202782,1,0,0:0:0:0:
320,192,202857,1,0,0:0:0:0:
64,192,202932,1,0,0:0:0:0:
320,192,203007,1,0,0:0:0:0:
192,192,203082,1,0,0:0:0:0:
64,192,203082,1,0,0:0:0:0:
448,192,203082,1,0,0:0:0:0:
320,192,203232,1,0,0:0:0:0:
448,192,203232,1,0,0:0:0:0:
192,192,203307,1,0,0:0:0:0:
64,192,203382,1,0,0:0:0:0:
448,192,203382,1,0,0:0:0:0:
320,192,203457,1,0,0:0:0:0:
192,192,203532,1,0,0:0:0:0:
320,192,203607,1,0,0:0:0:0:
64,192,203682,1,0,0:0:0:0:
192,192,203682,1,0,0:0:0:0:
448,192,203757,1,0,0:0:0:0:
320,192,203832,1,0,0:0:0:0:
192,192,203907,1,0,0:0:0:0:
64,192,203982,1,0,0:0:0:0:
320,192,203982,1,0,0:0:0:0:
448,192,203982,1,0,0:0:0:0:
192,192,204057,1,0,0:0:0:0:
320,192,204132,1,0,0:0:0:0:
64,192,204207,1,0,0:0:0:0:
192,192,204282,1,0,0:0:0:0:
448,192,204282,1,0,0:0:0:0:
320,192,204357,1,0,0:0:0:0:
64,192,204432,1,0,0:0:0:0:
320,192,204507,1,0,0:0:0:0:
192,192,204582,1,0,0:0:0:0:
64,192,204582,1,0,0:0:0:0:
448,192,204657,1,0,0:0:0:0:
192,192,204732,1,0,0:0:0:0:
320,192,204807,1,0,0:0:0:0:
448,192,204882,1,0,0:0:0:0:
64,192,204882,1,0,0:0:0:0:
192,192,204882,1,0,0:0:0:0:
64,192,204957,1,0,0:0:0:0:
320,192,205107,1,0,0:0:0:0:
320,192,205182,1,0,0:0:0:0:
448,192,205182,1,0,0:0:0:0:
64,192,205257,1,0,0:0:0:0:
192,192,205332,1,0,0:0:0:0:
320,192,205482,1,0,0:0:0:0:
64,192,205482,1,0,0:0:0:0:
448,192,205557,1,0,0:0:0:0:
320,192,205632,1,0,0:0:0:0:
64,192,205782,1,0,0:0:0:0:
192,192,205782,1,0,0:0:0:0:
448,192,205782,1,0,0:0:0:0:
320,192,205857,1,0,0:0:0:0:
192,192,205932,1,0,0:0:0:0:
320,192,206007,1,0,0:0:0:0:
64,192,206082,1,0,0:0:0:0:
448,192,206082,1,0,0:0:0:0:
192,192,206157,1,0,0:0:0:0:
448,192,206232,1,0,0:0:0:0:
320,192,206307,1,0,0:0:0:0:
192,192,206382,1,0,0:0:0:0:
64,192,206382,1,0,0:0:0:0:
320,192,206457,1,0,0:0:0:0:
192,192,206532,1,0,0:0:0:0:
320,192,206607,1,0,0:0:0:0:
448,192,206682,1,0,0:0:0:0:
64,192,206682,1,0,0:0:0:0:
192,192,206682,1,0,0:0:0:0:
320,192,206757,1,0,0:0:0:0:
192,192,206832,1,0,0:0:0:0:
64,192,206907,1,0,0:0:0:0:
320,192,206982,1,0,0:0:0:0:
448,192,206982,1,0,0:0:0:0:
192,192,207057,1,0,0:0:0:0:
448,192,207132,1,0,0:0:0:0:
320,192,207207,1,0,0:0:0:0:
192,192,207282,1,0,0:0:0:0:
64,192,207282,1,0,0:0:0:0:
448,192,207357,1,0,0:0:0:0:
320,192,207432,1,0,0:0:0:0:
192,192,207507,1,0,0:0:0:0:
64,192,207582,1,0,0:0:0:0:
320,192,207582,1,0,0:0:0:0:
448,192,207582,1,0,0:0:0:0:
192,192,207657,1,0,0:0:0:0:
448,192,207732,1,0,0:0:0:0:
320,192,207807,1,0,0:0:0:0:
64,192,207882,1,0,0:0:0:0:
192,192,207882,1,0,0:0:0:0:
320,192,207957,1,0,0:0:0:0:
64,192,208032,1,0,0:0:0:0:
192,192,208107,1,0,0:0:0:0:
320,192,208182,1,0,0:0:0:0:
448,192,208182,1,0,0:0:0:0:
64,192,208257,1,0,0:0:0:0:
192,192,208332,1,0,0:0:0:0:
320,192,208407,1,0,0:0:0:0:
192,192,208482,1,0,0:0:0:0:
64,192,208482,1,0,0:0:0:0:
448,192,208482,1,0,0:0:0:0:
320,192,208557,1,0,0:0:0:0:
192,192,208632,1,0,0:0:0:0:
320,192,208707,1,0,0:0:0:0:
192,192,208782,1,0,0:0:0:0:
64,192,208782,1,0,0:0:0:0:
320,192,208857,1,0,0:0:0:0:
192,192,208932,1,0,0:0:0:0:
320,192,209007,1,0,0:0:0:0:
448,192,209082,1,0,0:0:0:0:
64,192,209082,1,0,0:0:0:0:
192,192,209157,1,0,0:0:0:0:
320,192,209232,1,0,0:0:0:0:
192,192,209307,1,0,0:0:0:0:
320,192,209382,1,0,0:0:0:0:
448,192,209382,1,0,0:0:0:0:
64,192,209382,1,0,0:0:0:0:
192,192,209457,1,0,0:0:0:0:
448,192,209532,1,0,0:0:0:0:
64,192,209607,1,0,0:0:0:0:
320,192,209682,1,0,0:0:0:0:
448,192,209682,1,0,0:0:0:0:
192,192,209757,1,0,0:0:0:0:
320,192,209832,1,0,0:0:0:0:
192,192,209907,1,0,0:0:0:0:
64,192,209982,1,0,0:0:0:0:
448,192,209982,1,0,0:0:0:0:
320,192,210057,1,0,0:0:0:0:
192,192,210132,1,0,0:0:0:0:
320,192,210207,1,0,0:0:0:0:
64,192,210282,1,0,0:0:0:0:
192,192,210282,1,0,0:0:0:0:
448,192,210282,1,0,0:0:0:0:
320,192,210432,1,0,0:0:0:0:
192,192,210507,1,0,0:0:0:0:
448,192,210582,1,0,0:0:0:0:
320,192,210582,1,0,0:0:0:0:
64,192,210657,1,0,0:0:0:0:
320,192,210732,1,0,0:0:0:0:
192,192,210807,1,0,0:0:0:0:
448,192,210882,1,0,0:0:0:0:
192,192,210957,1,0,0:0:0:0:
320,192,211032,1,0,0:0:0:0:
64,192,211107,1,0,0:0:0:0:
192,192,211182,1,0,0:0:0:0:
448,192,211232,1,0,0:0:0:0:
64,192,211282,1,0,0:0:0:0:
320,192,211332,1,0,0:0:0:0:
448,192,211382,1,0,0:0:0:0:
192,192,211432,1,0,0:0:0:0:
320,192,211482,1,0,0:0:0:0:
64,192,211532,1,0,0:0:0:0:
192,192,211582,1,0,0:0:0:0:
320,192,211632,1,0,0:0:0:0:
448,192,211682,1,0,0:0:0:0:
192,192,211732,1,0,0:0:0:0:
64,192,211782,1,0,0:0:0:0:
320,192,211832,1,0,0:0:0:0:
192,192,211882,1,0,0:0:0:0:
448,192,211932,1,0,0:0:0:0:
320,192,211982,1,0,0:0:0:0:
192,192,212032,1,0,0:0:0:0:
448,192,212082,1,0,0:0:0:0:
64,192,212082,128,0,212982:0:0:0:0:
320,192,212157,1,0,0:0:0:0:
192,192,212232,1,0,0:0:0:0:
448,192,212307,1,0,0:0:0:0:
320,192,212382,1,0,0:0:0:0:
192,192,212457,1,0,0:0:0:0:
448,192,212532,1,0,0:0:0:0:
320,192,212607,1,0,0:0:0:0:
192,192,212682,1,0,0:0:0:0:
448,192,212757,1,0,0:0:0:0:
320,192,212832,1,0,0:0:0:0:
192,192,212907,1,0,0:0:0:0:
320,192,212982,1,0,0:0:0:0:
448,192,212982,1,0,0:0:0:0:
192,192,213057,1,0,0:0:0:0:
64,192,213132,1,0,0:0:0:0:
448,192,213132,1,0,0:0:0:0:
320,192,213207,1,0,0:0:0:0:
192,192,213282,1,0,0:0:0:0:
64,192,213282,1,0,0:0:0:0:
448,192,213357,1,0,0:0:0:0:
320,192,213432,1,0,0:0:0:0:
64,192,213432,1,0,0:0:0:0:
192,192,213507,1,0,0:0:0:0:
320,192,213582,1,0,0:0:0:0:
448,192,213582,1,0,0:0:0:0:
64,192,213651,1,0,0:0:0:0:
192,192,213732,1,0,0:0:0:0:
448,192,213732,1,0,0:0:0:0:
320,192,213807,1,0,0:0:0:0:
64,192,213882,1,0,0:0:0:0:
192,192,213882,1,0,0:0:0:0:
448,192,213957,1,0,0:0:0:0:
320,192,214032,1,0,0:0:0:0:
64,192,214032,1,0,0:0:0:0:
192,192,214107,1,0,0:0:0:0:
320,192,214182,1,0,0:0:0:0:
448,192,214182,1,0,0:0:0:0:
64,192,214257,1,0,0:0:0:0:
192,192,214332,1,0,0:0:0:0:
448,192,214332,1,0,0:0:0:0:
320,192,214407,1,0,0:0:0:0:
64,192,214482,1,0,0:0:0:0:
192,192,214482,1,0,0:0:0:0:
448,192,214557,1,0,0:0:0:0:
320,192,214632,1,0,0:0:0:0:
64,192,214632,1,0,0:0:0:0:
192,192,214707,1,0,0:0:0:0:
320,192,214782,1,0,0:0:0:0:
448,192,214782,1,0,0:0:0:0:
64,192,214782,1,0,0:0:0:0:
192,192,214857,1,0,0:0:0:0:
320,192,214932,1,0,0:0:0:0:
448,192,214932,1,0,0:0:0:0:
64,192,215007,1,0,0:0:0:0:
192,192,215082,1,0,0:0:0:0:
448,192,215082,1,0,0:0:0:0:
320,192,215157,1,0,0:0:0:0:
64,192,215232,1,0,0:0:0:0:
192,192,215232,1,0,0:0:0:0:
320,192,215307,1,0,0:0:0:0:
448,192,215382,1,0,0:0:0:0:
64,192,215382,1,0,0:0:0:0:
192,192,215457,1,0,0:0:0:0:
320,192,215532,1,0,0:0:0:0:
448,192,215532,1,0,0:0:0:0:
192,192,215607,1,0,0:0:0:0:
64,192,215682,1,0,0:0:0:0:
320,192,215682,1,0,0:0:0:0:
448,192,215757,1,0,0:0:0:0:
192,192,215832,1,0,0:0:0:0:
64,192,215832,1,0,0:0:0:0:
320,192,215907,1,0,0:0:0:0:
192,192,215982,1,0,0:0:0:0:
448,192,215982,1,0,0:0:0:0:
64,192,216057,1,0,0:0:0:0:
320,192,216132,1,0,0:0:0:0:
448,192,216132,1,0,0:0:0:0:
192,192,216207,1,0,0:0:0:0:
64,192,216282,1,0,0:0:0:0:
320,192,216282,1,0,0:0:0:0:
448,192,216357,1,0,0:0:0:0:
64,192,216432,1,0,0:0:0:0:
192,192,216432,1,0,0:0:0:0:
320,192,216507,1,0,0:0:0:0:
448,192,216582,1,0,0:0:0:0:
192,192,216582,1,0,0:0:0:0:
64,192,216582,1,0,0:0:0:0:
320,192,216657,1,0,0:0:0:0:
64,192,216732,1,0,0:0:0:0:
192,192,216732,1,0,0:0:0:0:
448,192,216807,1,0,0:0:0:0:
64,192,216882,1,0,0:0:0:0:
320,192,216882,1,0,0:0:0:0:
192,192,216957,1,0,0:0:0:0:
320,192,217032,1,0,0:0:0:0:
448,192,217032,1,0,0:0:0:0:
64,192,217107,1,0,0:0:0:0:
192,192,217182,1,0,0:0:0:0:
448,192,217182,1,0,0:0:0:0:
320,192,217257,1,0,0:0:0:0:
64,192,217332,1,0,0:0:0:0:
192,192,217332,1,0,0:0:0:0:
448,192,217407,1,0,0:0:0:0:
320,192,217482,1,0,0:0:0:0:
64,192,217482,1,0,0:0:0:0:
192,192,217557,1,0,0:0:0:0:
320,192,217632,1,0,0:0:0:0:
448,192,217632,1,0,0:0:0:0:
64,192,217707,1,0,0:0:0:0:
192,192,217782,1,0,0:0:0:0:
448,192,217782,1,0,0:0:0:0:
320,192,217857,1,0,0:0:0:0:
64,192,217932,1,0,0:0:0:0:
192,192,217932,1,0,0:0:0:0:
448,192,218007,1,0,0:0:0:0:
320,192,218082,1,0,0:0:0:0:
64,192,218082,1,0,0:0:0:0:
192,192,218157,1,0,0:0:0:0:
448,192,218232,1,0,0:0:0:0:
320,192,218232,1,0,0:0:0:0:
192,192,218307,1,0,0:0:0:0:
64,192,218382,1,0,0:0:0:0:
448,192,218382,1,0,0:0:0:0:
320,192,218382,1,0,0:0:0:0:
192,192,218457,1,0,0:0:0:0:
64,192,218532,1,0,0:0:0:0:
448,192,218532,1,0,0:0:0:0:
320,192,218607,1,0,0:0:0:0:
192,192,218682,1,0,0:0:0:0:
64,192,218682,1,0,0:0:0:0:
320,192,218757,1,0,0:0:0:0:
192,192,218832,1,0,0:0:0:0:
448,192,218832,1,0,0:0:0:0:
64,192,218907,1,0,0:0:0:0:
320,192,218982,1,0,0:0:0:0:
448,192,218982,1,0,0:0:0:0:
192,192,219057,1,0,0:0:0:0:
64,192,219132,1,0,0:0:0:0:
320,192,219132,1,0,0:0:0:0:
448,192,219207,1,0,0:0:0:0:
192,192,219282,1,0,0:0:0:0:
64,192,219282,1,0,0:0:0:0:
320,192,219357,1,0,0:0:0:0:
192,192,219432,1,0,0:0:0:0:
448,192,219432,1,0,0:0:0:0:
64,192,219507,1,0,0:0:0:0:
320,192,219582,1,0,0:0:0:0:
448,192,219582,1,0,0:0:0:0:
192,192,219657,1,0,0:0:0:0:
320,192,219732,1,0,0:0:0:0:
64,192,219732,1,0,0:0:0:0:
448,192,219807,1,0,0:0:0:0:
64,192,219882,1,0,0:0:0:0:
192,192,219882,1,0,0:0:0:0:
320,192,219957,1,0,0:0:0:0:
448,192,220032,128,0,220182:0:0:0:0:
192,192,220032,128,0,220182:0:0:0:0:
64,192,220182,1,0,0:0:0:0:
