osu file format v5

[General]
AudioFilename: 11-iglu_and_hartly-jump_out_of_your_car.mp3
AudioLeadIn: 0
PreviewTime: -1
Countdown: 0
SampleSet: Soft
StackLeniency: 0.5
Mode: 0
LetterboxInBreaks: 1
SkinPreference:Default
EditorBookmarks: 35747,96499,120562,132594,180720,204783
EditorDistanceSpacing: 0.800000011920929

[Metadata]
Title:Jump Out Of Your Car
Artist:Iglu & Hartly
Creator:Gladi
Version:Normal
Source:
Tags:Iglu & Hartly Heartly Heart And Jump Out Of Your My Car And So On Gladi EEeee

[Difficulty]
HPDrainRate:5
CircleSize:4
OverallDifficulty:4
SliderMultiplier:1.4
SliderTickRate:1

[Events]
//Background and Video events
0,0,"rockman.jpg"
//Break Periods
2,72635,80516
2,120761,130002
//Storyboard Layer 0 (Background)
//Storyboard Layer 1 (Fail)
//Storyboard Layer 2 (Pass)
//Storyboard Layer 3 (Foreground)
//Storyboard Sound Samples
//Background Colour Transformations
3,100,0,0,0

[TimingPoints]
24310,375.986965785186,4,1,0,70,1,0
36310,-100,4,2,1,70,0,0
81836,-100,4,1,0,70,0,0
82023,-100,4,2,1,70,0,0
82587,-100,4,1,0,70,0,0
82775,-100,4,2,1,70,0,0
82963,-100,4,1,0,60,0,0
94995,-100,4,1,0,80,0,1
96499,-100,4,1,0,80,0,0
106886,-100,4,1,0,80,0,0
106933,-100,4,1,0,80,0,1
108531,-100,4,1,0,80,0,0
118917,-100,4,1,0,80,0,0
118964,-100,4,1,0,80,0,1
120562,-100,4,2,1,70,0,0
143121,-100,4,1,0,60,0,0
144813,-100,4,2,1,70,0,0
156657,-100,4,1,0,70,0,0
156845,-100,4,2,1,70,0,0
157973,-100,4,1,0,70,0,0
179216,-100,4,1,0,80,0,1
180720,-100,4,1,0,70,0,0
191107,-100,4,1,0,80,0,0
191154,-100,4,1,0,80,0,1
192752,-100,4,1,0,80,0,0
203279,-100,4,1,0,80,0,1

[Colours]
Combo1 : 83,175,251
Combo2 : 181,242,113
Combo3 : 247,98,251
Combo4 : 239,152,95
Combo5 : 100,217,185

[HitObjects]
344,104,35777,6,0,B|352:152|416:144,2,70
304,64,36341,2,0,B|240:112|272:208,2,140,2|10|2
192,56,37469,1,10
112,136,37845,1,2
152,240,38221,2,0,B|184:320|288:304,1,140,10|2
368,264,38973,1,10
368,264,39161,6,2,B|408:192|352:120,1,140,2|0
360,131,39725,1,10
256,96,40101,1,2
152,128,40477,1,10
152,240,40853,1,2
256,280,41229,1,10
360,240,41605,2,2,B|400:216|440:248,3,70,2|2|10|2
426,238,42357,1,0
480,136,42733,6,0,B|456:64|360:56,1,140,10|2
328,160,43485,2,0,B|256:192|176:152,1,140,10|2
136,56,44237,2,0,B|54:63|30:135,1,140,10|2
48,240,44989,1,10
48,240,45177,1,0
136,304,45553,5,0
136,304,45741,1,10
248,328,46117,1,2
360,304,46493,1,10
448,240,46869,1,2
360,176,47245,1,10
248,136,47621,1,2
136,168,47997,1,10
48,240,48373,1,2
88,272,48561,6,2,B|136:344|240:304,1,140,2|0
256,288,49125,2,0,B|304:208|400:224,1,140,2|10
432,128,49877,1,2
432,128,50065,1,0
432,128,50253,1,10
432,128,50441,2,0,B|304:184|240:56,1,210,0|10
160,144,51381,5,6
248,216,51757,6,0,B|312:288|232:360,1,140,10|2
152,280,52509,1,10
64,216,52885,2,0,B|0:288|80:360,1,140,2|10
152,280,53636,1,2
152,280,53824,1,0
152,280,54012,1,10
232,200,54388,6,0,B|264:168|320:184,2,70,2|0|10
192,96,55140,1,2
288,40,55516,1,10
384,96,55892,1,2
344,200,56268,1,10
344,200,56456,2,0,B|392:280|336:344,1,140
345,331,57020,1,10
256,264,57396,5,2
144,264,57772,5,10
56,192,58148,1,2
144,128,58524,1,10
256,128,58900,1,2
344,192,59276,1,10
344,192,59464,1,8
344,192,59652,2,2,B|424:248|456:136,1,140,10|10
360,88,60404,5,2
360,88,60592,1,0
360,88,60780,1,10
248,64,61156,2,0,B|168:104|176:200,1,140,2|10
192,288,61908,1,6
304,312,62284,1,10
304,312,62472,1,4
304,312,62660,1,2
416,288,63036,1,14
416,176,63412,5,6
416,176,63600,1,0
416,176,63788,1,10
312,128,64164,2,0,B|240:168|176:104,1,140,2|10
96,184,64916,2,0,B|136:256|72:320,1,140,6|10
120,352,65480,2,0,B|192:392|264:344,1,140,4|0
253,350,66044,1,14
253,350,66232,1,0
253,350,66420,5,6
320,264,66796,1,10
320,152,67172,1,2
256,56,67548,1,10
192,152,67924,1,6
192,264,68300,1,10
192,264,68488,1,4
192,264,68676,1,2
256,352,69052,1,14
320,264,69428,6,0,B|296:192|376:128,1,140,6|10
328,96,69992,2,0,B|256:136|176:96,1,140
193,103,70556,1,10
193,103,70744,1,0
193,103,70932,1,6
144,200,71308,1,8
144,200,71496,2,8,B|176:240|224:232,5,70,8|8|8|8|8|2
256,192,81836,12,0,83715
144,216,84467,5,0
232,152,84843,2,0,B|304:200|272:288,1,140,8|0
328,288,85407,1,0
384,296,85595,1,8
392,184,85971,1,2
344,80,86347,1,8
344,80,86535,2,0,B|304:104|264:80,1,70,2|0
184,152,87099,6,0,B|136:208|192:296,1,140,10|4
240,272,87663,1,0
296,256,87851,1,8
344,152,88227,2,0,B|360:112|400:104,2,70,0|0|8
248,88,88979,2,0,B|232:48|192:40,2,70,2|0|8
248,88,89543,1,2
248,88,89731,1,0
168,168,90107,6,0,B|200:248|144:304,1,140,10|4
149,298,90671,1,0
149,298,90859,1,8
256,328,91235,1,0
368,312,91611,1,8
432,224,91987,1,2
416,112,92363,1,8
416,112,92551,1,2
256,56,93115,1,10
256,56,93303,1,0
256,56,93491,6,0,B|256:136|152:152,1,140,4|8
128,256,94243,1,0
224,312,94619,1,0
320,248,94995,6,2,B|352:208|400:216,3,70,2|2|10|2
408,176,95747,2,2,B|448:112|384:24,1,140,2|10
296,96,96499,1,4
240,88,96687,5,0
184,104,96875,1,8
152,144,97063,1,0
152,200,97251,2,0,B|176:280|280:288,1,140,0|8
336,208,98003,2,2,B|416:200|472:272,1,140,2|10
496,216,98567,2,2,B|464:144|496:72,1,140
492,79,99131,1,10
492,79,99319,1,0
492,79,99507,5,6
376,64,99883,2,0,B|328:56|304:80,1,70,8|0
280,128,100259,2,0,B|248:160|280:192,1,70
320,224,100635,1,8
304,280,100823,2,2,B|256:344|168:312,1,140
152,264,101387,2,2,B|128:216|184:168|144:112,1,140,10|2
192,88,101951,2,0,B|224:56|264:64,2,70,0|8|0
136,72,102515,5,6
104,176,102891,2,2,B|160:232|256:216,1,140,10|2
280,192,103455,2,2,B|312:168|360:168,1,70,2|10
400,184,103831,2,2,B|448:256|408:336,1,140
416,317,104395,1,10
368,344,104583,1,0
312,328,104771,2,2,B|248:272|176:304,1,140,2|10
120,208,105523,5,6
168,176,105711,2,2,B|184:128|144:104,2,70,2|10|2
272,216,106463,1,0
272,216,106651,1,10
272,216,106839,1,0
320,248,107027,6,2,B|352:208|400:216,3,70,2|2|10|2
408,176,107779,2,2,B|448:112|384:24,1,140,2|10
296,96,108531,1,4
240,88,108719,5,0
184,104,108907,1,8
152,144,109095,1,0
152,200,109283,2,0,B|176:280|280:288,1,140,0|8
336,208,110035,2,2,B|416:200|472:272,1,140,2|10
496,216,110599,2,2,B|464:144|496:72,1,140
492,79,111163,1,10
492,79,111351,1,0
492,79,111539,5,6
376,64,111915,2,0,B|328:56|304:80,1,70,8|0
280,128,112291,2,0,B|248:160|280:192,1,70
320,224,112667,1,8
304,280,112855,2,2,B|256:344|168:312,1,140
152,264,113419,2,2,B|128:216|184:168|144:112,1,140,10|2
192,88,113983,2,0,B|224:56|264:64,2,70,0|8|0
136,72,114547,5,6
104,176,114923,2,2,B|160:232|256:216,1,140,10|2
280,192,115487,2,2,B|312:168|360:168,1,70,2|10
400,184,115863,2,2,B|448:256|408:336,1,140
416,317,116427,1,10
368,344,116615,1,0
312,328,116803,2,2,B|248:272|176:304,1,140
120,208,117555,5,6
144,160,117743,2,2,B|160:112|120:88,2,70
256,184,118495,1,0
256,184,118683,1,0
256,184,118871,1,0
256,192,119058,12,0,120562
256,192,130902,12,0,132218
256,192,132594,5,2
160,136,132970,1,10
176,248,133346,2,0,B|208:320|296:312,1,140,2|10
368,232,134098,2,0,B|400:200|464:224,3,70,2|0|10|0
432,104,135038,1,0
376,88,135226,1,10
320,96,135414,1,0
272,64,135602,6,2,B|216:128|280:216,1,140,2|10
160,240,136354,2,0,B|152:304|112:312|56:280|80:216,1,140,2|10
40,208,136918,2,0,B|32:168|0:152,3,70,0|2|0|10
104,112,137858,1,2
216,136,138234,1,10
312,88,138610,5,2
424,104,138986,1,10
424,104,139174,1,0
448,152,139362,2,0,B|472:200|440:224,2,70,2|0|10
392,152,139925,2,0,B|336:152|328:208|256:192,1,140,0|0
262,193,140489,1,10
224,152,140677,2,0,B|152:184|144:264,1,140
144,259,141241,1,10
240,312,141617,5,2
344,264,141993,1,10
336,152,142369,1,2
344,264,142745,1,10
240,224,143121,6,2,B|208:184|160:192,3,70,2|2|10|2
152,152,143873,2,2,B|112:88|176:0,1,140,2|10
272,48,144625,1,4
384,40,145001,5,10
440,136,145377,1,2
368,224,145753,1,10
272,168,146129,2,0,B|192:168|160:248,1,140,6|10
208,280,146693,2,0,B|256:264|272:328|352:320,1,140,4|0
384,288,147257,6,0,B|368:216|432:152,1,140,14|6
336,88,148009,1,10
224,56,148385,1,2
112,88,148761,1,10
192,168,149137,2,0,B|272:168|304:248,1,140,6|10
256,280,149701,2,0,B|208:264|192:328|112:320,1,140,4|0
80,288,150265,6,0,B|96:216|32:152,1,140,14|6
144,128,151017,1,10
232,56,151393,1,2
344,64,151769,1,10
320,176,152145,2,0,B|240:176|208:256,1,140,6|10
256,288,152709,2,0,B|304:272|320:336|400:328,1,140,4|0
432,296,153273,6,0,B|416:224|480:160,1,140,14|6
256,192,154025,12,0,155905
320,144,156657,5,4
216,104,157033,2,0,B|176:96|144:120,4,70
320,144,158161,6,0,B|360:216|296:288,1,140,6|8
256,256,158725,2,0,B|232:216|152:248|128:184,1,140,2|0
112,144,159289,1,10
120,88,159477,1,0
160,48,159665,6,0,B|232:16|312:56,1,140,2|8
352,144,160417,1,0
456,192,160793,1,0
368,256,161169,2,0,B|304:304|232:240,1,140,6|8
200,208,161733,2,0,B|176:136|80:128,1,140,2|0
64,176,162297,1,10
104,216,162485,1,0
88,272,162673,6,0,B|112:344|224:352,1,140,2|8
304,320,163425,1,0
376,232,163801,1,8
392,120,164177,1,2
296,64,164553,1,8
264,112,164741,1,2
208,112,164929,2,0,B|136:160|160:240,1,140,0|10
256,280,165681,5,6
360,232,166057,2,0,B|424:176|400:88,3,140,8|0|8|0
256,192,167279,12,4,168688
256,88,169628,5,0
224,136,169816,1,8
168,152,170004,1,0
144,200,170192,2,0,B|128:280|192:336,1,140,2|8
232,296,170756,2,0,B|256:240|312:280|344:200,1,140,2|0
384,184,171320,6,0,B|424:168|464:200,2,70,10|0|6
304,104,172072,1,8
200,64,172448,1,0
88,80,172824,1,8
32,176,173200,2,0,B|16:264|104:312,1,140,2|8
120,256,173764,2,0,B|176:208|264:224,1,140,2|0
296,256,174328,6,0,B|320:288|304:328,2,70,10|0|6
384,184,175080,1,8
392,72,175456,1,0
392,72,175832,1,8
288,32,176208,2,0,B|216:48|200:136,1,140,2|8
256,136,176772,2,0,B|304:144|288:216|352:240,1,140,2|0
345,237,177336,1,10
392,216,177524,1,0
424,168,177712,5,6
312,168,178088,1,8
200,168,178464,1,0
88,168,178840,1,8
320,248,179216,6,2,B|352:208|400:216,3,70,2|2|10|2
408,176,179968,2,2,B|448:112|384:24,1,140,2|10
296,96,180720,1,4
240,88,180908,5,0
184,104,181096,1,8
152,144,181284,1,0
152,200,181472,2,0,B|176:280|280:288,1,140,0|8
336,208,182224,2,2,B|416:200|472:272,1,140,2|10
496,216,182788,2,2,B|464:144|496:72,1,140
492,79,183352,1,10
492,79,183540,1,0
492,79,183728,5,6
376,64,184104,2,0,B|328:56|304:80,1,70,8|0
280,128,184480,2,0,B|248:160|280:192,1,70
320,224,184856,1,8
304,280,185044,2,2,B|256:344|168:312,1,140
152,264,185608,2,2,B|128:216|184:168|144:112,1,140,10|2
192,88,186172,2,0,B|224:56|264:64,2,70,0|8|0
136,72,186736,5,6
104,176,187112,2,2,B|160:232|256:216,1,140,10|2
280,192,187676,2,2,B|312:168|360:168,1,70,2|10
400,184,188052,2,2,B|448:256|408:336,1,140
416,317,188616,1,10
368,344,188804,1,0
312,328,188992,2,2,B|248:272|176:304,1,140,2|10
120,208,189744,5,6
168,176,189932,2,2,B|184:128|144:104,2,70,2|10|2
272,216,190684,1,0
272,216,190872,1,10
272,216,191060,1,0
320,248,191248,6,2,B|352:208|400:216,3,70,2|2|10|2
408,176,192000,2,2,B|448:112|384:24,1,140,2|10
296,96,192752,1,4
240,88,192940,5,0
184,104,193128,1,8
152,144,193316,1,0
152,200,193504,2,0,B|176:280|280:288,1,140,0|8
336,208,194256,2,2,B|416:200|472:272,1,140,2|10
496,216,194820,2,2,B|464:144|496:72,1,140
492,79,195384,1,10
492,79,195572,1,0
492,79,195760,5,6
376,64,196136,2,0,B|328:56|304:80,1,70,8|0
280,128,196512,2,0,B|248:160|280:192,1,70
320,224,196888,1,8
304,280,197076,2,2,B|256:344|168:312,1,140
152,264,197640,2,2,B|128:216|184:168|144:112,1,140,10|2
192,88,198204,2,0,B|224:56|264:64,2,70,0|8|0
136,72,198768,5,6
104,176,199144,2,2,B|160:232|256:216,1,140,10|2
280,192,199708,2,2,B|312:168|360:168,1,70,2|10
400,184,200084,2,2,B|448:256|408:336,1,140
416,317,200648,1,10
368,344,200836,1,0
312,328,201024,2,2,B|248:272|176:304,1,140
120,208,201776,5,6
144,160,201964,2,2,B|160:112|120:88,2,70
256,184,202716,1,0
256,184,202904,1,0
256,184,203092,1,0
256,192,203279,12,4,204783
